#TITLE:BEAMS;
#SUBTITLE:;
#ARTIST:上妻宏光;
#TITLETRANSLIT:;
#SUBTITLETRANSLIT:;
#ARTISTTRANSLIT:Agatsuma;
#CREDIT:;
#BANNER:BEAMS.png;
#BACKGROUND:BEAMS-background.png;
#JACKET:BEAMS-jacket.png;
#LYRICSPATH:;
#CDTITLE:cdtitle.png;
#MUSIC:BEAMS.mp3;
#OFFSET:-7.579;
#SAMPLESTART:37.800;
#SAMPLELENGTH:12.000;
#SELECTABLE:YES;
#BPMS:0.000=126.980,189.000=127.400,213.000=127.000,217.500=120.000,219.000=115.000,220.500=110.001,222.000=96.041,223.000=94.001,223.500=90.001,224.000=75.001,226.000=50.001;
#STOPS:60.000=1.417
;
#BGCHANGES:;

//---------------dance-single - ----------------
#NOTES:
     dance-single:
     :
     Hard:
     7:
     0.372,0.397,0.057,0.000,0.111: // measure 1
0001
0000
0100
0000
0001
0000
0000
0100
0000
0000
0100
0000
0000
0000
0000
0000
,  // measure 2
0000
0000
0010
0000
1000
0000
0000
0001
0000
0000
0001
0000
0000
0000
0000
0000
,  // measure 3
1000
0000
0100
0000
1000
0000
0000
0100
0000
0000
0100
0000
0000
0000
0000
0000
,  // measure 4
0000
0000
0010
0000
0001
0000
0000
1000
0000
0000
1000
0000
0000
0000
0000
0000
,  // measure 5
1001
0000
0000
0000
0001
0000
0000
0010
0000
0000
0100
0000
0000
0000
0000
0000
,  // measure 6
1001
0000
0000
0000
1000
0000
0000
0010
0000
0000
0100
0000
0000
0000
0000
0000
,  // measure 7
1001
0000
0000
0000
0001
0000
0000
0010
0000
0000
0100
0000
0000
0000
0000
0000
,  // measure 8
1001
0000
0000
0000
1000
0000
0000
0010
0000
0000
0100
0000
0000
0000
0000
0000
,  // measure 9
1001
0000
0000
0000
0001
0000
0000
0100
0000
0000
0001
0000
0000
0000
1000
0000
,  // measure 10
0010
0000
0000
0000
0000
0100
0100
0010
,  // measure 11
1000
0000
0000
0010
0000
0000
0000
0000
0000
0000
0000
0000
0100
0000
0001
0000
,  // measure 12
1000
0010
0000
0000
0000
0000
0000
0000
,  // measure 13
0100
0000
0010
0000
1000
0000
0000
0010
0000
1000
0010
0000
1000
0000
0000
0000
,  // measure 14
1000
0000
0001
0000
0010
0000
0000
0100
0000
0010
0100
0000
1000
0000
0000
0000
,  // measure 15
0001
0000
0100
0000
0010
0000
0000
1000
0000
0010
1000
0000
0001
0000
0000
0000
,  // measure 16
0000
0000
0000
0000
0101
0000
0000
0100
0000
0000
0001
0000
1000
0000
0000
0000
,  // measure 17
0000
0100
0010
0000
0000
0000
0000
0000
,  // measure 18
0000
0100
1000
0100
0000
0000
0000
0000
,  // measure 19
0000
0010
0001
0010
0000
0000
0000
0000
,  // measure 20
0000
0000
0000
0000
0001
0000
0000
0100
0000
0000
0001
0000
1000
0000
0000
0000
,  // measure 21
0000
0100
0010
0000
0000
0000
0000
0000
,  // measure 22
0000
0000
0010
0000
0100
0000
1000
0001
0000
0000
0000
0000
0000
0000
0000
0000
,  // measure 23
0001
0100
0001
1000
0000
0100
0000
1000
,  // measure 24
0000
0000
0001
0000
0100
0000
0000
0010
0000
0000
0100
0000
0001
0000
0000
0000
,  // measure 25
0000
0010
0100
0000
0000
0000
0000
0000
,  // measure 26
0000
0010
0001
1000
0000
0000
0000
0000
,  // measure 27
0000
0001
0100
0001
0000
0000
0000
0000
,  // measure 28
0000
0000
0000
0000
1001
0000
0000
0000
0000
0000
0100
0000
0010
0000
0000
0010
,  // measure 29
0000
0000
0100
0000
0001
0000
0000
0000
1000
0000
0000
0000
0100
0000
0000
1000
,  // measure 30
0000
1000
0010
0000
0000
0000
0000
0000
,  // measure 31
0000
0100
0001
0100
0001
0100
0001
0100
,  // measure 32
0010
1000
0001
0100
0001
0010
0001
1000
,  // measure 33
0001
0010
0001
0100
0100
0010
0100
0001
,  // measure 34
1000
0100
0010
0100
1000
0010
0100
0001
,  // measure 35
1000
0100
1000
0010
0001
0010
0001
0010
,  // measure 36
1000
0000
0001
0100
0000
0000
0010
0000
0010
0000
0010
0000
0010
0000
0100
0000
,  // measure 37
0010
0000
0100
0010
0000
0000
0100
0000
0010
0000
0000
0100
0000
0000
0010
0000
,  // measure 38
1000
0000
0000
0001
0000
0000
1000
0000
0100
0000
1000
0000
0001
0000
0100
0000
,  // measure 39
1000
0100
0001
0010
0100
1000
0001
0010
,  // measure 40
0100
1000
0001
0001
0100
0100
0010
0010
,  // measure 41
1000
1000
0001
0001
0001
0001
0001
1000
,  // measure 42
1000
0100
0010
0010
0010
0010
0010
0010
,  // measure 43
0100
0100
1000
1000
1000
1000
1000
0001
,  // measure 44
1000
0001
0100
0010
0001
0010
0100
0001
,  // measure 45
1000
0100
0010
0100
1000
0001
0100
0001
,  // measure 46
0001
0001
1000
1000
0010
0100
0100
0010
,  // measure 47
1000
1000
0001
0001
0010
0001
0001
0010
,  // measure 48
0100
1000
0001
0000
0100
0000
0010
1000
,  // measure 49
0010
1000
0010
0000
0100
0000
0001
1000
,  // measure 50
0001
1000
0001
0000
0010
0000
0100
1000
,  // measure 51
0100
1000
0100
0000
1000
0000
0010
1000
,  // measure 52
0010
1000
0010
0100
0001
0000
1000
0001
,  // measure 53
0010
0000
0100
1000
0010
0000
0100
0001
,  // measure 54
0010
0000
0100
0000
0000
1000
0000
0000
,  // measure 55
0001
0000
0000
0100
0000
0000
0001
0000
,  // measure 56
0000
1000
0000
0000
0100
1000
0001
0100
,  // measure 57
0001
0000
0010
0000
0001
0000
1000
0000
0001
0000
1000
0000
0000
0000
0000
0100
;

//---------------dance-single - ----------------
#NOTES:
     dance-single:
     :
     Medium:
     5:
     0.299,0.304,0.041,0.000,0.029:
1000
0001
1000
0000
0001
0000
0000
0000
,
0000
0001
0100
0000
0010
0000
0100
0000
,
0001
1000
0100
0000
1000
0000
0010
0000
,
0000
0100
0001
0000
1000
0000
0100
0000
,
0110
0000
0100
0010
0100
0000
0000
0000
,
1001
0000
0001
1000
0001
0000
0000
0000
,
0110
0000
0100
0010
0100
0000
0000
0000
,
1001
0000
1000
0001
1000
0000
0000
0000
,
1001
0000
0001
0000
0100
0000
0001
0010
,
0100
0000
0000
0000
0000
0010
0001
1000
,
0001
0000
1000
0000
0000
0000
0100
1000
,
0010
0010
0000
0000
0000
0000
0000
0000
,
0100
0001
0100
0000
0010
0000
1000
0000
,
0100
0010
0001
0000
0010
0000
0001
0000
,
0100
0010
1000
0000
0001
0000
0100
0000
,
0000
0000
0000
0000
0010
0000
0000
0100
0000
0000
0001
0000
1000
0000
0000
0000
,
0000
0100
0010
0000
0000
0000
0000
0000
,
0000
0100
1000
0001
0000
0000
0000
0000
,
0000
0001
0100
0001
0000
0000
0000
0000
,
0000
0000
0000
0000
0001
0000
0000
0100
0000
0000
0001
0000
1000
0000
0000
0000
,
0000
1000
0100
0000
0000
0000
0000
0000
,
0000
0000
0100
0000
1000
0000
0000
1000
0000
0000
0000
0000
0000
0000
0000
0000
,
0100
1000
0010
0100
0000
0010
0000
0100
,
0000
0000
0001
0000
1000
0000
0000
1000
0000
0000
0001
0000
0100
0000
0000
0000
,
0000
0001
0010
0000
0000
0000
0000
0000
,
0000
0100
1000
0100
0000
0000
0000
0000
,
0000
0100
0010
0100
0000
0000
0000
0000
,
0000
0000
0000
0000
0000
0000
0000
0000
0000
0000
0010
0000
0001
0000
0000
0001
,
0000
0000
0001
0000
0010
0000
0000
0000
0100
0000
0000
0000
1000
0000
0000
0001
,
0000
0100
0001
0000
0000
0000
0000
0000
,
0000
0001
0100
0000
0010
0000
1000
0000
,
0100
1000
0100
0010
0100
1000
0100
0010
,
0001
0000
0001
0100
0010
0000
0100
0010
,
1000
0001
0010
0100
,
1000
0000
0100
0000
1000
0000
0010
0100
,
0001
0100
0000
0001
0100
0010
1000
0000
,
0010
0000
0100
0010
1000
0000
0010
0100
,
0001
0000
1000
0000
0100
0000
1000
0010
,
0100
0001
1000
0001
,
0100
0001
0100
1000
,
0100
0010
1000
0010
,
0100
0001
0001
0001
,
0001
0000
0010
0000
0010
0000
0100
0010
,
0100
0010
0100
0000
1000
0000
0100
1000
,
0010
0100
0001
0000
1000
0000
0001
0100
,
0010
1000
0010
0000
0100
0000
0001
0010
,
0100
0010
0001
0000
1000
0000
0001
0100
,
1000
0100
0010
0000
0010
0000
0100
0000
,
0100
0001
1000
0100
,
1000
0010
0100
0000
0001
0000
1000
0000
,
0100
1000
0100
0000
1000
0000
0010
0000
,
0100
0000
0001
0100
0001
0000
0100
0010
,
0100
0000
0010
1000
0010
0000
1000
0001
,
1000
0000
0001
0000
0000
1000
0000
0000
,
0100
0000
0000
1000
0000
0000
0010
0000
,
0000
0100
0000
0000
0010
0000
1000
0001
,
0100
0000
0001
0000
1000
0000
0100
0000
1000
0000
0100
0000
0000
0000
0000
0010
;

//---------------dance-single - ----------------
#NOTES:
     dance-single:
     :
     Easy:
     3:
     0.179,0.210,0.041,0.033,0.004:
1000
0001
0100
0000
,
0000
0001
0001
0000
,
1000
0100
1000
0000
,
0000
0010
0100
0000
,
1001
0000
0000
0000
,
1010
0000
0000
0000
,
1001
0000
0000
0000
,
0101
0000
0000
0000
,
1001
0001
1000
0100
,
0010
0000
0000
0100
,
1000
0000
0000
0001
,
0100
0000
0000
0000
,
0010
0100
0001
1000
,
0001
0100
0001
1000
,
0010
1000
0100
0010
,
0000
0100
0010
0001
,
0000
1000
0000
0000
,
0000
0100
0000
0000
,
0000
1000
0000
0000
,
0000
0001
0100
0001
,
0000
1000
0000
0000
,
0000
0010
0000
0000
,
0000
0100
0000
0001
,
0000
1000
0100
1000
,
0000
0010
0000
0000
,
0000
0100
0000
0000
,
0000
0001
0000
0000
,
0000
0000
0000
1000
,
0001
0100
0001
1000
,
0100
1000
0000
0000
,
0000
0100
0010
0100
,
0010
0001
1000
0001
,
1000
0001
0100
0001
,
0100
0010
1000
0010
,
1000
0010
0100
0001
,
1000
0100
0010
0010
,
0010
0100
0010
0100
,
0010
0001
1000
0001
,
0100
0001
1000
0100
,
1000
0001
0100
0001
,
0100
0010
0010
0010
,
0010
0100
0100
0100
,
0001
1000
1000
1000
,
0100
1000
0010
0100
,
0100
0001
1000
0100
,
0010
0001
0001
0001
,
0010
0100
0010
0001
,
1000
0020
0000
0000
,
0000
0000
0000
0000
,
0030
2000
0000
0000
,
0000
0000
0000
0000
,
3000
0002
0000
0000
,
0003
2000
0000
0000
,
3000
0000
0001
0000
0000
1000
0000
0000
,
0001
0000
0000
1000
0000
0000
0001
0000
,
0000
1000
0000
0000
0001
0000
0000
0000
,
1000
0000
0000
0000
0001
0000
0000
0000
1000
0000
0000
0000
0000
0000
0000
0001
;

//---------------dance-single - ----------------
#NOTES:
     dance-single:
     :
     Beginner:
     1:
     0.081,0.115,0.025,0.000,0.000:
0001
0000
0000
0000
,
0000
1000
0000
0000
,
0010
0000
0000
0000
,
0000
0100
0000
0000
,
1001
0000
0000
0000
,
0010
0000
0000
0000
,
1001
0000
0000
0000
,
0100
0000
0000
0000
,
0001
0000
0000
0000
,
0100
0000
0000
0001
,
1000
0000
0000
1000
,
1000
0000
0000
0000
,
0010
0000
0000
0000
,
0100
0000
0000
0000
,
0001
0000
0000
0000
,
0000
1000
0000
0000
,
0000
0001
0000
0000
,
0000
0100
0000
0000
,
0000
0001
0000
0000
,
0000
1000
0000
0000
,
0000
0010
0000
0000
,
0000
0100
0000
0000
,
0000
0010
0000
1000
,
0000
0001
0000
0000
,
0000
0100
0000
0000
,
0000
0001
0000
0000
,
0000
1000
0000
0000
,
0000
0000
0000
0100
,
0000
1000
0000
0001
,
0000
0100
0000
0000
,
0000
0010
0000
0100
,
0000
0001
0000
0000
,
0000
1000
0000
0000
,
0000
0100
0000
0000
,
0000
1000
0000
0000
,
0000
0001
0000
0000
,
0000
0100
0000
0000
,
0000
0001
0000
0000
,
0000
1000
0000
0000
,
0000
0001
0000
0000
,
0000
0100
0000
0000
,
0000
0001
0000
0000
,
0001
0010
0000
0000
,
0010
0100
0000
0000
,
0100
0100
0000
0000
,
0000
1000
0000
0000
,
0000
0100
0000
0000
,
0000
1001
0000
0000
,
0000
1000
0000
0000
,
0000
0001
0000
0000
,
0000
0100
0000
0000
,
0000
0001
0000
0000
,
0000
1000
0000
0000
,
0000
0100
0000
0000
,
0100
0000
0000
0010
,
0000
0000
0001
0000
,
1000
0000
0000
0000
;
