#TITLE:Amancer;
#SUBTITLE:;
#ARTIST:PINK PONG;
#TITLETRANSLIT:;
#SUBTITLETRANSLIT:;
#ARTISTTRANSLIT:;
#CREDIT:;
#BANNER:Amancer.png;
#BACKGROUND:Amancer-background.png;
#JACKET:Amancer-jacket.png;
#LYRICSPATH:;
#CDTITLE:;
#MUSIC:Amancer.mp3;
#OFFSET:-0.025;
#SAMPLESTART:66.360;
#SAMPLELENGTH:12.000;
#SELECTABLE:YES;
#BPMS:0.000=123.000;
#STOPS:60.000=3.414
;
#BGCHANGES:;

//---------------dance-single - ----------------
#NOTES:
     dance-single:
     :
     Hard:
     7:
     0.383,0.389,0.067,0.025,0.394:
0000
0000
0000
0000
,
0000
0000
0000
0000
,
0000
0000
0000
0000
,
0000
0000
0000
0000
,
1100
0000
0000
0100
0000
0000
0100
0000
0000
0000
0000
0000
0010
0000
0000
0001
,
1000
0000
0000
0000
0000
0000
1000
0100
,
0010
0000
0000
0010
0000
0000
0100
0000
0000
0000
0001
0000
0001
0000
1000
0000
,
0010
0100
0001
1000
1010
0000
0100
0010
,
0001
0000
0010
0000
1000
0000
0100
0010
,
0110
0000
0000
0100
0000
0000
1000
0000
,
1001
0000
0000
0000
0000
0000
0000
0001
,
0100
0100
0010
0001
0001
0100
0001
0010
,
0100
0000
0000
0001
0000
0000
1000
0000
0000
0000
0000
0000
0100
0000
0000
0010
,
0001
0000
0000
0000
0000
0000
0001
0010
,
0100
0000
0000
1000
0000
0100
0010
0010
,
0001
0000
0000
0000
0001
0100
0000
0010
1000
0000
1000
0100
0000
0010
0001
0000
,
2200
0000
3300
0000
1001
0000
0000
1000
0000
0000
1000
0000
0000
1000
0000
0000
,
1000
0000
0100
0000
0010
0000
0000
0010
0000
0000
0010
0000
0000
0010
0000
0000
,
0010
0000
0100
0000
1000
0000
0000
1000
0000
0000
1000
0000
0000
1000
0000
0000
,
1000
0000
0001
0000
0100
0000
0000
0100
0000
0000
0100
0000
0000
0100
0000
0000
,
0100
0000
0001
0000
0010
0000
0000
0010
0000
0000
0010
0000
0000
0010
0000
0000
,
0010
0000
0100
0000
1000
0000
0000
1000
0000
0000
1000
0000
0000
1000
0000
0000
,
1000
0000
0100
0000
0010
0000
0000
0010
0000
0000
0010
0000
0000
0010
0000
0000
,
0100
0000
1000
0000
0001
0000
0000
0001
0000
0000
0001
0000
0000
0001
0000
0000
,
0001
0000
0100
0000
0010
0000
0000
0100
0000
0000
0010
0000
0000
0100
0000
0000
,
0010
0000
1000
0000
0001
0000
0000
0100
0000
0000
0001
0000
0000
0100
0000
0000
,
0001
0000
0100
0000
0010
0000
0000
0100
0000
0000
0010
0000
0000
0100
0000
0000
,
0010
0000
1000
0000
0100
0000
0000
0010
0000
0000
0100
0000
0000
0010
0000
0000
,
0100
0000
1000
0000
0001
0000
0000
1000
0000
0000
0001
0000
0000
1000
0000
0000
,
0001
0000
0100
0000
0010
0000
0000
1000
0000
0000
0010
0000
0000
1000
0000
0000
,
0010
0000
0100
0000
0001
0000
0000
0010
0000
0000
0001
0000
0000
0010
0000
0000
,
0001
0000
0010
0000
0100
0000
0000
0010
0000
0000
0100
0000
0000
0010
0000
0000
,
0100
0000
1000
0000
0001
0000
0000
1000
0000
0000
0010
0000
0000
1000
0000
0000
,
0001
0000
1000
0000
0010
0000
0000
0100
0000
0000
0001
0000
1000
0000
0000
0100
,
0000
0000
0010
0000
0001
0000
0000
0001
0000
0000
1000
0000
0000
1000
0000
0000
,
0010
0000
0100
0001
0100
0000
0000
0100
0000
0000
0100
0000
0110
0000
0000
0000
,
0010
0000
1000
0000
0001
0000
0000
0001
0000
0000
1000
0000
0000
1000
0000
0000
,
0010
0000
0100
0001
0100
0000
0000
0010
0000
0000
0100
0000
0000
0001
0000
0000
,
1000
0000
0010
0100
0010
0000
0000
0100
0000
0000
0001
0000
0000
1000
0000
0000
,
0100
0000
0010
0001
1000
0000
0000
0001
0000
0000
0100
0000
0000
0010
0000
0000
,
1000
0000
0100
0000
1000
0000
0000
1000
0000
0000
0100
0000
0000
0100
0000
0000
,
0010
0000
0001
0000
0010
0000
0000
0010
0000
0000
0100
0000
0000
0100
0000
0000
,
1000
0000
0100
0000
0010
0000
0000
0010
0000
0000
0100
0000
0000
0100
0000
0000
,
1000
0000
0001
0000
0100
0000
0000
0100
0000
0000
0001
0000
0000
0001
0000
0000
,
1000
0000
0100
0000
0010
0000
0000
0100
0000
0000
0010
0000
0000
0001
0000
0000
,
0001
0000
0010
0000
0100
0000
0000
0100
0000
0000
1000
0000
0000
0010
0000
0000
,
0100
0000
0001
0000
0100
0000
0000
0100
0000
0000
0001
0000
0000
0001
0000
0000
,
1000
0000
0100
0000
0010
0000
0000
0010
0000
0000
0100
0000
0000
0100
0000
0000
,
1000
0000
0001
0000
1001
0000
0000
0001
0000
0000
0001
0000
0000
0001
0000
0000
,
0001
0000
0100
0000
0010
0000
0000
0010
0000
0000
0010
0000
0000
0010
0000
0000
,
0010
0000
1000
0000
0100
0000
0000
0100
0000
0000
0100
0000
0000
0100
0000
0000
,
0100
0000
0010
0000
0001
0000
0000
0001
0000
0000
0001
0000
0000
0001
0000
0000
,
0001
0000
1000
0000
0010
0000
0000
0010
0000
0000
0010
0000
1000
0000
0000
1000
,
0000
0000
1000
0000
0100
0000
0000
0100
0000
0000
0100
0000
0010
0000
0000
0010
,
0000
0000
0010
0000
0001
0000
0000
0001
0000
0000
0001
0000
1000
0000
0000
1000
,
0000
0000
1000
0000
1000
0000
0000
1000
0100
0000
0000
0100
0010
0000
0000
0010
,
0001
0000
0000
0001
0200
0000
0000
0000
0000
0000
0000
0000
0000
0000
0000
0000
,
0000
0000
0000
0000
,
0300
0000
0000
0000
;

//---------------dance-single - ----------------
#NOTES:
     dance-single:
     :
     Medium:
     5:
     0.269,0.364,0.184,0.017,0.008:
0000
0000
0000
0000
,
0000
0000
0000
0000
,
0000
0000
0000
0000
,
0000
0000
0000
0000
,
0001
0000
0000
0100
,
0010
0000
0000
1000
,
0010
0000
0000
0100
,
0001
0000
1000
0000
,
1100
0100
0100
0100
,
0110
0010
0010
0010
,
0011
0001
0001
0001
,
1001
0000
1000
0000
1000
0000
1000
0001
,
0100
0001
0100
0001
,
1000
0000
0000
0100
,
0010
0100
1000
0001
,
0100
0000
0000
0000
0001
0000
0000
0100
0000
0000
0010
0000
0000
1000
0000
0000
,
1001
0001
0100
0010
,
0100
0001
1000
0000
0100
0000
0010
0000
,
0100
1000
0100
0000
1000
0000
0010
0000
,
0100
0001
0100
0000
0010
0000
1000
0000
,
0001
1000
0100
0000
1000
0000
0010
0000
,
0100
0001
0010
0000
0100
0000
0010
0000
,
0001
1000
0100
0000
1000
0000
0010
0000
,
0100
0010
1000
0000
0001
0000
0010
0000
,
0100
0010
0011
0000
0001
0000
1000
0000
,
0100
1000
0100
0000
1000
0000
0010
0000
,
0100
0010
0100
0000
0010
0000
1000
0000
,
0001
0100
0001
0000
0010
0000
0100
0000
,
0100
0010
0001
0000
1000
0000
0010
0000
,
0100
0001
0010
0000
0100
0000
1000
0000
,
1000
0010
0100
0000
0010
0000
1000
0000
,
0001
0010
0001
0000
0100
0000
0001
0000
,
0001
0010
0100
0000
0000
0000
0000
0000
,
0000
0100
0010
0000
0000
0000
0001
0000
,
0000
1001
0000
0000
,
0000
0001
0100
0000
0000
0000
0001
0000
,
0100
0010
1000
0000
0000
0000
0000
0000
,
1000
0100
0010
0000
0000
0000
0100
0000
,
0000
0100
0010
0000
0000
0000
0000
0000
,
0000
0100
0010
0000
0000
0000
0010
0001
,
0010
0100
1000
0000
0000
0000
0000
0000
,
0000
0001
0100
0000
0000
0000
0010
0000
,
0000
0100
0000
0000
,
0000
0100
0001
0000
0000
0000
0001
0000
,
1000
0001
0100
0000
0000
0000
0000
0000
,
0100
0010
0010
0000
0000
0000
0100
0000
,
0000
0001
0100
0000
0000
0000
0000
0100
,
0010
1000
0100
0000
0100
0000
0010
0000
,
0001
1001
0001
1000
,
0100
1100
0100
0010
,
0001
0011
0001
0100
,
0010
0110
0010
1000
,
0010
0110
0100
1001
,
0010
0101
0001
0011
,
0010
0110
0100
1100
,
0100
1100
0011
0101
,
1010
2002
0000
0000
,
0000
0000
0000
0000
,
3003
0000
0000
0000
;

//---------------dance-single - ----------------
#NOTES:
     dance-single:
     :
     Easy:
     2:
     0.136,0.212,0.042,0.034,0.000:
0000
0000
0000
0000
,
0000
0000
0000
0000
,
0000
0000
0000
0000
,
0000
0000
0000
0000
,
0000
0000
0000
0000
,
0000
0000
0000
0000
,
0000
0000
0000
0000
,
0000
0000
0000
0000
,
0101
0000
0000
0000
,
0001
0000
1000
0000
,
0100
0000
0000
0000
,
1000
0000
0001
1000
,
0010
0000
0000
0100
,
0100
0000
0000
0001
,
0010
0000
0100
0000
,
0100
0000
0000
0000
,
1001
0110
0000
0100
,
0010
1000
0000
0001
,
1000
0001
0000
0100
,
0001
0100
0000
0010
,
1000
0100
0000
0100
,
0010
0001
0000
1000
,
0001
0100
0000
0001
,
1000
0100
0000
1000
,
0010
0100
0000
0010
,
0000
0100
0001
0100
,
0000
0010
0000
1000
,
0000
0010
0100
0010
,
0000
1000
0000
0001
,
0000
1000
0100
0010
,
0000
0100
0000
1000
,
0000
0010
0100
0001
,
1000
1001
0000
0000
,
0000
0001
0000
0100
,
0000
0010
0000
0000
,
0000
0100
0000
0001
,
1000
0100
0000
0000
,
0000
0100
0000
1000
,
0000
0001
0000
0000
,
0000
0100
0000
0001
,
1000
0100
0000
0000
,
0000
0010
0000
0001
,
0000
0100
0000
0000
,
0000
0001
0000
1000
,
0100
1000
0000
0000
,
0010
0100
0000
0001
,
0000
1000
0000
0000
,
0100
0010
0000
0001
,
1000
0020
0000
0000
,
0030
0200
0000
0000
,
0300
0002
0000
0000
,
0003
2000
0000
0000
,
3000
0010
0000
0100
,
0000
0001
0000
1000
,
0000
0010
0000
0100
,
0000
0010
0010
0100
,
0100
1001
0000
0000
;

//---------------dance-single - ----------------
#NOTES:
     dance-single:
     :
     Beginner:
     1:
     0.090,0.141,0.034,0.000,0.000: // measure 1
0000
0000
0000
0000
,  // measure 2
0000
0000
0000
0000
,  // measure 3
0000
0000
0000
0000
,  // measure 4
0000
0000
0000
0000
,  // measure 5
0000
0000
0000
0000
,  // measure 6
0000
0000
0000
0000
,  // measure 7
0000
0000
0000
0000
,  // measure 8
0000
0000
0000
0000
,  // measure 9
0001
0000
0000
0000
,  // measure 10
0100
0000
0000
0001
,  // measure 11
0001
0000
0000
0000
,  // measure 12
1000
0000
0100
0000
,  // measure 13
1000
0000
0000
0010
,  // measure 14
0010
0000
0000
0100
,  // measure 15
0100
0000
0000
0000
,  // measure 16
0001
0000
0000
0000
,  // measure 17
0110
1001
0000
0000
,  // measure 18
0000
0001
0000
0000
,  // measure 19
0000
0100
0000
0000
,  // measure 20
0000
0001
0000
0000
,  // measure 21
0000
1000
0000
0000
,  // measure 22
0000
0100
0000
0000
,  // measure 23
0000
1000
0000
0000
,  // measure 24
0000
0010
0000
0000
,  // measure 25
0100
0100
0000
0000
,  // measure 26
0000
0001
0000
0000
,  // measure 27
0000
1000
0000
0000
,  // measure 28
0000
0100
0000
0000
,  // measure 29
0000
1000
0000
0000
,  // measure 30
0000
0010
0000
0000
,  // measure 31
0000
0100
0000
0000
,  // measure 32
0000
0001
0000
1000
,  // measure 33
0000
0110
0000
0000
,  // measure 34
0000
0100
0000
0010
,  // measure 35
0000
1000
0000
0000
,  // measure 36
0000
0001
0000
0000
,  // measure 37
0000
1000
0000
0000
,  // measure 38
0000
0100
0000
1000
,  // measure 39
0000
0001
0000
0000
,  // measure 40
0000
0100
0000
0001
,  // measure 41
0000
1000
0000
0000
,  // measure 42
0000
0010
0000
0100
,  // measure 43
0000
0001
0000
0000
,  // measure 44
0000
1000
0000
0100
,  // measure 45
0100
0100
0000
0000
,  // measure 46
0000
1000
0000
0001
,  // measure 47
0000
0100
0000
0000
,  // measure 48
0001
0001
0000
1000
,  // measure 49
0000
0010
0000
0000
,  // measure 50
0000
0100
0000
0000
,  // measure 51
0000
0001
0000
0000
,  // measure 52
0000
1000
0000
0000
,  // measure 53
0000
0100
0000
0100
,  // measure 54
0000
0010
0000
0010
,  // measure 55
0000
0001
0000
0001
,  // measure 56
0000
1000
1000
0001
,  // measure 57
0001
1001
0000
0000
;
