#TITLE:Airbrushed;
#SUBTITLE:;
#ARTIST:Anamanaguchi;
#TITLETRANSLIT:;
#SUBTITLETRANSLIT:;
#ARTISTTRANSLIT:;
#CREDIT:;
#BANNER:Airbrushed.png;
#BACKGROUND:Airbrushed-background.png;
#JACKET:Airbrushed-jacket.png;
#LYRICSPATH:;
#CDTITLE:;
#MUSIC:Airbrushed.mp3;
#OFFSET:-1.664;
#SAMPLESTART:1.620;
#SAMPLELENGTH:12.000;
#SELECTABLE:YES;
#BPMS:0.000=187.500;
#STOPS:303.500=1.280
;
#BGCHANGES:;

//---------------dance-single - ----------------
#NOTES:
     dance-single:
     :
     Hard:
     8:
     0.515,0.643,0.033,0.496,0.012: // measure 1
0001
0020
0000
0000
0000
0000
0000
0000
,  // measure 2
0000
0000
0000
0000
0000
0100
0000
0200
,  // measure 3
0030
0000
1000
0000
,  // measure 4
0010
0000
1000
0000
,  // measure 5
1300
2000
0000
0000
0000
0000
0000
0000
,  // measure 6
0000
0000
0000
0000
0000
0100
0000
3200
,  // measure 7
0000
0000
1000
0000
,  // measure 8
0010
0000
2300
0000
,  // measure 9
3000
0100
0010
0001
0000
0001
0010
0100
,  // measure 10
0000
0100
1000
0010
0000
0100
0001
1000
,  // measure 11
0000
0001
0100
0001
0000
0100
0010
0100
,  // measure 12
0000
0010
1000
0010
0000
1000
0001
1000
,  // measure 13
0000
0001
0100
1000
0000
1000
0100
0010
,  // measure 14
0000
0100
0001
1000
0000
0001
0010
1000
,  // measure 15
0000
1000
0010
0100
0000
0010
0100
0010
,  // measure 16
0000
0100
1000
0100
0000
0100
0010
0000
,  // measure 17
0001
0001
0001
0001
,  // measure 18
1000
1000
1000
1000
,  // measure 19
0001
0001
1000
1000
,  // measure 20
0010
0100
0010
0100
0010
0100
0010
0100
,  // measure 21
0010
0000
0000
0000
0100
0001
2000
0000
,  // measure 22
3100
0000
0010
0000
0001
0000
1000
0020
,  // measure 23
0000
0030
0000
0000
,  // measure 24
0000
0000
0000
0000
,  // measure 25
0000
0000
0000
0001
1000
0000
0100
0010
,  // measure 26
0200
0000
0300
0010
0100
0100
1000
0002
,  // measure 27
0000
0000
0000
0003
0000
1000
0100
1000
,  // measure 28
0000
0000
0000
0000
0000
0020
0030
0000
0000
0000
0000
0000
,  // measure 29
0100
0010
0100
0000
0010
1000
0010
0000
,  // measure 30
0100
0010
0100
0000
0001
0100
0001
0000
,  // measure 31
0010
0001
0010
0000
0100
0010
0100
0000
,  // measure 32
1000
0100
1000
0000
0100
0010
0100
0000
,  // measure 33
0020
0000
0032
0000
,  // measure 34
0023
0000
0000
0000
0230
0000
0000
0320
,  // measure 35
0000
0000
0000
0000
0032
0000
0000
0200
,  // measure 36
0000
0000
0000
0303
,  // measure 37
0001
0100
0010
1000
0001
0100
0010
1000
,  // measure 38
0001
0010
0100
1000
0100
0010
0001
1000
,  // measure 39
0000
0001
0100
0010
0000
0000
0000
0000
,  // measure 40
0200
0000
0000
0020
0000
0000
0000
0330
,  // measure 41
0010
0100
0001
1000
0001
0010
0100
1000
,  // measure 42
0010
1000
0010
1000
0010
0100
0001
1000
,  // measure 43
0000
0001
0010
0200
0000
0000
0000
0000
,  // measure 44
0310
0001
0000
0020
0000
0000
0000
0000
,  // measure 45
0130
0010
0001
1000
0010
1000
0001
1000
,  // measure 46
0001
0010
0100
1000
0100
0010
0001
0010
,  // measure 47
0000
0001
0100
0020
0000
0000
0000
0000
,  // measure 48
0230
0000
0000
0002
0000
0000
0303
0000
,  // measure 49
0001
0100
0010
1000
0001
0100
0010
1000
,  // measure 50
0001
0010
0100
1000
0001
0010
0100
1000
,  // measure 51
0100
0010
0001
0010
0100
1000
0001
0200
,  // measure 52
0000
0010
0010
0310
,  // measure 53
0010
1000
0000
0010
0100
0000
0000
0010
,  // measure 54
0000
1000
0000
0001
0010
0000
0100
0000
,  // measure 55
0010
0001
0000
0010
0001
0000
0000
0001
,  // measure 56
0000
1000
0000
0010
1000
0000
0001
0000
,  // measure 57
0010
0100
0000
0100
0010
0000
0000
0010
,  // measure 58
0000
0001
0000
0100
0010
0000
1000
0000
,  // measure 59
0001
0100
0000
0010
1000
0000
0000
0100
,  // measure 60
0000
0010
0000
0001
0010
0000
0001
0000
,  // measure 61
1000
0200
0000
0000
0000
0000
0000
0000
,  // measure 62
0000
0000
0000
0000
0000
0320
0000
0032
,  // measure 63
0000
0000
2000
3000
,  // measure 64
0200
0000
0300
0000
2000
0000
0000
3003
,  // measure 65
0100
0020
0000
0000
0000
0000
0000
0000
,  // measure 66
0000
0000
0000
0000
0000
2030
0000
3200
,  // measure 67
0000
0000
2000
3000
,  // measure 68
0020
0030
2000
3300
,  // measure 69
0000
1000
0100
0010
0000
0010
0001
0010
,  // measure 70
0000
0001
0100
0010
0000
0100
0010
0100
,  // measure 71
0000
0010
1000
0100
0000
0010
0100
0010
,  // measure 72
0000
0100
0001
1000
0000
1000
0100
0001
,  // measure 73
0000
0001
0100
0010
0000
0010
0100
0010
,  // measure 74
0000
0100
1000
0100
0000
0010
0001
0010
,  // measure 75
0000
0001
0100
0010
0000
0100
0010
1000
,  // measure 76
0001
0000
1000
0000
0001
0100
0010
1001
,  // measure 77
1000
0020
1000
0000
0000
0000
1000
0000
,  // measure 78
0000
0000
1000
0000
0000
2030
0000
3200
,  // measure 79
0000
0000
0020
0030
,  // measure 80
0020
0030
0020
0030
,  // measure 81
0310
0001
2000
0000
0000
0000
0001
0000
,  // measure 82
0000
0000
0001
0000
0000
3002
0000
0203
,  // measure 83
0000
0000
0020
0030
,  // measure 84
0002
0003
0020
0330
,  // measure 85
0200
0001
0001
0301
,  // measure 86
0002
1000
1000
2003
,  // measure 87
3200
0000
0010
0000
1000
0000
0310
0002
,  // measure 88
0000
2003
0000
0000
0001
0000
0001
0000
,  // measure 89
3200
0310
0020
0031
,  // measure 90
0002
0000
0103
0000
0020
0000
0130
0002
,  // measure 91
0000
0000
0000
0000
0000
0000
0000
0003
,  // measure 92
1001
0000
0110
0000
1001
0001
0010
0000
,  // measure 93
0100
0000
1000
0000
0001
0000
0200
0000
0000
0000
0000
0000
,  // measure 94
0300
0000
0000
0000
;

//---------------dance-single - ----------------
#NOTES:
     dance-single:
     :
     Medium:
     6:
     0.383,0.492,0.041,0.285,0.008: // measure 1
0001
2000
0000
0000
0000
0000
0000
0000
,  // measure 2
0000
0000
0000
0000
0000
0001
0000
0002
,  // measure 3
0000
3003
0001
0000
,  // measure 4
0100
0000
0010
0000
,  // measure 5
0100
0020
0000
0000
0000
0000
0000
0000
,  // measure 6
0000
0000
0000
0000
0000
0100
0000
0200
,  // measure 7
0000
0330
0010
0000
,  // measure 8
1000
0000
0100
0000
,  // measure 9
0010
0001
0010
0001
,  // measure 10
0010
0100
0010
0100
,  // measure 11
1000
0100
1000
0100
,  // measure 12
1000
0001
1000
0001
,  // measure 13
0100
0010
0100
0001
,  // measure 14
0100
0010
1000
0100
,  // measure 15
0010
0100
1000
0010
,  // measure 16
0100
0100
0010
1000
,  // measure 17
0001
0001
0001
0001
,  // measure 18
1000
1000
1000
1000
,  // measure 19
0010
0010
0010
0010
,  // measure 20
0100
0100
0100
0100
,  // measure 21
0110
0000
0010
1000
,  // measure 22
0001
0000
0010
0000
0100
0000
0010
0001
,  // measure 23
0000
0000
0000
0000
,  // measure 24
0000
0000
0000
0000
,  // measure 25
0000
0000
0000
0001
1000
0000
0010
0000
,  // measure 26
0100
0000
0000
0010
1000
0000
0010
0100
,  // measure 27
0000
0000
0000
0000
0000
0100
0001
0100
,  // measure 28
0000
0000
0000
0000
,  // measure 29
0001
1000
0001
1000
,  // measure 30
0010
1000
0010
1000
,  // measure 31
0010
0100
0010
0100
,  // measure 32
0001
0100
0001
0100
,  // measure 33
0002
0000
0023
0000
,  // measure 34
0230
0000
0000
0000
2300
0000
0000
0020
,  // measure 35
0000
0000
3030
0000
0020
0000
0000
0200
,  // measure 36
0000
0000
0000
0330
,  // measure 37
0010
0100
0001
1000
,  // measure 38
0100
0000
0010
0000
0001
0000
0010
0001
,  // measure 39
0000
0001
0010
0100
0000
0000
0000
0000
,  // measure 40
0020
0000
0000
0002
0000
0000
0033
0000
,  // measure 41
0001
0010
0100
0010
,  // measure 42
0001
0000
1000
0000
0010
0000
0100
0010
,  // measure 43
0000
0010
0100
0010
0000
0000
0000
0000
,  // measure 44
0200
0000
0000
0020
0000
0000
0330
0000
,  // measure 45
0010
1000
0100
0001
,  // measure 46
0100
0000
1000
0000
0010
0000
0001
0010
,  // measure 47
0000
0100
0010
1000
0000
0000
0000
0000
,  // measure 48
0002
0000
0000
2000
0000
0000
3003
0000
,  // measure 49
0001
0001
0001
0001
,  // measure 50
1000
1000
1000
1000
,  // measure 51
0010
0100
0010
0100
,  // measure 52
0000
0000
0000
0000
,  // measure 53
0010
0100
0000
0010
0100
0000
0000
0010
,  // measure 54
0000
1000
0000
0010
1000
0000
0010
0000
,  // measure 55
1000
0001
0000
1000
0001
0000
0000
0001
,  // measure 56
0000
0100
0000
0010
1000
0000
0010
0000
,  // measure 57
0100
0010
0000
0100
0010
0000
0000
0100
,  // measure 58
0000
0001
0000
1000
0100
0000
0010
0000
,  // measure 59
0001
0010
0000
0100
1000
0000
0000
0100
,  // measure 60
0000
0010
0000
0001
1000
0000
0010
0000
,  // measure 61
0100
0002
0000
0000
0000
0000
0000
0000
,  // measure 62
0000
0000
0000
0000
0000
1000
0000
2000
,  // measure 63
0000
3003
0002
0003
,  // measure 64
0200
0300
0020
0030
,  // measure 65
0100
0020
0000
0000
0000
0000
0000
0000
,  // measure 66
0000
0000
0000
0000
0000
0100
0000
0200
,  // measure 67
0000
0330
0200
0300
,  // measure 68
0020
0030
2000
3000
,  // measure 69
0000
0001
0000
1000
,  // measure 70
0000
0000
0100
0000
0000
0010
0001
0010
,  // measure 71
0000
0000
0001
0000
0000
0100
0010
0100
,  // measure 72
0000
0000
0010
0000
0000
1000
0010
1000
,  // measure 73
0000
0010
0000
0100
,  // measure 74
0000
0000
0001
0000
0000
1000
0001
1000
,  // measure 75
0000
0001
0100
0001
0000
0100
0010
0100
,  // measure 76
0010
0000
1000
0000
0010
0100
0001
1000
,  // measure 77
0001
2000
0000
0000
0000
0000
0000
0000
,  // measure 78
0000
0000
0000
0000
0000
0100
0000
3200
,  // measure 79
0000
0000
0010
0000
,  // measure 80
0010
0000
0310
0000
,  // measure 81
0010
0002
0000
0000
0000
0000
0000
0000
,  // measure 82
0000
0000
0000
0000
0000
1000
0000
2000
,  // measure 83
0000
3003
0002
0000
,  // measure 84
0203
0000
0320
0000
,  // measure 85
0130
0001
0100
0001
,  // measure 86
0100
0010
0100
0010
,  // measure 87
1000
0010
1000
0100
,  // measure 88
0010
0001
0010
1000
,  // measure 89
0010
0100
0010
0001
,  // measure 90
1000
0001
0100
0001
,  // measure 91
0100
0010
0100
0010
,  // measure 92
0110
1001
0110
1001
,  // measure 93
0001
0000
1000
0000
0001
0000
0200
0000
0000
0000
0000
0000
,  // measure 94
0300
0000
0000
0000
;

//---------------dance-single - ----------------
#NOTES:
     dance-single:
     :
     Easy:
     3:
     0.247,0.340,0.000,0.155,0.000: // measure 1
0002
0000
0000
0000
,  // measure 2
0000
0000
0000
0000
0000
1000
0000
1000
,  // measure 3
0000
0000
0103
0000
,  // measure 4
0100
0000
0010
0000
,  // measure 5
2000
0000
0000
0000
,  // measure 6
0000
0000
0000
0000
0000
0010
0000
3010
,  // measure 7
0000
0000
0010
0000
,  // measure 8
0100
0000
0001
0000
,  // measure 9
0000
1000
0000
1000
,  // measure 10
0000
1000
0000
1000
,  // measure 11
0000
0001
0000
0100
,  // measure 12
0000
0001
0000
0100
,  // measure 13
0000
0001
0000
0001
,  // measure 14
0000
0001
0000
1000
,  // measure 15
0000
0100
0000
1000
,  // measure 16
0000
0010
0000
0100
,  // measure 17
0001
0000
1000
0000
,  // measure 18
0001
0000
1000
0000
,  // measure 19
0010
0000
0100
0000
,  // measure 20
0010
0010
0100
0100
,  // measure 21
0000
0000
0001
0100
,  // measure 22
0001
1000
0100
0010
,  // measure 23
0000
0000
0000
0000
,  // measure 24
0000
0000
0000
0000
,  // measure 25
0000
0000
0100
1000
,  // measure 26
0010
0000
0100
0001
,  // measure 27
0000
0000
0000
1000
,  // measure 28
0000
0000
0000
0000
,  // measure 29
0001
0000
1000
0000
,  // measure 30
0010
0000
1000
0000
,  // measure 31
0100
0000
1000
0000
,  // measure 32
0010
0000
0100
0000
,  // measure 33
0001
0000
0100
0000
,  // measure 34
0001
0000
0000
0000
1000
0000
0000
1000
,  // measure 35
0000
0000
0000
0000
0010
0000
0000
0020
,  // measure 36
0000
0000
0000
0030
,  // measure 37
0100
0100
0100
0100
,  // measure 38
0001
1000
0100
0010
,  // measure 39
0100
1000
0000
0000
,  // measure 40
0000
0000
0000
0000
,  // measure 41
0001
0001
0001
0001
,  // measure 42
1000
0001
0100
0001
,  // measure 43
0010
0100
0000
0000
,  // measure 44
0000
0000
0000
0000
,  // measure 45
0010
0010
0010
0010
,  // measure 46
0100
0010
0001
1000
,  // measure 47
0010
0001
0000
0000
,  // measure 48
0010
0000
0100
0000
,  // measure 49
0001
1000
0001
1000
,  // measure 50
0010
0100
0010
0100
,  // measure 51
0001
0100
0010
1000
,  // measure 52
0000
0000
0000
0000
,  // measure 53
0010
0000
0100
0000
,  // measure 54
0001
0000
1000
0100
,  // measure 55
0010
0000
0100
0000
,  // measure 56
1000
0000
0001
0100
,  // measure 57
0001
0000
1000
0000
,  // measure 58
0100
0000
0010
0100
,  // measure 59
1000
0000
0001
0000
,  // measure 60
0100
0000
0001
1000
,  // measure 61
0020
0000
0000
0000
,  // measure 62
0000
0000
0000
0000
,  // measure 63
0000
0000
1000
0000
,  // measure 64
1000
0000
1030
0000
,  // measure 65
0200
0000
0000
0000
,  // measure 66
0000
0000
0000
0000
,  // measure 67
0000
0000
0010
0000
,  // measure 68
0010
0000
0310
0000
,  // measure 69
0000
0010
0000
0001
,  // measure 70
0000
1000
0000
0001
,  // measure 71
0000
0100
0000
0001
,  // measure 72
0000
1000
0000
0100
,  // measure 73
0000
0010
0000
0100
,  // measure 74
0000
1000
0000
0001
,  // measure 75
0000
0100
0000
0001
,  // measure 76
1000
1000
0001
1000
,  // measure 77
0020
0000
0000
0000
,  // measure 78
0100
0000
0000
0130
,  // measure 79
0200
0000
0000
0000
,  // measure 80
0302
0000
2003
0000
,  // measure 81
3200
0000
0000
0000
,  // measure 82
2300
0000
0000
0000
,  // measure 83
3002
0000
0100
0000
,  // measure 84
0100
0000
0100
0000
,  // measure 85
0103
0001
0100
0001
,  // measure 86
0100
0010
0100
0010
,  // measure 87
1000
0100
1000
0100
,  // measure 88
0010
0001
1000
0001
,  // measure 89
2000
3000
0002
0003
,  // measure 90
0200
0300
0020
0030
,  // measure 91
2000
0000
0000
0000
,  // measure 92
3010
0100
0001
1000
,  // measure 93
0002
0000
0023
0000
,  // measure 94
0030
0000
0000
0000
;

//---------------dance-single - ----------------
#NOTES:
     dance-single:
     :
     Beginner:
     2:
     0.168,0.302,0.081,0.041,0.000: // measure 1
0001
0000
0000
0000
,  // measure 2
0000
0000
0000
1000
,  // measure 3
0000
0000
0010
0000
,  // measure 4
0010
0000
0010
0000
,  // measure 5
0100
0000
0000
0000
,  // measure 6
0000
0000
0000
0100
,  // measure 7
0000
0000
0001
0000
,  // measure 8
0001
0000
0001
0000
,  // measure 9
0000
1000
0000
0000
,  // measure 10
0000
0001
0000
0100
,  // measure 11
0000
0001
0000
0000
,  // measure 12
0000
0001
0000
0000
,  // measure 13
0000
1000
0000
0000
,  // measure 14
0000
0010
0000
0000
,  // measure 15
0000
0100
0000
0010
,  // measure 16
0000
0100
0000
0010
,  // measure 17
1001
0000
0000
0000
,  // measure 18
0001
0000
0000
0000
,  // measure 19
0100
0000
0010
0000
,  // measure 20
1000
1000
1000
1000
,  // measure 21
0000
0000
0001
0000
,  // measure 22
0001
0000
0001
0000
,  // measure 23
0000
0000
0000
0000
,  // measure 24
0000
0000
0000
0000
,  // measure 25
0000
0000
0100
0000
,  // measure 26
0010
0000
0100
0000
,  // measure 27
0000
0000
0000
0001
,  // measure 28
0000
0000
0000
0000
,  // measure 29
1000
0000
0000
0000
,  // measure 30
0100
0000
0000
0000
,  // measure 31
1000
0000
0000
0000
,  // measure 32
0010
0000
0000
0000
,  // measure 33
0100
0000
0100
0000
,  // measure 34
0001
0000
0001
0000
,  // measure 35
1000
0000
0010
0000
,  // measure 36
0200
0000
0000
0300
,  // measure 37
0010
0000
0000
0000
,  // measure 38
0010
0000
0100
0000
,  // measure 39
0001
0000
0000
0000
,  // measure 40
1000
0000
0000
0000
,  // measure 41
0001
0000
0000
0000
,  // measure 42
0010
0000
0100
0000
,  // measure 43
1000
0000
0000
0000
,  // measure 44
1001
0000
0000
0000
,  // measure 45
0001
0000
0001
0000
,  // measure 46
0100
0000
0010
0000
,  // measure 47
1000
0000
0000
0000
,  // measure 48
0010
0000
0000
0000
,  // measure 49
1001
0000
0000
0000
,  // measure 50
1001
0000
0000
0000
,  // measure 51
1001
0000
0110
0000
,  // measure 52
1001
0000
0000
0000
,  // measure 53
1001
0000
0000
0000
,  // measure 54
0001
0000
1000
0000
,  // measure 55
0100
0000
0000
0000
,  // measure 56
1000
0000
0010
0000
,  // measure 57
0100
0000
0000
0000
,  // measure 58
0001
0000
1000
0000
,  // measure 59
0010
0000
0000
0000
,  // measure 60
0100
0000
0001
0000
,  // measure 61
2000
0000
0000
0000
,  // measure 62
0000
0000
0000
0000
,  // measure 63
3000
0000
0001
0000
,  // measure 64
0001
0000
0001
0000
,  // measure 65
0200
0000
0000
0000
,  // measure 66
0000
0000
0000
0000
,  // measure 67
0300
0000
0010
0000
,  // measure 68
0010
0000
0010
0000
,  // measure 69
0100
0000
0000
0000
,  // measure 70
0001
0000
0000
1000
,  // measure 71
1000
0000
0000
0000
,  // measure 72
0100
0000
0000
0010
,  // measure 73
0010
0000
0000
0000
,  // measure 74
0001
0000
0000
1000
,  // measure 75
1000
0000
0001
0000
,  // measure 76
0100
0000
0010
0000
,  // measure 77
2000
0000
0000
0000
,  // measure 78
0000
0000
0000
0000
,  // measure 79
3000
0000
0001
0000
,  // measure 80
0100
0000
0010
0000
,  // measure 81
0200
0000
0000
0000
,  // measure 82
0000
0000
0000
0000
,  // measure 83
0300
0000
0010
0000
,  // measure 84
1000
0000
0001
0000
,  // measure 85
1000
1000
0000
0001
,  // measure 86
0000
1000
0000
0001
,  // measure 87
0000
0100
0000
0001
,  // measure 88
0000
0100
0000
0010
,  // measure 89
0100
0000
0010
0000
,  // measure 90
1000
0000
0100
0000
,  // measure 91
0010
0000
0000
0000
,  // measure 92
0001
0001
1000
1000
,  // measure 93
0001
0000
1001
0000
,  // measure 94
1001
0000
0000
0000
;
