#TITLE:Acid Wolfpack;
#SUBTITLE:;
#ARTIST:Coyote Kisses;
#TITLETRANSLIT:;
#SUBTITLETRANSLIT:;
#ARTISTTRANSLIT:;
#CREDIT:;
#BANNER:Acid Wolfpack.png;
#BACKGROUND:Acid Wolfpack-background.png;
#JACKET:Acid Wolfpack-jacket.png;
#LYRICSPATH:;
#CDTITLE:cdtitle.png;
#MUSIC:Acid Wolfpack.mp3;
#OFFSET:-10.708;
#SAMPLESTART:16.020;
#SAMPLELENGTH:12.000;
#SELECTABLE:YES;
#BPMS:0.000=180.000;
#STOPS:12.000=1.000
,83.000=0.333
,128.000=0.333
,193.000=0.333
;
#BGCHANGES:;

//---------------dance-single - ----------------
#NOTES:
     dance-single:
     :
     Hard:
     9:
     0.597,0.644,0.196,0.266,0.203:
1000
0000
0001
0000
,
0100
0010
1000
0001
,
1000
0000
0001
0000
1000
0000
0001
0000
1000
0001
1000
0001
1000
0001
1000
0001
,
1000
0000
0000
0220
0000
0000
0330
0000
0000
0010
1000
0001
,
0010
0001
1000
0100
0000
0100
0010
0001
0010
0100
1000
0010
,
0100
0000
0000
2002
0000
0000
3003
0000
0000
0001
0010
0100
,
1000
0100
1000
0100
0010
0001
0020
0000
0000
0100
0000
0000
,
0130
0000
1001
0000
0001
0100
0000
1000
,
0100
0000
0001
0100
0000
1000
0100
0000
,
0010
0000
0011
0000
0011
0000
0001
1000
,
0000
1000
0100
0010
0100
0000
2000
0000
,
0002
3003
0101
0000
0001
0100
1000
0000
,
1000
0100
0010
1000
0001
0010
0100
0000
,
0010
0001
1000
0010
1000
0001
0010
0001
,
1000
0010
1000
0001
0010
0100
1000
0000
,
1100
0000
0000
0000
0000
0000
0000
0000
0000
0000
0000
0000
1001
0000
0000
0000
0000
0000
0000
0000
0000
0000
0000
0000
0001
0000
0000
0000
0100
0000
0000
0000
0010
0000
0000
0000
1000
0000
0000
0000
0000
0000
0000
0000
0000
1000
0000
0000
,
0000
0010
0100
0000
0100
0001
0010
0000
,
0100
1000
0100
0010
0001
0010
0100
1000
,
0100
0010
0001
0010
0100
1000
0001
0000
,
1100
0000
0000
1000
0100
0010
0001
1000
0100
0010
0100
1000
,
0010
0100
0001
0010
0100
0010
0001
1000
0010
1000
0000
0000
,
1001
0000
0001
0010
0000
1000
0010
0000
,
0001
0010
0000
0001
0010
0100
0020
0000
,
0130
0000
0000
0000
0000
0000
0000
0000
0100
0000
0000
1000
0000
0000
0001
0000
,
1001
0000
0000
0000
0000
0000
0000
0000
0001
0000
0000
0100
0000
0000
0010
0000
,
0110
0000
0000
0000
0100
0010
0000
0100
,
1000
0100
0010
0000
0200
0000
0302
2003
,
3001
0000
0001
0010
0100
0000
0010
0100
,
1000
0010
0100
0001
1000
0000
1000
0100
,
0010
0100
0010
0001
0010
0100
0010
0100
,
1000
0100
0010
0100
1000
0000
1001
0000
,
2001
0000
3020
0000
,
0130
0000
2002
0000
0000
3003
0202
0000
,
0000
0300
0020
0000
0000
0033
0020
0000
,
0000
0230
0000
1300
,
1000
0100
0000
0001
0100
0000
0100
0010
,
0000
0100
0010
1000
0001
0000
1010
0000
,
0101
0000
0001
0100
0000
0100
0010
1000
,
0100
0020
0032
0103
,
0010
1000
0001
0000
1000
0100
0010
0100
,
1000
0010
0100
0000
0001
1000
0010
0100
,
0001
1000
0010
0100
0001
1000
0010
0100
,
0010
1000
0100
0000
1100
0000
1001
0000
,
0001
0000
0010
0000
0100
0000
0000
0100
0000
0000
0010
0000
0001
0000
0000
0000
,
0001
0010
0100
0000
0010
0001
1000
0010
,
0100
0001
0010
0001
0100
0010
1000
0001
,
0010
0000
0000
0100
0000
0000
1000
0000
0000
0000
0000
0000
1100
0000
0000
0000
0000
0000
1000
0000
0001
0000
0100
0000
,
0001
0010
0001
1000
0010
1000
0100
1000
0010
0100
0001
0010
,
0100
0000
1000
0000
0100
0000
0010
0000
0000
0000
0000
0000
0100
0000
0000
0000
0000
0000
0010
0000
0000
0001
0000
0000
,
0000
0001
0010
0000
0010
0100
0000
0010
,
0100
1000
0010
0000
0110
0000
0000
0000
,
0010
0000
0000
1000
0000
0000
0001
0000
1001
0000
0000
0000
0000
0000
0000
0000
,
0001
0000
0000
0010
0000
0000
0100
0000
0020
0000
0000
0000
0030
0000
0000
0000
,
0100
1000
0000
0100
0010
0001
1000
0000
,
0002
0000
0203
0000
0310
0000
0100
0001
,
0010
0000
0010
0100
1000
0100
1000
0010
,
0100
0000
0001
1000
0010
1000
0001
0010
,
0100
0010
0001
1000
0010
1000
0001
0010
,
0100
0000
0011
0000
1001
0000
0001
1000
,
0100
0000
0000
0100
0000
0000
0100
0000
0010
0000
0000
0000
0010
0000
0001
0000
,
0100
1000
0100
0010
1000
0001
0010
0100
,
0010
0001
1000
0010
1000
0001
1000
0002
,
2000
0000
0000
3003
0001
0001
0100
0010
,
1000
0000
0010
0000
0100
0100
0010
1000
,
0001
0000
0010
0000
0100
0100
0010
0001
,
0010
0000
0100
0000
1000
1000
0100
1000
,
0010
0000
0100
0000
0001
0001
1000
0010
,
0100
0000
0010
0000
0100
0100
0010
1000
,
0001
0000
0010
0000
0010
0010
0100
1000
,
0100
0000
1000
0000
0002
0103
0002
1003
,
0002
0013
0001
0000
0010
0010
0100
1000
,
0100
0000
0100
0000
0010
0010
0001
0010
,
0100
0000
1000
0000
0100
0100
1000
0010
,
0100
0000
0010
0000
0100
0100
0001
1000
,
0001
0000
1000
0000
0001
0001
0100
0010
,
1000
0000
0001
0000
1000
1000
0001
0100
,
0010
0000
0100
0000
0010
0010
0100
0001
,
1000
0000
0001
0000
2000
3100
2000
3020
,
0200
0000
0000
0330
0000
0000
0000
0000
;

//---------------dance-single - ----------------
#NOTES:
     dance-single:
     :
     Medium:
     7:
     0.482,0.491,0.446,0.532,0.000:
1000
0000
0001
0000
,
1000
0100
0010
0001
,
0100
0010
1000
0010
0100
0001
0010
0100
,
1000
0000
0202
0000
0000
0303
0002
0000
,
0203
0000
0310
0000
0100
0000
0010
1000
,
0200
0000
0020
0000
0000
0330
0010
0000
,
0100
2100
3010
0210
,
0310
0000
0110
0000
0010
1000
0000
1000
,
0010
0000
0010
0100
0000
0100
0001
0000
,
1001
0000
0110
0000
0101
0000
0001
0100
,
0000
0100
0010
0100
0010
0000
0200
0000
,
0302
0000
1003
0000
1000
0100
1000
0000
,
1000
0010
0200
0000
0320
0000
1030
0000
,
1000
1010
0010
0110
,
0100
0110
0100
0101
,
1010
0000
1001
0000
0001
1000
0200
0000
,
0010
0000
0310
0000
0010
0001
0011
0000
,
0010
0110
0100
1100
,
1000
1001
0101
1001
,
1100
2000
3200
0320
,
0032
0203
2300
3100
,
0100
0000
0010
0100
0000
0010
0100
0000
,
0100
0001
0000
0001
0010
0100
2000
0000
,
3100
0000
1000
0100
,
0011
0000
0001
0100
,
1010
0000
0000
0000
0010
0100
0000
0100
,
0010
1000
0010
0000
1000
0000
0010
0000
,
0200
0301
0200
0310
,
0200
0320
2030
3001
,
1100
0001
0101
0010
,
0010
0100
0010
0100
0010
0000
0110
0000
,
0002
0000
2003
0000
,
3000
0000
2002
0000
0000
3003
0002
0000
,
0000
0203
0000
0310
,
0010
0110
0000
0110
,
0000
1001
0000
0000
0101
0000
0000
1010
,
0000
1100
0011
1001
,
1001
0000
0001
0100
0000
0100
0010
0100
,
0010
0200
0302
1003
,
1000
0100
1000
0000
0100
0010
0001
0000
,
0010
0100
2000
3100
,
2000
3010
2000
3001
,
2000
3001
1001
0001
,
0001
0100
0010
0000
0100
0000
0010
0000
,
0100
0010
0100
0000
0002
0000
0103
0000
,
0002
1003
0002
0013
,
0001
0020
0100
0230
,
0000
2300
0000
3020
,
0230
0000
0301
0000
1001
0000
0000
0101
,
0000
0000
1100
0000
0000
0011
0000
0000
,
0001
0010
2000
0000
0010
0000
0000
0000
,
3020
0000
0230
0000
,
2300
0000
3100
0000
,
1000
0100
0000
0100
0010
0001
0010
0000
,
0010
0010
0020
0031
,
0002
0103
0002
0103
,
0010
0100
0110
0010
,
0110
0010
1010
0010
,
0110
1001
1001
0000
,
0101
0000
0001
1000
,
1100
1000
1010
0010
,
0110
0000
0100
0000
0101
0000
1000
0010
,
0200
0300
0002
0000
,
1003
0100
0020
0000
,
0130
1000
0020
0000
,
0130
0001
2000
0000
,
3100
0000
1000
0000
1020
0000
0000
0130
,
0000
0000
0001
0000
0120
0000
0000
0130
,
0000
0000
1000
0000
1020
0000
0000
1030
,
0000
0000
0010
0000
0100
0010
0100
0010
,
0100
0010
0100
0000
0020
0000
0000
0000
,
0130
0001
2000
0000
,
3001
0100
2000
0000
,
3100
0010
0200
0000
,
0301
0000
0100
0000
2001
0000
0000
3001
,
0000
0000
0010
0000
2001
0000
0000
3001
,
0000
0000
0100
0000
0102
0000
0000
0103
,
0000
0000
1000
0000
0001
0100
0010
1000
,
0020
0000
0000
0030
0000
0000
0000
0000
;

//---------------dance-single - ----------------
#NOTES:
     dance-single:
     :
     Easy:
     4:
     0.335,0.399,0.227,0.094,0.000:
1000
0000
0001
0000
,
0100
0001
0100
0001
,
0010
0010
0010
0010
,
0000
1001
0000
0001
,
0100
0010
1000
0100
,
1000
1100
0000
1000
,
0100
0010
0001
0010
,
0100
0000
0010
0000
0000
0100
0000
0000
,
1000
0000
0000
0001
0000
0000
0100
0000
,
0100
0101
0101
0001
,
0000
1000
0100
0010
,
0010
0100
0000
1000
,
0000
0001
1000
0010
,
0100
0001
0100
0001
,
0100
0001
0100
0101
,
0101
0001
1000
0100
,
0000
0010
0001
0010
,
0001
1000
0001
1000
,
0001
1000
1000
1000
,
1001
0001
0100
1000
,
0100
0010
1000
1001
,
0001
0000
0000
0001
0000
0000
1000
0000
,
0000
1000
0000
0000
1000
0000
0100
0000
,
0010
0000
0100
1000
,
1010
0000
1000
0010
,
0110
0000
0100
0001
,
1000
0100
0010
0010
,
0100
0000
1000
0000
,
0001
0100
1000
0100
,
0010
0100
0010
0100
,
0110
0110
0110
0110
,
0200
0000
0302
0000
,
0003
2000
0000
3200
,
0000
2300
0000
0010
,
0010
3020
0000
0130
,
0000
0010
0000
0000
1000
0000
0000
0001
,
0000
1001
1001
0101
,
0101
0001
0000
0100
,
0010
1000
1000
0010
,
0000
0100
0000
0001
,
0100
0010
1000
0001
,
1000
0001
1000
0001
,
1000
1001
1001
0001
,
0100
0010
0000
0100
,
0010
1000
0100
1000
,
0100
1000
0100
1000
,
1000
2000
0000
3001
,
0000
0100
0000
0010
,
0100
0000
0101
0000
0001
0000
0000
0001
,
0000
0000
1000
0000
0000
1000
0000
0000
,
0010
0100
0101
0000
,
0001
0100
0110
0000
,
0100
0001
0101
0000
,
0001
1000
0100
1000
,
0010
0010
0100
0000
,
0001
0000
1000
0100
,
0010
0100
1000
0100
,
1000
0100
1000
0100
,
1100
1100
1000
0010
,
0200
0000
0310
1000
,
0002
0013
0001
0010
,
0001
0010
0011
0011
,
0022
0000
0000
0033
0001
0000
0000
0100
,
0000
0000
0010
0000
0100
0000
0000
0100
,
0000
0000
0010
0000
1000
0000
0000
1000
,
0000
0000
0100
0000
0001
0000
0000
0100
,
0000
0000
0010
0000
0001
0000
0000
1000
,
0000
0000
0010
0000
0100
0000
0000
0100
,
0000
0000
0010
0000
1000
0000
0000
1000
,
0000
0000
0001
0000
0100
0010
0100
0010
,
0100
0000
0000
0000
0010
0000
0000
0010
,
0000
0000
0100
0000
0100
0000
0000
0001
,
0000
0000
1000
0000
0100
0000
0000
1000
,
0000
0000
0010
0000
0100
0000
0000
0001
,
0000
0000
0010
0000
0010
0000
0000
0100
,
0000
0000
1000
0000
0100
0000
0000
0100
,
0000
0000
1000
0000
0010
0000
0000
0100
,
0000
0000
0001
0000
1000
0100
1000
0100
,
0020
0000
0000
0030
0000
0000
0000
0000
;

//---------------dance-single - ----------------
#NOTES:
     dance-single:
     :
     Beginner:
     2:
     0.134,0.183,0.063,0.000,0.000: // measure 1
0000
0000
0000
0000
,  // measure 2
0000
0000
0000
0000
,  // measure 3
0000
0000
0000
0000
,  // measure 4
0000
1001
0000
0001
,  // measure 5
0000
0100
0000
0000
,  // measure 6
0000
0110
0000
0100
,  // measure 7
0000
0001
0000
0000
,  // measure 8
0000
1000
0000
0000
,  // measure 9
0001
0000
0000
0100
,  // measure 10
0100
0001
0000
1000
,  // measure 11
0000
0100
0000
0000
,  // measure 12
0000
0100
0000
0000
,  // measure 13
0000
1000
0000
0000
,  // measure 14
0000
0001
0000
0001
,  // measure 15
0000
0001
0000
1000
,  // measure 16
1000
0001
0000
0000
,  // measure 17
0000
0100
0000
0000
,  // measure 18
0000
0001
0000
0001
,  // measure 19
0000
0100
0100
0100
,  // measure 20
0000
0010
0000
1000
,  // measure 21
0000
0001
0000
0000
,  // measure 22
1001
0000
0000
1001
,  // measure 23
0000
0000
0010
0010
,  // measure 24
0100
0000
0000
0000
,  // measure 25
0001
0000
0000
0000
,  // measure 26
1000
0000
0000
0000
,  // measure 27
0000
0000
0000
0000
,  // measure 28
0100
0000
0000
0000
,  // measure 29
1000
0000
0000
0000
,  // measure 30
0001
0000
1000
0000
,  // measure 31
0010
0010
0010
0010
,  // measure 32
0100
0000
0010
0000
,  // measure 33
0000
1001
0000
0100
,  // measure 34
0000
0010
0000
0000
,  // measure 35
0000
1001
0000
0001
,  // measure 36
0000
0000
1000
0000
,  // measure 37
0000
0010
0010
0100
,  // measure 38
0000
0000
0000
0001
,  // measure 39
0000
0000
0000
1000
,  // measure 40
0000
0000
0000
0100
,  // measure 41
0000
0000
0000
1000
,  // measure 42
0000
0000
0000
1000
,  // measure 43
0000
1000
0000
0001
,  // measure 44
0000
0100
0000
0001
,  // measure 45
0000
0000
0000
1000
,  // measure 46
0000
0001
0000
0100
,  // measure 47
0000
0000
0000
0001
,  // measure 48
0000
1000
0000
0100
,  // measure 49
0000
0000
0110
0000
,  // measure 50
0000
0100
0000
0000
,  // measure 51
1000
1000
0001
0000
,  // measure 52
0000
0000
0100
0000
,  // measure 53
0000
0000
0001
0000
,  // measure 54
0000
0000
1000
0000
,  // measure 55
0100
0000
1000
0000
,  // measure 56
0000
0000
0010
0000
,  // measure 57
0000
0000
0100
0000
,  // measure 58
0010
0000
1000
0000
,  // measure 59
1000
0000
0010
0000
,  // measure 60
0000
0000
0100
0000
,  // measure 61
0000
0000
0001
0000
,  // measure 62
0100
0000
0010
0000
,  // measure 63
0000
0000
0100
0000
,  // measure 64
0000
0000
0001
0000
,  // measure 65
0000
0000
1000
0000
,  // measure 66
0000
0000
1000
0000
,  // measure 67
0000
0000
0001
0000
,  // measure 68
0000
0000
0100
0000
,  // measure 69
0000
0000
0001
0000
,  // measure 70
0000
0000
1000
1000
,  // measure 71
1000
1000
1000
0000
,  // measure 72
0000
0000
0001
0000
,  // measure 73
0000
0000
0100
0000
,  // measure 74
0000
0000
0001
0000
,  // measure 75
0000
0000
0010
0000
,  // measure 76
0000
0000
0001
0000
,  // measure 77
0000
0000
1000
0000
,  // measure 78
0000
0000
0010
0010
,  // measure 79
1001
0000
0000
0000
;
