#TITLE:ARACHNE;
#SUBTITLE:;
#ARTIST:MAX MAXIMIZER;
#TITLETRANSLIT:;
#SUBTITLETRANSLIT:;
#ARTISTTRANSLIT:;
#CREDIT:;
#BANNER:ARACHNE.png;
#BACKGROUND:ARACHNE-background.png;
#JACKET:ARACHNE-jacket.png;
#LYRICSPATH:;
#CDTITLE:;
#MUSIC:ARACHNE.mp3;
#OFFSET:-1.038;
#SAMPLESTART:70.380;
#SAMPLELENGTH:12.000;
#SELECTABLE:YES;
#BPMS:0.000=89.500,15.000=44.750,16.250=89.500,17.250=44.750,19.000=89.520,20.000=179.000,100.000=11.188,102.000=89.495,118.000=358.000,134.000=89.500,136.000=179.000,238.000=44.750,238.500=179.000,240.500=44.750,241.000=179.000;
#STOPS:6.500=0.340
;
#BGCHANGES:;

//---------------dance-single - ----------------
#NOTES:
     dance-single:
     :
     Hard:
     9:
     0.552,0.676,0.280,0.118,0.439:
0000
0000
0000
0000
,
0000
0000
0000
0000
0000
0000
0000
0000
0000
0000
0000
0000
0000
0000
0000
0000
0000
0000
0000
0000
0000
0000
0000
0000
1001
0000
0000
0001
0000
0000
0001
0000
,
0000
0000
0100
0000
0010
0000
1000
0000
0100
0000
0000
0100
0000
0000
0100
0000
0000
0000
0010
0000
0001
0000
1000
0000
0001
0000
0000
0001
0000
0000
0001
0000
,
1000
0000
0000
1000
0000
0000
1000
0000
0010
0000
0100
0000
0001
0000
0010
0000
0100
0000
0010
0000
0001
0000
1000
0000
0020
0000
0000
0000
0000
0000
0000
0000
,
0000
0000
0000
0000
,
0130
0000
0000
0100
0000
0000
0001
0000
0100
0000
0001
0000
0100
0000
0001
0000
,
0100
0000
0000
0100
0000
0000
0010
0000
1000
0000
0010
0000
1000
0000
0010
0000
,
1000
0000
0000
0100
0000
0000
0010
0000
0100
0000
0010
0000
0100
0000
0010
0000
,
0100
0000
0000
0100
0000
0000
0010
0000
0001
0000
0010
0000
1001
0000
0000
0000
,
0001
0000
0000
0100
0000
0000
0010
0000
0000
0000
0100
0000
0001
0000
0010
0000
,
0100
0000
0000
0010
0000
0000
0001
0000
0000
0000
1000
0000
0010
0000
0100
0000
,
0010
0000
0000
0100
0000
0000
0001
0000
0000
0000
0010
0000
0100
0000
1000
0000
,
0010
0000
0000
0100
0000
0000
0001
0000
1000
0000
0010
0000
0001
0000
0100
0000
,
0010
0000
0000
0100
0000
0000
0001
0000
0000
0000
0010
0000
0001
0000
1000
0000
,
0010
0000
0000
0100
0000
0000
0001
0000
0000
0000
1000
0000
0100
0000
0010
0000
,
0001
0000
0000
0001
0000
0000
0001
0000
0100
0000
0000
0010
0000
0000
1000
0000
,
0010
0000
0000
0100
0000
0000
0001
0000
1000
0000
1000
0000
0010
0000
0010
0000
,
0110
0000
0000
0100
0000
0000
0001
0000
0000
0000
1000
0000
0001
0000
0010
0000
,
0110
0000
0000
0010
0000
0000
0100
0000
0000
0000
0010
0000
0001
0000
1000
0000
,
1010
0000
0000
0010
0000
0000
0100
0000
0010
0000
0000
0010
0000
0000
0100
0000
,
0010
0000
0000
1000
0000
0000
0001
0000
0000
0000
0010
0000
0100
0000
1000
0000
,
1001
0000
0000
1000
0000
0000
0100
0000
0000
0000
0010
0000
0100
0000
0100
0000
,
0110
0000
0000
0010
0000
0000
0001
0000
0000
0000
1000
0000
0001
0000
0001
0000
,
0101
0000
0000
0100
0000
0000
0010
0000
1010
0000
0000
0010
0000
0000
0100
0000
,
0110
0000
0000
0010
0000
0000
1000
0000
1001
0000
0000
0001
0000
0000
0010
0000
,
0200
0000
0000
0000
0000
0000
0000
0000
2300
0000
0000
0000
0000
0000
0000
0000
3002
0000
0000
0000
0000
0000
0000
0000
0200
0000
0000
0000
0000
0000
0000
0303
2010
0000
0000
0000
0000
0000
0000
0000
0000
0000
0000
0000
0000
0000
0000
0000
0100
0000
0000
0000
0100
0000
0000
0000
0100
0000
0000
0000
3100
0000
0000
0000
,
1000
0000
0000
0000
1001
0001
0000
0000
0201
0000
0000
0000
0001
0001
0001
0301
,
0100
0000
0000
0100
0010
1000
0000
0000
0021
0000
0000
0000
0100
0100
0100
0130
,
0010
0000
0000
0001
1000
0001
0000
0000
2010
0000
0000
0000
0001
0001
0001
3001
,
0000
1000
0100
1000
0010
0100
0001
0000
2002
0000
0000
0000
0000
0000
0000
0000
,
0000
0000
0000
0000
,
0000
0000
0000
0000
,
0000
0000
0000
0000
,
0000
0000
0000
0000
0000
0000
0000
3003
2002
0000
0000
0000
0000
0000
0000
3003
,
0010
0100
0010
0100
0010
0100
0010
0100
0010
0100
0010
0100
0010
0100
0000
0000
,
1001
0000
0000
0001
0000
0000
0010
0000
0000
0000
0100
0000
0010
0000
0001
0000
,
1000
0000
0000
1000
0000
0000
0010
0000
0000
0000
0100
0000
0001
0000
1000
0000
,
0100
0000
0000
0100
0000
0000
0010
0000
0000
0000
0100
0000
1000
0000
0001
0000
,
1000
0000
0000
1000
0000
0000
0001
0000
0010
0000
0010
0000
0100
0000
0100
0000
,
0110
0000
0000
0100
0000
0000
1000
0000
0000
0000
0100
0000
0010
0000
0001
0000
,
1000
0000
0000
0001
0000
0000
0010
0000
0000
0000
0100
0000
0010
0000
0001
0000
,
1000
0000
0000
1000
0000
0000
0100
0000
0010
0000
0000
0010
0000
0000
0001
0000
,
0100
0000
0000
0010
0000
0000
1000
0000
0000
0000
0100
0000
0010
0000
0100
0000
,
1000
0000
0000
0100
0000
0000
1000
0000
0000
0000
0100
0000
0100
0000
0010
0000
,
0001
0000
0000
0001
0000
0000
0010
0000
0000
0000
0001
0000
0100
0000
0100
0000
,
0001
0000
0000
1000
0000
0000
0100
0000
0010
0000
0000
0100
0000
0000
1000
0000
,
0001
0000
0000
0100
0000
0000
1000
0000
0000
0000
1000
0000
0100
0000
0010
0000
,
1000
0000
0000
0001
0000
0000
0010
0000
0000
0000
0100
0000
0010
0000
0010
0000
,
0100
0000
0000
0100
0000
0000
1000
0000
0000
0000
0010
0000
0100
0000
1000
0000
,
0100
0000
0000
0100
0000
0000
0001
0000
0010
0000
0000
0100
0000
0000
0010
0000
,
0001
0000
0000
0001
0000
0000
0001
0000
0000
0000
0100
0000
0010
0000
0010
0000
,
1000
0000
0000
0001
0000
0000
1000
0000
0001
0000
1000
0000
0001
0000
1000
0000
,
0001
0000
0000
1000
0000
0000
0001
0000
1000
0000
0001
0000
1000
0000
0001
0000
,
1000
0000
0000
0001
0000
0000
1000
0000
0001
0000
1000
0000
0001
0000
1000
0000
,
0001
0000
0000
1000
0000
0000
0001
0000
1000
0000
0001
0000
1000
0000
0001
0000
,
1001
0000
0000
0001
0000
0000
1000
0000
0000
0000
0001
0000
0100
0000
0010
0000
,
1010
0000
0000
0010
0000
0000
0100
0000
0000
0000
0100
0000
0001
0000
0010
0000
,
0110
0000
0000
0100
0000
0000
1000
0000
0100
0000
0000
0100
0000
0000
0010
0000
,
0001
0000
0000
0010
0000
0000
0001
0000
0000
0000
0001
0000
0010
0000
0100
0000
,
1100
0000
0000
0100
0000
0000
0010
0000
0011
1100
1001
0000
0000
0001
0000
0000
,
0100
0000
0110
0101
1001
0000
0000
1000
0000
0000
0001
0000
0100
0000
0000
0010
,
0000
0100
0001
0010
0100
1000
0010
0100
,
0001
1000
1001
0000
0000
0000
0000
0000
;

//---------------dance-single - ----------------
#NOTES:
     dance-single:
     :
     Medium:
     7:
     0.496,0.648,0.516,0.326,0.172:
0000
0000
0000
0000
,
0000
0000
0000
0000
0000
0000
0000
0000
0000
0000
0000
0000
0000
0000
0000
0000
0000
0000
0000
0000
0000
0000
0000
0000
0001
0000
0000
0100
0000
0000
0010
0000
,
0000
0000
0100
0000
0010
0000
1000
0000
0001
0000
0000
1000
0000
0000
0100
0000
0000
0000
0010
0000
0100
0000
1000
0000
1001
0000
0000
0000
0000
0000
0000
0000
,
0101
0000
1010
0101
0011
1100
2002
0000
,
0000
0000
0000
0000
0000
0000
0000
3003
,
1000
0001
0100
0100
,
0001
1000
0010
0010
,
0100
0010
1000
1000
,
0010
0000
0100
0000
0001
1000
0110
0000
,
0100
0002
0000
0010
0000
0013
0001
0010
,
0100
2000
0000
0010
0000
3010
0100
0001
,
1000
0200
0000
0010
0000
0310
1000
0010
,
0100
0000
0000
0010
0000
0000
0001
0000
0010
0000
1000
0000
0010
0000
0100
0000
,
1000
0020
0000
0100
0000
0130
0001
0010
,
0001
2000
0000
0010
0000
3010
0100
0001
,
1001
0000
0000
0001
0101
0000
0000
0100
,
0110
0000
0000
0100
0000
0000
0100
0000
0000
0000
0010
0000
1000
0000
0001
0000
,
1200
0000
0310
0000
0010
1000
1010
0000
,
0210
0000
0301
0000
0001
0010
0110
0000
,
1200
0000
0310
0000
0100
1000
1010
0000
,
0210
0000
0310
0000
0100
0001
0011
0000
,
1002
0000
0103
0000
0100
0010
1010
0000
,
0210
0000
0301
0000
0001
0010
0110
0000
,
0210
0310
2100
3001
,
0102
0103
1020
1030
,
2002
0000
2003
0000
3002
0000
0203
0000
0301
0000
0000
0000
0100
0010
0100
0010
,
0100
0000
0000
0000
0110
0000
0000
0000
1001
0000
0000
0000
1000
0100
1000
0100
,
1000
0000
0000
0000
0100
0010
0000
0000
0011
0000
0000
0000
0001
0010
0100
1000
,
0001
0000
0000
0000
1000
0001
0000
0000
0101
0000
0000
0000
0001
0100
1000
0100
,
0000
0100
0100
0010
1000
0001
0010
0000
0220
0000
0000
0000
0000
0000
0000
0000
,
0000
0000
0000
0000
,
0000
0000
0000
0000
,
0000
0000
0000
0000
,
0000
0000
0330
0000
,
0001
1000
0001
1000
0001
1000
0001
0000
,
1010
0000
0000
0010
0000
0000
1000
0000
0000
0000
0100
0000
0010
0000
0001
0000
,
1000
0000
0000
0001
0000
0000
0100
0000
0000
0000
0001
0000
0100
0000
0001
0000
,
0010
0000
0000
0100
0000
0000
0010
0000
0000
0000
0100
0000
1000
0000
0001
0000
,
1000
0000
0000
0100
0000
0000
1000
0000
0010
0000
0100
0000
0010
0000
1000
0000
,
0001
0000
0000
1000
0000
0000
0100
0000
0000
0000
0010
0000
0100
0000
0010
0000
,
0100
0000
0000
1000
0000
0000
0001
0000
0000
0000
0100
0000
0001
0000
0100
0000
,
0001
0000
0000
0100
0000
0000
0010
0000
1000
0000
0000
0100
0000
0000
1000
0000
,
0001
0000
0000
0010
0000
0000
0001
0000
0000
0000
0010
0000
0100
0000
1000
0000
,
2001
0000
3100
0000
0100
0010
0001
0010
,
0210
0000
0310
0000
0010
0100
1000
0001
,
0102
0103
0210
0310
,
1020
0000
1030
0000
1000
0100
0010
0001
,
1002
0000
0103
0000
0010
1000
0100
0010
,
0021
0000
0031
0000
0001
0010
0100
1000
,
2100
3010
0210
0301
,
0102
0013
0021
0130
,
2200
0000
3300
0000
,
0000
0000
0000
0000
,
0000
0000
0000
0000
,
0000
0000
0000
0000
,
1001
0000
0000
0000
,
0110
0000
0000
0000
,
1001
0000
0110
0000
,
1001
0110
1001
0110
,
0101
0000
0000
0100
0000
0000
0010
0000
1000
0100
0010
0000
0000
0100
0000
0000
,
1000
0000
0010
0100
0001
0000
0000
0001
0000
0000
0001
0000
1000
0000
0000
1000
,
0000
1000
0010
0100
0001
1000
0010
0100
,
0001
1000
1001
0000
0000
0000
0000
0000
;

//---------------dance-single - ----------------
#NOTES:
     dance-single:
     :
     Easy:
     4:
     0.282,0.394,0.380,0.072,0.000:
0000
0000
0000
0000
,
0000
0000
0000
0001
,
0000
1000
0000
0001
,
1000
0000
0001
1000
0001
1000
2002
0000
,
0000
0000
0000
3003
,
1001
0000
0000
0000
,
0001
0000
0000
0000
,
0100
0000
0000
0000
,
0001
0000
1000
1001
,
0001
0100
0001
0100
,
0001
0010
0001
0010
,
0001
1000
0001
1000
,
0001
0100
0001
0001
,
1000
0100
1000
0100
,
1000
0010
1000
0010
,
1010
0000
0101
0000
,
1010
0000
0000
0000
,
1001
0001
1000
0100
,
1100
0100
0010
0001
,
0011
0001
0100
0010
,
1000
0010
0100
0001
,
1001
0001
0010
0100
,
1100
0100
0010
0001
,
0011
0010
0110
0100
,
1100
0011
0101
1010
,
2002
0000
3003
0100
,
0001
0000
1001
1000
,
0100
0000
1001
0001
,
0100
0000
1001
1000
,
0100
0000
0020
0000
,
0000
0000
0000
0000
,
0000
0000
0000
0000
,
0000
0000
0000
0000
,
0000
0000
0030
0000
,
0200
0000
0000
0300
,
0001
1000
0000
0010
0000
0000
0000
0000
,
1000
0100
0000
0010
0000
0000
0000
0000
,
0100
1000
0000
0010
0000
0000
0000
0000
,
0100
0001
0000
0100
0000
0000
0000
0000
,
0001
1000
0000
0010
0000
0000
0000
0000
,
1000
0100
0000
0010
0000
0000
0000
0000
,
0100
1000
0000
0000
0100
0010
0000
0000
,
0010
0001
0010
0001
,
0101
0001
0100
0010
,
1010
0010
0100
0001
,
1001
0001
1001
1000
,
1001
0001
0100
0001
,
0101
0001
0100
0010
,
1010
1000
0100
0010
,
0110
0100
1100
0100
,
1100
0011
0101
1010
,
1001
0000
0000
0000
,
0000
0000
0000
0000
,
0000
0000
0000
0000
,
0000
0000
0000
0000
,
0101
0000
0000
0000
,
1010
0000
0000
0000
,
1100
0000
0011
0000
,
1100
0000
0011
0000
,
0001
0000
0100
0000
0020
0130
0000
0001
,
0000
2000
3100
0000
0010
0000
0001
0000
,
0010
0100
0100
0100
,
0100
1001
0000
0000
;

//---------------dance-single - ----------------
#NOTES:
     dance-single:
     :
     Beginner:
     2:
     0.154,0.253,0.163,0.000,0.000: // measure 1
0000
0000
0000
0000
,  // measure 2
0000
0000
0000
0001
,  // measure 3
0000
1000
0000
0001
,  // measure 4
0001
1000
1000
0110
,  // measure 5
0000
0000
0000
0000
,  // measure 6
0010
0000
0000
0000
,  // measure 7
0010
0000
0000
0000
,  // measure 8
0010
0000
0000
0000
,  // measure 9
0010
0000
0100
0100
,  // measure 10
0001
0000
0000
0000
,  // measure 11
0001
0000
0000
0000
,  // measure 12
0001
0000
0000
0000
,  // measure 13
0001
0000
1000
1000
,  // measure 14
0100
0000
0000
0000
,  // measure 15
1000
0000
0000
0000
,  // measure 16
0010
0000
0010
0000
,  // measure 17
0010
0000
0000
0000
,  // measure 18
0110
0000
0000
0000
,  // measure 19
0100
0000
0000
0000
,  // measure 20
0001
0000
0001
0000
,  // measure 21
0001
0000
0000
1000
,  // measure 22
1000
0000
0000
0100
,  // measure 23
0100
0000
0000
0010
,  // measure 24
0010
0000
0001
0000
,  // measure 25
1000
1000
0001
0001
,  // measure 26
0100
0000
1001
0001
,  // measure 27
0001
0000
0110
0100
,  // measure 28
0100
0000
1001
1000
,  // measure 29
1000
0000
0110
0010
,  // measure 30
0010
0000
1001
0000
,  // measure 31
0000
0000
0000
0000
,  // measure 32
0000
0000
0000
0000
,  // measure 33
0000
0000
0000
0000
,  // measure 34
0000
0000
0100
0000
,  // measure 35
0010
0000
0000
0000
,  // measure 36
1000
0000
0000
0000
,  // measure 37
0001
0000
0000
0000
,  // measure 38
0100
0000
0100
0000
,  // measure 39
0100
0000
0000
0001
,  // measure 40
0001
0000
0000
0000
,  // measure 41
1000
0000
0000
0000
,  // measure 42
0100
0000
0100
0000
,  // measure 43
0100
0100
0010
0010
,  // measure 44
0001
0000
0000
1000
,  // measure 45
0001
0000
0000
0001
,  // measure 46
0100
0000
0010
0000
,  // measure 47
1000
0000
0010
0000
,  // measure 48
0110
0000
0000
0100
,  // measure 49
1001
0000
0000
0010
,  // measure 50
1001
0000
1001
0000
,  // measure 51
0001
0000
1000
0000
,  // measure 52
0100
0000
0000
0000
,  // measure 53
0000
0000
0000
0000
,  // measure 54
0000
0000
0000
0000
,  // measure 55
0000
0000
0000
0000
,  // measure 56
1001
0000
0000
0000
,  // measure 57
1001
0000
0000
0000
,  // measure 58
1001
0000
0000
0000
,  // measure 59
1001
0000
1001
0000
,  // measure 60
1001
0000
0000
0000
0000
0001
0000
0000
,  // measure 61
0000
1000
0000
1000
,  // measure 62
0000
0010
0010
0100
,  // measure 63
0100
1001
0000
0000
;
