#TITLE:5OUL ON D!SPLAY;
#SUBTITLE:;
#ARTIST:daiki kasho;
#TITLETRANSLIT:;
#SUBTITLETRANSLIT:;
#ARTISTTRANSLIT:;
#GENRE:;
#CREDIT:;
#BANNER:5OUL ON D!SPLAY.png;
#BACKGROUND:5OUL ON D!SPLAY-bg.png;
#LYRICSPATH:;
#CDTITLE:cdtitle.png;
#MUSIC:5OUL ON D!SPLAY.mp3;
#OFFSET:-1.661000;
#SAMPLESTART:89.099998;
#SAMPLELENGTH:12.000000;
#SELECTABLE:YES;
#BPMS:0.000000=168.000000
,132.000000=83.989998
,136.000000=167.979996
,232.000000=83.999992
,236.000000=168.000000
;
#STOPS:
;
#BGCHANGES:;
#KEYSOUNDS:;
#ATTACKS:;

//---------------dance-single - ----------------
#NOTES:
     dance-single:
     :
     Hard:
     8:
     0.482945,0.485871,0.052124,0.104248,0.000000,433.000000,7.000000,14.000000,0.000000,0.000000,0.000000,0.482945,0.485871,0.052124,0.104248,0.000000,433.000000,7.000000,14.000000,0.000000,0.000000,0.000000:
0000
0000
0000
0000
,
0000
0000
0000
0000
,
0000
0000
0000
0000
,
1000
0001
0100
0001
0000
0100
0010
0100
,
0000
0010
1000
0010
0000
1000
0100
1000
,
0000
0100
0010
0100
0000
0010
0001
0010
,
0000
0001
0100
0001
0000
0100
0010
0100
,
0000
0010
1000
0010
0000
0010
0100
0010
,
0000
0010
1000
0010
0000
0010
0100
0010
,
0000
0100
0001
0100
0000
0100
0010
0100
,
0000
0010
0100
0110
0000
1001
0000
0000
,
0001
1000
0100
0010
0000
0010
0100
1000
,
0000
1000
0010
0100
0000
0010
0100
0001
,
0000
1000
0001
0100
0000
0001
0100
0010
,
0000
0100
0001
1000
0000
0100
0010
0001
,
0000
0001
0010
1000
0000
1000
0010
0100
,
0000
0100
0001
0100
0000
0001
0100
1000
,
0000
1000
0010
0100
0000
0100
0010
1000
,
0000
0001
0010
1100
0000
0011
0000
0000
,
0001
1000
0100
1000
,
0001
0100
0001
1000
,
0100
0010
0100
1000
,
0010
0100
0001
1000
,
0001
0100
0001
0010
,
0100
0010
0001
1000
,
0010
0100
0001
1000
,
0100
0000
0010
0000
0001
0010
0100
1000
,
0001
0100
0001
0000
0100
0100
0010
0000
,
1000
0010
0100
0000
0100
0010
1000
0000
,
0010
1000
0001
0000
0001
0010
0100
0000
,
0100
0010
0001
0000
1000
0001
0100
0000
,
0001
0100
0010
0000
1000
0010
0100
0000
,
0100
0010
1000
0000
0001
0010
0100
1000
,
0100
0100
1000
1000
0001
0001
0100
0100
,
0001
0100
0010
0000
0100
0010
1000
0000
,
0001
1000
0100
0000
0010
0001
0010
0000
,
0100
0000
0010
0001
0000
0100
1000
0000
,
1000
0010
0000
0100
0001
0000
1000
0000
,
0100
0010
0001
0000
0010
0100
1000
0000
,
0010
0100
0001
0000
1000
0010
0100
0000
,
0001
0000
0000
0100
0000
0000
1000
0000
,
0010
0000
0000
0001
0000
0000
1001
0000
,
0001
1000
0010
0000
0100
0001
0010
0000
,
0100
1000
0010
0000
0100
0001
1000
0000
,
0001
0000
1000
0010
0000
0100
0001
0000
,
0001
0010
0000
0100
1000
0000
0001
0000
,
0100
0010
1000
0000
0100
0010
0001
0000
,
0010
0100
0010
0000
0100
1000
0010
0000
,
0200
0000
0000
0302
0000
0000
0023
0000
,
0200
0000
0000
0330
,
0100
1000
0000
0001
1000
0001
0000
1000
,
0100
0010
0000
0010
0001
0010
0000
0001
,
0010
0100
0000
0100
0010
0001
0000
0001
,
1000
0010
0000
0100
0001
1000
0000
1000
,
0100
0100
0000
1000
0010
0010
0000
0100
,
0001
0001
0000
0010
0001
0001
0000
0010
,
0100
0100
0000
0100
1000
1000
0000
0100
,
1000
1000
0000
0010
0100
0100
0000
0001
,
1000
0100
0001
0100
0010
0001
2000
0001
,
3010
0010
0100
0000
0010
0100
0001
0000
,
1000
0001
0010
0000
0100
1000
0100
0000
,
0010
0000
0100
1000
0000
0010
0001
0000
,
0001
0100
0000
0010
1000
0000
0001
0000
,
0010
0100
1000
0000
0100
0010
0001
0000
,
0100
0010
1000
0000
0001
0100
0010
0000
,
1000
0000
0000
0010
0000
0000
0001
0000
,
0100
0000
0000
1000
0000
0000
1001
0000
,
1000
0001
0100
0000
0010
1000
0100
0000
,
0010
0001
0100
0000
0010
1000
0001
0000
,
1000
0000
0001
0100
0000
0010
1000
0000
,
1000
0100
0000
0010
0001
0000
1000
0000
,
0010
0100
0001
0000
0010
0100
1000
0000
,
0100
0010
0100
0000
0010
0001
0100
0000
,
0020
0000
0000
2030
0000
0000
3200
0000
,
0020
0000
0000
0330
,
0010
0001
1000
0100
,
1000
0010
0100
0001
,
1000
0100
1000
0010
,
0100
0001
0020
0000
,
0031
0010
1000
0010
,
0100
1000
0010
0100
,
0001
1000
0001
0100
,
0001
0010
0100
1000
,
0100
1000
0010
0100
,
0001
0010
0100
1000
,
0200
1300
0200
0310
,
0200
1300
0020
0130
,
1001
0000
0000
0000
;

//---------------dance-single - ----------------
#NOTES:
     dance-single:
     :
     Medium:
     5:
     0.368060,0.388697,0.186157,0.320191,0.000000,278.000000,25.000000,43.000000,0.000000,0.000000,0.000000,0.368060,0.388697,0.186157,0.320191,0.000000,278.000000,25.000000,43.000000,0.000000,0.000000,0.000000:
0000
0000
0000
0000
,
0000
0000
0000
0000
,
0000
0000
0000
0000
,
0010
0000
1000
0000
0000
0010
0000
0100
,
0000
0000
0010
0000
1000
0000
0001
0010
,
0000
0000
0010
0001
0000
1000
0000
0001
,
0000
0000
0100
0001
0000
1000
0000
0100
,
0000
0000
0010
0001
0000
0010
0000
0100
,
0000
0000
0100
0000
1000
0000
0001
1000
,
0000
0010
0100
0001
,
1000
0000
0001
1000
0000
1001
0000
0000
,
0001
0100
0001
1000
,
0100
1000
0010
0100
,
0010
1000
0010
0100
,
0001
1000
0100
0010
,
0001
0010
0001
0100
,
0010
1000
0001
0100
,
0010
0000
1000
0000
0001
0000
0100
0001
,
0000
0100
0000
0101
0000
1010
0000
0000
,
0010
0100
0010
1000
,
0001
0010
0100
0010
,
0001
1000
0010
0100
,
0001
1000
0100
0010
,
0100
1000
0010
0100
,
0001
1000
0010
0200
,
0000
0000
0000
0000
,
0000
0000
0010
0310
,
0010
1000
0001
0010
,
0001
0100
0010
1000
,
0100
0010
0100
1000
,
0010
0100
0001
1000
,
0100
1000
0010
0100
,
0001
1000
0010
0100
,
0002
0203
0320
2030
,
3100
0000
1000
0000
0000
1000
0000
0000
,
0001
0100
0020
0000
,
0130
0000
0000
0100
0000
0000
0010
0000
,
0000
0010
0000
0000
0110
0000
1001
0000
,
0001
0000
1000
0000
0000
0100
0000
0000
,
1000
0100
0010
0001
,
1002
0000
0000
0103
0000
0000
1001
0000
,
2001
0000
0000
0100
0000
0000
3100
0000
,
0000
0000
0200
0000
0000
0310
0000
0000
,
0100
1000
0020
0000
,
0230
0000
0000
0301
0000
0000
0200
0000
,
0000
1300
0000
0000
1100
0000
0110
0000
,
0000
0000
0020
0000
0000
1030
0000
0000
,
0010
0100
0001
0000
,
1001
0000
0000
0101
0000
0000
1010
0000
,
2200
0000
0000
3300
,
1000
0100
0010
0100
,
1000
0010
0100
0001
,
1000
0100
1000
0010
,
0100
0001
1000
0001
,
0100
0001
1000
0100
,
1000
0010
1000
0001
,
0010
0001
1000
0010
,
0100
0001
1000
0010
,
0100
0001
0100
0001
0100
0001
0200
0000
,
0310
0000
2000
0000
0000
3010
0000
0000
,
0100
0001
2000
0000
,
3100
0000
0000
0011
0000
0000
0100
0000
,
0000
1010
0000
0000
1001
0000
0101
0000
,
0001
1000
0100
1000
,
0010
0100
0001
1000
,
1020
0000
0000
0230
0000
0000
0302
0000
,
2003
0000
0000
3200
0000
0000
0320
0000
,
0130
1000
0010
0001
,
0010
0100
0010
1000
,
1010
0000
0000
0101
0000
0000
0011
0000
,
0000
1100
0000
0000
1001
0000
1001
0000
,
0001
1000
0100
1000
,
0010
0100
0001
1000
,
0002
0000
0000
0203
0000
0000
2300
0000
,
0200
0000
0000
3300
,
2000
0000
0000
0000
,
3200
0000
0320
0000
,
2030
0001
0001
0001
,
0001
0001
0002
3003
,
0002
0000
0000
0000
,
2003
0000
3200
0000
,
2300
0000
0000
0000
,
3020
0000
0000
0030
,
0200
0000
0000
0000
,
0320
0000
0230
0000
,
0302
1000
1000
1000
,
1000
1000
2000
0000
,
3003
0000
0000
0000
;

//---------------dance-single - ----------------
#NOTES:
     dance-single:
     :
     Easy:
     4:
     0.249983,0.323914,0.111694,0.178711,0.000000,196.000000,15.000000,24.000000,0.000000,0.000000,0.000000,0.249983,0.323914,0.111694,0.178711,0.000000,196.000000,15.000000,24.000000,0.000000,0.000000,0.000000:
0000
0000
0000
0000
,
0000
0000
0000
0000
,
0000
0000
0000
0000
,
1000
0001
0000
0001
,
0000
0001
0000
0001
,
0000
0100
0000
0100
,
0000
0100
0000
0010
,
0000
0100
0000
0100
,
0000
0100
0000
0100
,
0000
0001
0000
0001
,
0000
0001
1000
0001
,
1000
0100
0000
0100
,
0000
0100
0000
0100
,
0000
1000
0000
1000
,
0000
1000
0000
1000
,
0000
0010
0000
0010
,
0000
0010
0000
0010
,
0000
0100
0000
0100
,
0000
0100
0100
0100
,
0000
0000
0020
0000
,
0130
0000
0001
1000
,
0000
0100
0000
1000
,
0000
0000
0010
0100
,
0000
0001
1000
0100
,
1000
0001
0100
0002
,
0000
0000
0000
0000
,
0000
0000
0010
0013
,
0000
0000
0002
0000
,
1003
0100
1000
0020
,
0000
0130
0000
0020
,
0000
2000
0000
0000
,
3030
1000
0010
0100
,
0001
1000
0100
0020
,
0000
0000
0000
0000
,
0130
0000
0010
0000
0000
0001
0000
0000
,
1000
0001
0200
0300
,
0001
0000
0000
0001
0000
0000
1000
0000
,
0000
1000
0000
0000
0001
0000
1000
0000
,
0000
0000
0010
0000
0000
1000
0000
0000
,
0010
0100
0001
1000
,
0100
0000
0000
1100
0000
0000
0100
0000
,
0110
0000
0000
0110
0000
0000
0110
0000
,
0000
0000
0100
0000
0000
1000
0000
0000
,
0001
0001
0002
0003
,
1000
0000
0000
0001
0000
0000
0100
0000
,
0000
0001
0000
0000
0010
0000
0010
0000
,
0000
0000
0100
0000
0000
1000
0000
0000
,
0100
1000
0020
0030
,
0100
0000
0000
0010
0000
0000
2000
0000
,
0002
0000
0000
3003
,
0002
0000
0000
0003
,
0100
0000
0001
0000
,
0020
0000
0000
0000
,
0200
0000
0000
0330
,
0200
0000
0000
0000
,
2300
0000
0001
0000
,
3002
0000
0000
0000
,
0200
0000
0000
0000
,
0303
0000
0000
0000
,
1010
0000
0010
0000
0000
0010
0000
0000
,
0100
0100
0002
0003
,
1000
0000
0000
0001
0000
0000
0100
0000
,
0000
0001
0000
0000
0010
0000
0010
0000
,
0100
0000
1000
0000
0000
0100
0000
0000
,
1000
0010
0100
0000
,
0110
0000
0000
0110
0000
0000
0110
0000
,
1001
0000
0000
1001
0000
0000
1001
0000
,
0000
0000
0001
0000
0000
1000
0000
0000
,
0100
0100
2000
3000
,
0100
0000
0000
0010
0000
0000
0100
0000
,
0000
1000
0000
0000
0001
0000
0001
0000
,
0000
0100
0001
1000
,
0100
0010
0001
0010
,
0011
0000
0000
1100
0000
0000
0101
0000
,
2002
0000
0000
3003
,
0001
0100
0000
0001
,
0000
1000
0000
0100
,
0000
1000
0000
0010
,
0000
0100
0000
0001
,
0000
1000
0000
0100
,
0000
0010
0000
0100
,
0000
1000
0000
0001
,
0000
0100
0000
0001
,
0000
1000
0000
0010
,
0000
0100
0000
0010
,
1000
1000
0100
0100
,
0010
0010
0002
0000
,
0003
0000
0000
0000
;

//---------------dance-single - ----------------
#NOTES:
     dance-single:
     :
     Beginner:
     2:
     0.154245,0.226740,0.089356,0.000000,0.000000,133.000000,12.000000,0.000000,0.000000,0.000000,0.000000,0.154245,0.226740,0.089356,0.000000,0.000000,133.000000,12.000000,0.000000,0.000000,0.000000,0.000000:
0000
0000
0000
0000
,
0000
0000
0000
0000
,
0000
0000
0000
0000
,
0001
0001
0000
0000
,
0000
0001
0000
0000
,
0000
1000
0000
0000
,
0000
1000
0000
0000
,
0000
0010
0000
0000
,
0000
0010
0000
0010
,
0000
0100
0000
0100
,
0000
0100
0100
0100
,
0000
0001
0000
0000
,
0000
0001
0000
0000
,
0000
1000
0000
0000
,
0000
1000
0000
0000
,
0000
0010
0000
0010
,
0000
0010
0000
0010
,
0000
0100
0000
0100
,
0000
0100
0100
0000
,
0000
0000
0010
0000
,
0100
0000
0001
0001
,
0000
1000
0000
0010
,
0000
0000
0100
0100
,
0000
0001
0001
0000
,
1000
0000
0100
0100
,
0000
0000
0000
0000
,
0000
0000
0110
0110
,
0000
0000
0100
0000
,
0000
0000
0010
0010
,
0000
0001
0000
0001
,
0000
0001
0000
0000
,
0000
1000
1000
1000
,
0000
0000
0001
0001
,
0000
0000
0000
0000
,
0000
0100
0000
0000
,
0010
0000
0000
0000
,
0100
0000
0000
0010
,
0000
0000
1001
1001
,
0000
0001
0000
0000
,
1000
0000
0000
0000
,
0100
0000
0000
0000
,
0010
0000
0000
0000
,
0100
0010
0000
0000
,
0001
0000
0001
0000
,
1000
0000
0000
0001
,
0000
0000
0110
0110
,
0000
0010
0000
0000
,
0100
0000
0000
0000
,
0001
0000
0000
1000
,
1000
0000
0000
0000
,
0010
0000
0000
0000
,
1000
0000
0100
0000
,
0010
0000
0000
0000
,
0100
0000
0000
0000
,
0010
0000
0000
0000
,
0001
0000
0001
0000
,
0100
0000
0000
0000
,
0001
0000
0000
0000
,
1000
0000
0000
0000
,
0100
0100
0000
0000
,
1000
0000
0000
0000
,
0010
0000
0000
0100
,
0000
0000
1001
1001
,
0000
0001
0000
0000
,
1000
0000
0000
0000
,
0010
0000
0000
0100
,
0100
0000
0000
0001
,
0001
0000
0000
0000
,
1000
0000
0000
0000
,
0010
0000
0000
1000
,
0000
0000
1001
0110
,
0000
0100
0100
0010
,
0010
1000
0001
0000
,
1000
0000
0001
0000
,
0100
0000
0000
0000
,
0001
0000
0000
0000
,
0010
0000
0100
0000
,
1000
0000
0001
0000
,
0100
0000
0001
0000
,
1000
0000
0000
0000
,
0010
0000
0100
0000
,
0001
0000
0000
0000
,
1000
0000
0000
0000
,
1001
0000
0000
0000
,
0001
0000
1000
0000
,
0100
0000
0010
0000
,
0001
0000
1000
0000
,
1001
0000
0000
0000
;

//---------------dance-single - ----------------
#NOTES:
     dance-single:
     :
     Challenge:
     10:
     0.776542,0.842176,0.685059,0.223389,0.312744,608.000000,92.000000,30.000000,0.000000,0.000000,0.000000,0.776542,0.842176,0.685059,0.223389,0.312744,608.000000,92.000000,30.000000,0.000000,0.000000,0.000000:
// measure 0
0000
0000
0000
0000
,  // measure 1
0000
0000
0000
0000
,  // measure 2
0000
0000
0000
0000
,  // measure 3
0001
1000
0010
1010
0000
0010
0100
0110
,  // measure 4
0000
0100
0001
0101
0000
0001
0010
0011
,  // measure 5
0000
0010
0100
0110
0000
0100
1000
1100
,  // measure 6
0000
1000
0010
1010
0000
0010
0100
0110
,  // measure 7
0000
0100
0001
0101
0000
0100
0010
0110
,  // measure 8
0000
0100
0001
0101
0000
0100
0010
0110
,  // measure 9
0000
0010
1000
1010
0000
0010
0100
0110
,  // measure 10
0000
0100
0010
0110
0000
1001
0000
0001
,  // measure 11
1000
0001
0010
0110
0000
0100
0010
0011
,  // measure 12
0000
0001
0100
0110
0000
0100
0010
1010
,  // measure 13
0000
0001
1000
0110
0000
1000
0010
0110
,  // measure 14
0000
0010
1000
1001
0000
0010
0100
1100
,  // measure 15
0000
1000
0100
0101
0000
0001
0100
0110
,  // measure 16
0000
0010
1000
1010
0000
1000
0010
0011
,  // measure 17
0000
0001
0100
0110
0000
0010
0100
1001
,  // measure 18
0000
1000
0100
0011
0000
1100
0000
0001
,  // measure 19
1000
1000
0010
0100
0001
0001
0010
0100
,  // measure 20
1000
1000
0100
1000
0010
0010
0100
0001
,  // measure 21
1000
1000
0001
0010
0100
0100
0010
0001
,  // measure 22
1000
1000
0010
0100
0001
0001
0010
0100
,  // measure 23
0010
0010
0001
0100
0010
0010
1000
0001
,  // measure 24
0010
0010
0100
1000
0010
0010
0100
0001
,  // measure 25
1000
1000
0001
0010
0100
0100
0010
0001
,  // measure 26
1000
0010
1000
0010
0110
0100
1001
0001
,  // measure 27
1000
0010
1010
0010
0100
0001
0011
0010
,  // measure 28
0100
1000
1001
0001
0100
0001
0011
0001
,  // measure 29
0100
0010
0110
0100
0010
0100
0110
0010
,  // measure 30
1000
0100
1100
1000
0010
0100
0110
0100
,  // measure 31
0010
1000
1001
0001
0010
0100
1100
1000
,  // measure 32
0010
0100
0101
0001
0010
0100
1100
1000
,  // measure 33
0001
0100
0000
0000
0100
0010
0000
0000
0010
1000
0000
0000
1000
0001
0000
0000
0001
0100
0000
0000
0100
0010
0000
0000
0010
1000
0000
0000
1000
0001
0000
0000
,  // measure 34
1000
0010
1020
0000
0130
0002
0010
0000
,  // measure 35
1003
0100
0000
0000
0100
1000
0000
0000
1000
0100
0000
0000
1100
0000
0000
0000
,  // measure 36
1001
0010
1001
1001
0000
0100
1001
1001
,  // measure 37
0000
0010
1001
1001
0000
0100
1001
0000
,  // measure 38
0001
0100
1000
0100
0010
1000
0001
0010
,  // measure 39
1000
0010
0100
0010
0001
0100
0010
1000
,  // measure 40
0001
0000
1000
0010
1000
0000
0001
0000
0010
0001
0010
0000
0001
0000
0100
0000
,  // measure 41
0010
0000
1000
0010
1000
0000
0001
0000
1000
0001
1000
0000
1001
0000
0000
0000
,  // measure 42
0001
1000
2001
0000
3010
2000
0100
0000
,  // measure 43
3001
0010
0000
0000
0010
0001
0000
0000
0001
0010
0000
0000
0011
0000
0000
0000
,  // measure 44
1001
0100
1001
1001
0000
0010
1001
1001
,  // measure 45
0000
0100
1001
1001
0000
0010
1001
0000
,  // measure 46
1000
0010
0001
0010
0100
0001
1000
0100
,  // measure 47
0001
0100
0010
0100
1000
0010
0100
0001
,  // measure 48
1002
0000
0000
0020
0000
0003
0200
0030
,  // measure 49
2000
0000
0000
3300
,  // measure 50
1000
0100
1000
0000
0010
0000
0100
0000
0001
0100
0001
0000
0010
0000
0100
0000
,  // measure 51
1000
0001
1000
0000
0001
0000
0100
0000
0010
1000
0010
0000
0100
0000
0001
0000
,  // measure 52
0010
0100
0010
0000
0100
0000
1000
0000
0001
0010
0001
0000
0100
0000
0010
0000
,  // measure 53
1000
0100
1000
0000
0010
0000
0100
0000
0001
0100
0001
0000
1000
0000
0010
0000
,  // measure 54
0100
0010
1000
0000
0001
0000
0010
0000
0001
0100
0010
0000
1000
0000
0100
0000
,  // measure 55
0010
0100
1000
0000
0010
0000
0100
0000
0001
1000
0010
0000
1000
0000
0001
0000
,  // measure 56
0010
0100
1000
0000
0001
0000
1000
0000
0100
1000
0010
0000
0100
0000
0001
0000
,  // measure 57
0010
0100
1000
0000
0001
0000
0100
0000
0010
1000
0001
0000
0010
0000
0100
0000
,  // measure 58
1000
0100
0000
0000
0100
0010
0000
0000
0010
0001
0000
0000
0001
0100
0000
0000
0010
1000
0000
0000
1000
0001
0000
0000
0001
0010
0000
0000
0010
0100
0000
0000
,  // measure 59
1000
0001
0021
0000
0130
2000
0001
0000
,  // measure 60
3001
0100
0000
0000
0010
1000
0000
0000
1000
0001
0000
0000
1001
0000
0000
0000
,  // measure 61
1100
0001
1100
0101
0000
0010
0110
0101
,  // measure 62
0000
0100
0101
1010
0000
0100
0101
1001
,  // measure 63
1000
0010
0100
0001
0100
0010
1000
0010
,  // measure 64
0100
0001
1000
0100
0010
0100
1000
0100
,  // measure 65
0010
0000
0001
0010
0100
0000
1000
0000
0010
0100
0001
0000
1000
0000
0010
0000
,  // measure 66
0100
0000
0010
1000
0100
0000
0100
0000
0010
0001
1000
0000
1001
0000
0000
0000
,  // measure 67
1000
0100
0120
0000
0031
2000
0001
3000
,  // measure 68
1000
0010
0000
0000
0010
0100
0000
0000
0100
0001
0000
0000
0101
0000
0000
0000
,  // measure 69
0110
1000
0101
0101
0000
0010
1010
1100
,  // measure 70
0000
0010
1001
1100
1001
0000
0110
0000
,  // measure 71
1001
0000
0000
0001
0010
0000
0000
0010
0100
0000
0000
0100
1000
0000
0000
1000
,  // measure 72
0010
0000
0000
0010
0100
0000
0000
0100
0001
0000
0000
0001
0010
0000
0000
0010
,  // measure 73
0200
0000
0000
2300
0000
0000
0002
3000
,  // measure 74
2000
0000
0000
3003
,  // measure 75
0001
0010
0000
0000
0010
0100
0000
0000
0100
1000
0000
0000
1000
0001
0000
0000
,  // measure 76
0001
1000
0000
0000
1000
0100
0000
0000
0100
0010
0000
0000
0010
0001
0000
0000
,  // measure 77
2000
3200
0302
0203
,  // measure 78
2300
3020
0230
0001
,  // measure 79
0310
1000
0000
0000
1000
0010
0000
0000
0010
0100
0000
0000
0100
0001
0000
0000
,  // measure 80
0001
0010
0000
0000
0010
0100
0000
0000
0100
1000
0000
0000
1000
0001
0000
0000
,  // measure 81
1000
0010
0000
0100
0001
0010
0000
0100
,  // measure 82
1000
0010
0000
0100
0001
0010
0000
0010
,  // measure 83
0100
1000
0000
0000
1000
0010
0000
0000
0010
0100
0000
0000
0100
0001
0000
0000
,  // measure 84
0001
0010
0000
0000
0010
0100
0000
0000
0100
1000
0000
0000
1000
0001
0000
0000
,  // measure 85
2000
3020
2030
3002
,  // measure 86
0023
0230
2300
0001
,  // measure 87
3100
0000
0000
0000
;
