#TITLE:3y3s;
#SUBTITLE:;
#ARTIST:青龍;
#TITLETRANSLIT:;
#SUBTITLETRANSLIT:;
#ARTISTTRANSLIT:Seiryu;
#CREDIT:;
#BANNER:3y3s.png;
#BACKGROUND:3y3s-background.png;
#JACKET:3y3s-jacket.png
#LYRICSPATH:;
#CDTITLE:;
#MUSIC:3y3s.mp3;
#OFFSET:-3.843;
#SAMPLESTART:98.060;
#SAMPLELENGTH:12.000;
#SELECTABLE:YES;
#BPMS:0.000=191.000;
#STOPS:32.000=0.942
,197.000=2.513
,281.000=2.199
;
#BGCHANGES:;

//---------------dance-single - ----------------
#NOTES:
     dance-single:
     :
     Hard:
     10:
     0.721,1.000,0.628,0.000,0.318:
1000
0100
0010
0100
0000
0100
0010
0100
,
1000
0100
0010
0001
,
0001
0010
0100
0010
0000
0010
0100
0010
,
0001
0000
1000
0000
0010
0000
0100
0001
,
0000
0010
0100
1000
0000
0100
0010
0001
,
1000
0000
0100
0000
0010
0000
0100
1000
,
0000
0000
0000
1000
0010
0000
0000
0010
,
0100
0000
0000
0000
0000
0010
1000
0001
,
0000
0000
0001
0010
0001
0010
0001
0010
,
0001
0010
0100
1000
0100
1000
0100
1000
,
0100
1000
0010
1000
0010
1000
0010
1000
,
0010
1000
0001
1000
0001
1000
0001
1000
,
0001
0100
0010
0000
0100
0010
1000
0000
,
0100
0010
0001
0000
0010
0100
1000
0000
,
0100
1000
0010
0000
0100
0001
0010
0000
,
0100
1000
1001
0000
0001
0000
1000
0000
,
0001
0101
1010
1100
,
0011
1010
0011
1100
,
0101
1010
0011
1010
,
0011
1100
0101
1010
,
1100
1001
0101
1010
,
1100
1001
0101
1010
,
0011
1001
0101
1001
,
1001
1001
0001
1000
,
0001
0000
0000
0000
0010
1000
0000
0010
1000
0000
0010
1000
0000
0010
1000
0000
,
0100
0000
0100
0000
0010
0001
0000
0010
0001
0000
0010
0001
0000
0010
0001
0000
,
0100
0000
0100
0000
0010
1000
0000
0010
1000
0000
0010
1000
0000
0010
1000
0000
,
0100
0000
0100
0000
0010
0001
0000
0010
0001
0000
0010
0001
0000
0010
0001
0000
,
0100
0100
0010
1000
1001
0000
0001
0010
,
0110
0000
0100
1000
1001
0000
1000
0010
,
0110
0000
0100
1000
0100
0001
0010
1000
,
0010
0000
0001
0000
1000
0000
0001
0100
0001
0000
0100
0000
0010
0000
1000
0000
,
0001
0010
0001
0010
0100
0000
0000
0000
1000
0000
0000
0000
0100
0000
0010
0000
,
0001
0010
0100
0000
0010
0000
0001
1000
,
1010
0000
0010
0000
0100
0000
0001
0100
,
1000
0100
0000
0010
0000
0010
0100
0001
,
1001
0000
1100
0000
0110
0000
0011
0010
,
0100
1000
1100
0000
0110
0000
0010
0001
,
1001
0000
0101
0000
1001
0000
1010
1000
,
0010
0000
0100
0000
0010
0000
1000
0001
1000
0000
0100
0000
0010
0000
0100
0000
,
1000
0100
1000
0100
0010
0000
0100
0000
1000
0000
0010
0000
0000
0000
0100
0000
,
0001
0000
0010
0000
0000
0000
0100
1000
0010
0000
0100
0000
0001
0000
0010
0000
,
1001
0000
0001
0100
1000
0100
0000
0010
,
1000
0000
0001
0000
0000
0000
1000
0001
0100
0000
0010
0000
1000
0000
0001
0000
,
0010
0000
0000
0000
0100
0010
0000
0010
0001
0000
0001
1000
0000
1000
0010
0000
,
0100
0000
0001
0000
1000
0010
0000
0100
0001
0000
0010
0100
0000
1000
0100
0000
,
1000
0000
0001
0000
0100
0010
0100
0010
0100
0010
0100
0010
0100
0010
0100
0010
,
0100
0010
0100
0010
0100
0000
0001
0100
0000
0000
0100
0010
0000
0000
0010
1000
,
0000
0000
1000
0100
0000
0000
0100
0010
0000
0000
0010
0001
0000
0000
0001
1000
,
0000
0000
1000
0010
0000
0000
0100
0000
0000
0000
0100
0000
0010
0000
1000
0000
,
0001
0000
1000
0100
0010
0001
0000
0001
,
0010
0100
1000
0000
0100
0000
1000
0000
,
0010
0000
0100
0010
1000
0001
0000
0100
,
0010
1000
0001
0000
0100
0000
0010
0000
,
1000
0010
0000
0100
0001
0010
0000
0100
,
1000
0010
0100
0000
0001
0000
1000
0000
,
0100
0100
0000
0000
0000
1000
1000
0000
,
0000
0010
0010
0000
0000
0000
0000
0100
,
0001
1000
0010
0000
0100
0000
0010
0000
,
1000
0001
0010
0100
,
1000
0100
1000
0000
0100
0000
1000
0000
,
0010
0100
0001
1000
,
0001
0100
0101
0000
0100
0000
0010
0000
,
1000
0110
0010
1000
,
0001
0101
1010
0101
,
1010
1100
0011
1100
,
0011
1001
0110
1001
,
0110
0101
1010
1100
,
0011
0000
0000
0000
0001
1000
0001
1000
0001
1000
0001
1000
0001
1000
0001
1000
,
0001
1000
0001
1000
0001
1000
0001
1000
0001
1000
0001
1000
0001
1000
0001
1000
,
0001
1000
0001
1000
0001
0000
0000
0000
1000
0000
0100
0000
0001
0000
0100
0000
,
0000
0100
0010
0001
0010
0000
1000
0000
,
0010
0000
0001
0000
0001
0100
1000
0100
,
0000
0010
1000
0001
0010
0000
0100
0000
,
1000
0000
0100
1000
0000
0100
0001
0100
,
0000
1000
0010
0001
0010
0000
0100
0000
,
0001
0000
1000
0010
0000
0000
0000
0100
,
0001
0000
0000
0001
1001
0000
0000
0000
,
0000
1000
0100
0010
0011
0010
0100
1100
,
0000
1100
0100
0010
0011
0000
1100
0000
,
0101
0000
1010
0000
1001
0001
0010
0110
,
0000
0110
0100
1000
1001
0000
0110
0000
,
1001
0000
0110
0100
0000
0010
1000
0001
,
0000
0000
0010
0000
0100
0000
1000
0000
0001
0100
0001
0100
0001
0100
0001
0100
,
0001
0100
0001
0100
0001
0100
0001
0100
0001
0100
0001
0100
0001
0100
0001
0100
,
0001
0100
0001
0100
0001
0100
0001
0100
0001
0000
0000
0000
0000
0000
0000
0000
,
0000
0010
1000
0001
0000
0000
0000
0000
;

//---------------dance-single - ----------------
#NOTES:
     dance-single:
     :
     Medium:
     8:
     0.558,0.618,0.509,0.000,0.048:
1000
0100
0010
0001
0000
0001
0010
0100
,
1000
0100
1000
0001
,
0100
0010
1000
0001
0000
0100
0010
1000
,
0001
0000
1000
0000
0100
0000
1000
0010
,
0000
0100
0001
0100
0000
0100
0010
0100
,
0010
0000
1000
0000
0010
0000
0100
0001
,
0000
0000
0000
0001
0010
0000
0000
0010
,
0100
0000
0000
0000
0000
0010
0001
1000
,
0000
0001
0100
0010
,
1000
0001
0010
0100
,
1000
0100
0010
0100
,
1000
0010
0100
0001
,
1000
1001
1001
1001
,
1001
0110
0110
0110
,
0110
1010
1010
1010
,
1010
0101
0000
0000
,
0000
0101
1100
0101
,
1100
1010
0011
1010
,
0011
1001
0110
1001
,
0110
0101
1010
1100
,
0011
1001
0101
0101
,
0101
1001
1100
1100
,
1100
1001
0011
1001
,
1001
1001
0000
0000
,
0000
0000
0000
0000
0001
0000
0000
0100
0000
0000
0010
0000
0000
1000
0000
0000
,
0010
0000
0100
0000
0001
0000
0000
1000
0000
0000
0100
0000
0000
0010
0000
0000
,
0001
0000
0010
0000
0100
0000
0000
0010
0000
0000
0001
0000
0000
1000
0000
0000
,
0010
0000
0100
0000
0001
0000
0000
1000
0000
0000
0010
0000
0000
1000
0000
0000
,
0010
0100
0001
1000
0010
0000
0100
0001
,
1000
0000
0100
1000
0010
0000
0100
0001
,
1000
0000
0001
1000
0001
1000
0001
1000
,
0001
1000
0001
0010
1000
0010
0001
0100
,
1000
0000
0100
0000
0010
0000
1000
0010
,
0100
0010
1000
0000
0001
0000
0010
0100
,
0110
0000
0010
0000
0001
0000
1000
0100
,
0010
0001
0000
0010
0000
0001
0010
0100
,
1000
0000
1100
0000
1100
0000
0100
1000
,
0010
0100
0010
0000
0110
0000
0100
0001
,
1000
0000
0001
0000
1001
0000
0001
0100
,
0001
1000
0000
0100
0100
1000
0010
0001
,
0010
0010
0100
0001
1000
0010
0000
0100
,
0001
1000
0000
0000
0000
0000
0100
1000
,
1100
0000
1000
0010
0100
0001
0000
0001
,
0010
1000
0000
0000
0000
0000
0010
0100
,
0100
0000
1000
0000
0001
0000
0000
0001
0000
0000
0001
0000
0000
0001
0000
0000
,
0010
0000
0100
0000
1000
0000
0000
1000
0000
0000
1000
0000
0000
1000
0000
0000
,
0100
0100
0010
0001
0100
0010
1000
0001
,
0100
0010
0000
1000
0000
0010
0000
0100
,
0000
0001
0000
0110
0000
1001
0000
0110
,
0000
1001
0000
0001
0000
0001
1000
0001
,
1000
0000
0001
0100
0010
1000
0000
0001
,
0100
0010
1000
0000
0010
0000
0100
0000
,
0010
0000
0100
0010
1000
0001
0000
0100
,
0010
1000
0001
0000
1000
0000
0100
0000
,
1000
0100
0000
1000
1000
0001
0000
0001
,
0100
0100
0010
0000
1000
0000
0001
0000
,
0010
0010
0000
0000
0000
0100
0100
0000
,
0000
1000
1000
0000
0000
0000
0000
1000
,
0100
0010
0001
0000
0010
0000
0001
0000
,
0010
0100
1000
0100
,
1000
0010
0100
0000
0010
0000
0100
0000
,
0010
1000
0010
1000
,
0010
0100
0001
0000
1000
0000
0001
0000
,
1000
0010
0100
0001
,
0010
0100
0100
0100
,
0100
0010
0010
0010
,
0010
0001
0001
1000
,
1000
0001
0001
1000
,
0001
0000
0001
0100
1000
0100
0010
1000
,
0010
0001
0010
0000
0000
0000
0000
0010
,
1000
0001
0000
0000
1000
0100
0001
0100
,
0000
0100
0001
0100
1000
0000
0100
0000
,
0010
0000
0001
0000
0001
0010
1000
0010
,
0000
1000
0010
0001
0010
0000
0100
0000
,
0010
0000
0001
0010
0000
0100
1000
0010
,
0000
0100
0001
1000
0010
0000
0100
0000
,
0001
0000
1000
0100
0000
0000
0000
0100
,
1000
0000
0000
1000
0001
0000
0000
0000
,
0000
0100
0001
1000
0010
0100
0001
0010
,
0000
0010
1000
0010
0100
0000
0110
0000
,
1001
0000
1001
0000
1000
0100
1000
0010
,
0000
1000
0010
0100
0001
0000
1001
0000
,
0110
0000
0010
0110
0000
0100
0100
0001
,
0000
1000
0100
0010
0011
0000
1100
0000
,
0101
0000
1010
1000
0000
0000
0000
0101
,
0100
0000
0000
0110
0010
0000
0000
0000
,
0000
0100
0001
1000
0000
0000
0000
0000
;

//---------------dance-single - ----------------
#NOTES:
     dance-single:
     :
     Easy:
     5:
     0.348,0.584,0.238,0.016,0.000:
1000
0000
0100
0000
,
0010
0100
1000
0010
,
0100
0000
0001
0000
,
1000
0100
1000
0010
,
0100
0000
0001
0000
,
1000
0100
0010
0001
,
0010
0000
0100
0000
,
1000
0000
0000
0000
,
0000
0010
0100
0010
,
0100
0001
1000
0001
,
1000
0100
1000
0100
,
1000
0100
0010
0100
,
0010
0001
0001
0001
,
0001
0010
0010
0010
,
0010
0100
0100
0100
,
0100
1100
1000
1000
,
1000
1001
0001
0100
,
0010
1010
0010
0100
,
0001
1001
1000
0100
,
0010
0110
0100
1000
,
0010
0110
0010
0100
,
0010
0110
0010
0100
,
0010
0110
0010
0110
,
1001
0110
0100
0100
,
0100
0000
0000
0000
,
0001
0001
0000
0000
0000
0000
0000
0000
,
1000
1000
0000
0000
0000
0000
0000
0000
,
0010
0010
0000
0000
0000
0000
0000
0000
,
0100
0100
0000
0000
0001
0000
0000
0000
,
1000
0000
0010
0000
,
0100
0010
1000
0010
,
0001
0010
0100
0001
,
1000
0001
1000
0100
,
1000
0000
0010
0000
0100
0000
0001
0100
,
0001
0000
0000
0001
,
0100
0000
0010
0000
1000
0000
0010
0100
,
0010
0000
0000
0100
,
0010
0000
1000
0000
0001
0000
0010
0100
,
0010
0000
0000
0100
,
1000
0001
1000
0010
,
0100
0001
0100
0000
0001
0000
0100
0000
,
0010
0000
1000
0000
0100
0000
0010
0001
,
0010
0001
0010
0100
,
1000
0000
0001
0000
0100
0000
0010
0100
,
0010
0100
0000
0000
,
0010
1000
0001
0000
0000
0000
0000
0000
,
0001
0001
0020
0000
0000
0000
0000
0000
,
0000
0200
0000
0000
,
0000
0000
0000
0000
,
0000
0330
0000
0000
,
0000
0001
0000
0000
,
1000
0001
0000
0100
,
0000
0010
0000
0000
,
0100
0010
0000
1000
,
0000
0100
0000
1000
,
0000
0010
0100
0001
,
1000
0000
0000
0001
,
0000
0100
0000
0000
,
0001
0010
0000
0100
,
0000
1000
0000
0001
,
0000
0100
0000
0001
,
0000
1000
0000
0100
,
0000
0010
0000
0100
,
0000
1000
0000
0001
,
0000
1000
0001
1000
,
0001
0100
0010
0100
,
0010
1000
1000
0010
,
0010
0100
0100
0001
,
0001
1001
0101
0011
,
0110
1100
0110
0011
,
1001
0000
1000
0100
,
1000
0010
0100
0001
,
0001
0010
0001
0100
,
0001
1000
0100
1000
,
0010
0100
0001
0001
,
0100
0100
0010
0010
,
1000
1000
0001
0000
,
1000
0000
0010
0000
,
0000
0100
0101
0100
,
0001
0010
0011
0011
,
1100
1100
0100
1000
,
0010
0100
0010
0110
,
0110
0110
0010
1000
,
0001
0010
0110
0011
,
1100
0000
0001
0100
0000
0000
0000
0010
,
1000
0000
0000
1000
0100
0000
0000
0000
,
0000
0100
0010
0001
0000
0000
0000
0000
;

//---------------dance-single - ----------------
#NOTES:
     dance-single:
     :
     Beginner:
     2:
     0.181,0.240,0.103,0.000,0.000: // measure 1
0001
0000
0000
0000
,  // measure 2
0001
0000
1000
0000
,  // measure 3
0010
0000
0000
0000
,  // measure 4
0010
0000
0100
0000
,  // measure 5
0001
0000
0000
0000
,  // measure 6
1000
0000
0100
0000
,  // measure 7
0010
0000
0100
0000
,  // measure 8
1000
0000
0000
0010
,  // measure 9
0000
0100
0000
0000
,  // measure 10
0000
0001
0000
0000
,  // measure 11
0000
1000
0000
0000
,  // measure 12
0000
0010
0000
0000
,  // measure 13
0000
0100
0000
0100
,  // measure 14
0000
0010
0000
0010
,  // measure 15
0000
1000
0000
0001
,  // measure 16
0000
1001
0000
0000
,  // measure 17
0000
0010
0000
0010
,  // measure 18
0000
0100
0000
0100
,  // measure 19
0000
0001
0000
0001
,  // measure 20
0000
1000
0000
1000
,  // measure 21
0000
1001
0000
0001
,  // measure 22
0000
1001
0000
1000
,  // measure 23
0000
1001
0000
0010
,  // measure 24
0010
0010
0000
0000
,  // measure 25
0000
0100
0000
0000
,  // measure 26
0000
0100
0000
0000
,  // measure 27
0000
0010
0000
0000
,  // measure 28
0000
0010
0000
0000
,  // measure 29
0000
1000
0000
1000
,  // measure 30
0000
0001
0000
0001
,  // measure 31
0000
0100
0000
0010
,  // measure 32
0000
1001
0000
0000
,  // measure 33
0000
0010
0000
0100
,  // measure 34
0100
0000
0000
0010
,  // measure 35
0000
0000
0000
1000
,  // measure 36
1000
0000
0000
0001
,  // measure 37
0000
0000
0000
0100
,  // measure 38
0100
0000
0000
0010
,  // measure 39
0000
0000
0000
0100
,  // measure 40
0100
0000
0001
0000
,  // measure 41
0000
1000
1000
1000
,  // measure 42
1000
0000
0000
0010
,  // measure 43
0000
0100
0100
0100
,  // measure 44
0100
0000
0000
0001
,  // measure 45
0000
1001
0000
0000
,  // measure 46
0000
0110
0000
0000
,  // measure 47
0000
0110
0000
0000
,  // measure 48
0000
0100
0000
0000
,  // measure 49
0000
0000
0000
0000
,  // measure 50
0000
0000
0000
0000
,  // measure 51
0000
0010
0000
0000
,  // measure 52
0010
0010
0000
1000
,  // measure 53
0000
0001
0000
0000
,  // measure 54
0001
0001
0000
0100
,  // measure 55
0000
0010
0000
0000
,  // measure 56
0100
0100
0000
0010
,  // measure 57
0000
1000
0000
0100
,  // measure 58
0000
1000
0000
0000
,  // measure 59
0000
1001
0000
0000
,  // measure 60
0000
0001
0000
0001
,  // measure 61
0000
0100
0000
0000
,  // measure 62
0000
0001
0000
1000
,  // measure 63
0000
0010
0000
0000
,  // measure 64
0000
0100
0000
0000
,  // measure 65
0000
0010
0000
1000
,  // measure 66
0000
0001
0000
0000
,  // measure 67
0000
1000
0000
0100
,  // measure 68
0000
0100
0000
0000
,  // measure 69
0000
1001
0000
0110
,  // measure 70
0000
0110
0000
0000
,  // measure 71
0100
0000
0010
0000
,  // measure 72
0000
0010
0010
0000
,  // measure 73
1000
0000
0100
0000
,  // measure 74
0000
0100
0100
0000
,  // measure 75
0010
0000
0001
0000
,  // measure 76
1000
0000
0010
0000
,  // measure 77
0100
0000
0001
0000
,  // measure 78
0001
0000
1001
0000
,  // measure 79
0000
0000
0010
0000
,  // measure 80
0000
0100
0001
0001
,  // measure 81
1000
1000
0010
0000
,  // measure 82
0000
0100
0010
0010
,  // measure 83
1000
0001
0010
0000
,  // measure 84
0001
0000
1000
0000
,  // measure 85
0100
0000
0010
0000
,  // measure 86
0001
0000
1000
0000
,  // measure 87
0000
0010
0000
0000
;
