#TITLE:2002;
#SUBTITLE:;
#ARTIST:tiger YAMATO;
#TITLETRANSLIT:;
#SUBTITLETRANSLIT:;
#ARTISTTRANSLIT:;
#CREDIT:;
#BANNER:2002.png;
#BACKGROUND:2002-background.png;
#JACKET:2002-jacket.png;
#LYRICSPATH:;
#CDTITLE:cdtitle.png;
#MUSIC:2002.mp3;
#OFFSET:1.799;
#SAMPLESTART:28.960;
#SAMPLELENGTH:12.000;
#SELECTABLE:YES;
#BPMS:0.000=132.480;
#STOPS:;
#BGCHANGES:2.000=beatmania IIDX (BGA) 2002[1].avi=1.000=0=0=1,
99999=-nosongbg-=1.000=0=0=0 // don't automatically add -songbackground-
;

//---------------dance-single - ----------------
#NOTES:
     dance-single:
     :
     Hard:
     7:
     0.371,0.435,0.142,0.025,0.155:
0000
0000
0000
0000
,
0000
0000
0000
0000
,
0000
0000
0000
0000
,
0000
0000
0000
0000
,
0000
0000
0000
0000
,
1000
0000
0001
0000
,
0100
0000
0001
0000
,
1000
0010
0100
0001
,
0101
1100
0011
0101
,
1001
0000
0000
1000
0000
0000
1000
0000
0000
1000
0000
0000
1000
0000
0010
0000
,
0100
0000
0000
0100
0000
0000
0100
0000
0010
0000
0000
0010
0000
0000
0010
0000
,
0100
0000
0000
0100
0000
0000
0100
0000
0000
0100
0000
0000
0100
0000
0001
0000
,
0010
0000
0000
0010
0000
0000
0010
0000
0100
0000
0000
0100
0000
0000
0100
0000
,
1000
0000
0000
1000
0000
0000
1000
0000
0000
1000
0000
0000
1000
0000
0001
0000
,
0010
0000
0000
0010
0000
0000
0010
0000
0001
0000
0000
0001
0000
0000
0001
0000
,
0100
0000
0000
0100
0000
0000
0100
0000
0000
0100
0000
0000
0100
0000
0001
0000
,
1000
0000
0000
0100
0000
0000
0001
0000
0100
0000
0000
0010
0000
0000
0001
0000
,
0100
0001
1000
0100
,
0000
1000
0100
0001
0000
0001
0100
1000
,
0010
0100
0010
0100
,
0000
0000
0001
0000
0010
0000
0000
0000
1000
0000
0000
0010
0000
0000
0100
0000
,
1000
1000
0001
0001
,
0100
0010
0010
1000
0000
0010
0100
0100
,
0010
1000
0001
0010
,
0100
0000
1000
0000
0100
0000
0000
0000
1000
0000
0000
0100
0000
0000
0010
0000
,
0001
0001
0010
0000
0010
0010
0100
0000
,
0100
0100
1000
0000
1000
1000
0001
0000
,
0001
0001
0100
0000
0100
0100
0010
0000
,
0010
0010
1000
0000
1000
1000
0001
0000
,
0001
0100
0100
0000
0010
1000
1000
0000
,
0100
1000
0010
0100
,
0001
0001
0001
0000
1000
1000
1000
0000
,
0010
0010
0010
0000
0100
0100
0100
0000
,
1001
0000
0000
0000
0000
0000
0000
0100
,
0000
0000
0100
0000
0000
0000
0000
0000
0010
0000
0000
0010
0000
0000
0110
0000
,
1001
0000
0000
0000
0000
0000
1000
0100
,
0000
0000
0000
1000
0000
0100
0000
0011
,
1100
0000
0000
0000
0000
0000
0100
1000
,
0000
0000
1000
0000
0000
0000
0000
0000
0001
0000
0000
0100
0000
0000
0110
0000
,
0101
0000
0000
0020
0000
0030
0000
0000
,
1000
0100
0010
0001
0010
0100
1000
0000
,
0010
0000
0000
0100
0000
0000
0001
0000
0000
0010
0000
0000
0100
0000
0100
0000
,
0010
0000
0000
0001
0000
0000
0010
0000
0010
0000
0000
0100
0000
0000
1000
0000
,
0100
0000
0000
0100
0000
0000
0100
0000
0000
0100
0000
0000
0100
0000
1000
0000
,
0010
0000
0000
0100
0000
0000
0001
0000
0001
0000
0000
0001
0000
0000
1000
0000
,
0010
0000
0000
0010
0000
0000
0010
0000
0000
0010
0000
0000
0010
0000
0010
0000
,
0100
0000
0000
0001
0000
0000
1000
0000
0100
0000
0000
0001
0000
0000
0100
0000
,
0010
0000
0000
0100
0000
0000
1000
0000
0000
0010
0000
0000
0001
0000
0010
0000
,
0100
0000
0000
0001
0000
0000
1000
0000
0100
0000
0000
0100
0000
0000
1000
0000
,
0010
0000
0100
0001
0010
0000
0010
0100
,
1000
0000
1000
0100
0001
0000
0001
0100
,
0010
0000
0010
0001
0010
0000
0001
0010
,
0100
1000
0100
0001
0100
1000
0010
0100
,
0001
0000
0100
0010
1000
0000
0010
0100
,
0001
0000
0001
1000
0100
0000
0100
1000
,
0010
0100
0001
0000
0001
0010
0100
0000
,
1100
0000
0000
0000
0011
0000
0000
0000
0101
0000
0000
1010
0000
0000
0010
0000
,
2001
0000
0001
0000
,
3100
0000
0100
0000
,
1000
0000
0001
0000
,
0100
0000
0001
0000
,
1000
0000
0001
0000
,
0010
0000
0100
0000
,
1000
0100
1000
0010
,
0100
0001
1000
0002
,
0003
0000
0000
0000
;

//---------------dance-single - ----------------
#NOTES:
     dance-single:
     :
     Medium:
     6:
     0.315,0.380,0.050,0.084,0.075:
0000
0000
0000
0000
,
0000
0000
0000
0000
,
0000
0000
0000
0000
,
0000
0000
0000
0000
,
0000
0000
0000
0000
,
1000
0000
0001
0000
,
0100
0000
0001
0000
,
1000
1000
0001
0001
,
0110
1001
0110
1001
,
1000
0000
0001
0000
0100
0000
0010
0100
,
0010
0000
0100
0010
0100
0000
0010
0100
,
0010
0000
1000
0000
0001
0000
0010
0100
,
0010
0000
0100
0010
0100
0000
0010
0100
,
0010
0000
0100
0000
1000
0000
0001
0100
,
0001
0000
0100
0010
1000
0000
0010
1000
,
0100
0000
1000
0000
1000
0000
0100
0010
,
0001
0000
0001
0010
0100
0000
1000
0000
,
0010
0010
0100
0001
,
0000
1000
0001
1000
0000
0010
0100
0010
,
0100
0100
0010
0010
,
0000
0000
1000
0000
0001
0000
0000
0000
0100
0000
0000
0100
0000
0000
0100
0000
,
0010
1000
0100
0010
,
0000
0010
0100
1000
0000
1000
0010
0100
,
0001
0001
1000
1000
,
0000
0000
0100
0000
0100
0000
0000
0000
1000
0000
0000
0010
0000
0000
0100
0000
,
0001
0100
0001
0000
0100
0010
0100
0000
,
0010
1000
0010
0000
1000
0100
1000
0000
,
0100
0010
0100
0000
0010
0001
0010
0000
,
0001
0100
0001
0000
0010
0001
0010
0000
,
0000
0001
1000
0000
0100
0000
1000
0000
0000
0000
0100
0000
0000
0000
1000
0000
,
0000
0000
0000
0000
0000
0000
0000
0000
0010
0000
0000
0100
0000
0000
0001
0000
,
1000
1000
0001
0001
,
1000
0001
1000
0001
,
0110
0000
0000
0000
0000
0000
0000
0100
,
0000
0000
0100
0000
0000
0000
0000
0000
0010
0000
0000
1000
0000
0000
0001
0000
,
0010
0000
0000
0000
0000
0000
0010
0100
,
0000
0000
0000
1000
0000
0001
0000
0100
,
0001
0000
0000
0000
0000
0000
0000
0001
,
0000
0000
1000
0000
0000
0000
0000
0000
0010
0000
0000
1000
0000
0000
0010
0000
,
0100
0000
0000
0010
0000
0000
0000
0000
,
0100
0000
0010
0000
,
1000
0000
0000
1000
0000
0000
1000
0000
0000
1000
0000
0000
1000
0000
0100
0000
,
0010
0000
0000
0010
0000
0000
0010
0000
0100
0000
0000
1000
0000
0000
0001
0000
,
0100
0000
0000
0100
0000
0000
0100
0000
0000
0100
0000
0000
0100
0000
0001
0000
,
0010
0000
0000
0100
0000
0000
1000
0000
0100
0000
0000
1000
0000
0000
0010
0000
,
0100
0000
0000
0100
0000
0000
0100
0000
0000
0100
0000
0000
0010
0000
0100
0000
,
0010
0000
0000
0010
0000
0000
0010
0000
1000
0000
0000
0001
0000
0000
0010
0000
,
0200
1300
0200
0310
,
0200
0301
0200
0310
,
1001
0000
0001
0000
,
1000
0000
0010
0000
,
0100
0000
0001
0000
,
1000
0001
0100
0001
1000
0001
0010
0100
,
1000
1000
0100
0100
,
0010
0010
0001
0001
,
0002
0000
0000
0000
0013
0000
0000
0000
0020
0000
0000
0030
0100
0000
0000
0000
,
0200
1300
2000
3010
,
0100
0000
0001
0000
,
1000
0000
0100
0000
,
1000
0000
0001
0000
,
0100
0000
0001
0000
,
1000
0000
0010
0000
,
0001
0000
0010
0000
,
0100
0001
2000
3000
,
1000
0100
0020
0000
,
0030
0000
0000
0000
;

//---------------dance-single - ----------------
#NOTES:
     dance-single:
     :
     Easy:
     3:
     0.222,0.326,0.184,0.059,0.000:
0000
0000
0000
0000
,
0000
0000
0000
0000
,
0000
0000
0000
0000
,
0000
0000
0000
0000
,
0000
0000
0000
0000
,
1000
0000
0100
0000
,
1000
0000
0001
0000
,
0100
0001
0020
0030
,
0100
1000
0020
0030
,
0100
0001
0100
0010
,
0100
0001
1000
0100
,
1000
0010
1000
0010
,
0100
0010
1000
0010
,
0110
0010
1000
0001
,
0010
0001
1000
0001
,
0100
0001
0010
0100
,
1100
1100
0011
0011
,
0001
1000
0010
1000
,
0000
0100
0000
0010
,
0001
0001
1000
1000
,
0000
0010
0100
0000
,
0010
1000
0001
0010
,
0100
0000
1000
0000
,
0001
1000
0010
1000
,
0000
0001
1000
0000
,
1001
0000
0110
0000
,
1001
0000
0110
0000
,
1001
0000
0110
0000
,
1001
0000
0110
0000
,
1001
0000
0110
0000
,
1001
0000
0110
0000
,
0001
0000
1000
0000
,
0010
0000
0100
0000
,
1010
0000
0000
0010
,
0010
0000
0100
0001
,
1001
0000
0000
0000
,
1000
0000
0001
0100
,
1010
0000
0000
0000
,
0010
0000
0100
0001
,
1001
0000
0000
0000
,
1000
0000
0001
0000
,
0100
0001
0100
0001
,
0010
0001
0100
0001
,
1000
0100
1000
0010
,
0100
0010
1000
0010
,
0100
0001
0100
0010
,
1000
0010
0100
0010
,
1000
0100
1000
0010
,
0100
0001
0010
0100
,
1001
0000
0001
0000
,
1000
0000
0010
0000
,
1000
0000
0100
0000
,
0010
0010
0100
0100
,
0010
0001
0100
0000
,
0100
0010
1000
0000
,
0001
1000
1000
0000
,
1000
0001
0001
0000
,
0200
0000
0000
0000
,
0000
0000
0000
0300
,
0020
0000
0000
0000
,
0000
0000
0000
0030
,
2000
0000
0000
0000
,
0000
0000
0000
3000
,
0002
0000
0000
0000
,
2000
0000
0000
0000
,
3003
0000
0000
0000
;

//---------------dance-single - ----------------
#NOTES:
     dance-single:
     :
     Beginner:
     1:
     0.105,0.135,0.042,0.000,0.000: // measure 1
0000
0000
0000
0000
,  // measure 2
0000
0000
0000
0000
,  // measure 3
0000
0000
0000
0000
,  // measure 4
0000
0000
0000
0000
,  // measure 5
0000
0000
0000
0000
,  // measure 6
0001
0000
0000
0000
,  // measure 7
0000
0000
0000
0000
,  // measure 8
1000
0000
0000
0000
,  // measure 9
0010
0000
0100
0000
,  // measure 10
1001
0000
0000
0000
,  // measure 11
0001
0000
1000
0000
,  // measure 12
0001
0000
0000
0000
,  // measure 13
0100
0000
0010
0000
,  // measure 14
0100
0000
0000
0000
,  // measure 15
0001
0000
0100
0000
,  // measure 16
0001
0000
0000
0000
,  // measure 17
1000
0000
0100
0000
,  // measure 18
1000
0000
0000
0000
,  // measure 19
0000
0010
0000
0010
,  // measure 20
0000
0000
0000
0000
,  // measure 21
0000
0100
0001
0000
,  // measure 22
1000
0000
0000
0000
,  // measure 23
0000
0001
0000
0001
,  // measure 24
0000
0000
0000
0000
,  // measure 25
0000
1000
0010
0000
,  // measure 26
0100
0000
0100
0000
,  // measure 27
0100
0000
0100
0000
,  // measure 28
0100
0000
0100
0000
,  // measure 29
0100
0000
0100
0000
,  // measure 30
0010
0000
0010
0000
,  // measure 31
0010
0000
0000
0000
,  // measure 32
0010
0000
0010
0000
,  // measure 33
0010
0000
0010
0000
,  // measure 34
1001
0000
0000
0000
,  // measure 35
0000
0000
0000
0000
,  // measure 36
0110
0000
0000
0000
,  // measure 37
0000
0000
0000
0000
,  // measure 38
1001
0000
0000
0000
,  // measure 39
0000
0000
0000
0000
,  // measure 40
0110
0000
0100
0000
,  // measure 41
0000
0000
0000
0000
,  // measure 42
0001
0000
0000
1000
,  // measure 43
0100
0000
0100
0000
,  // measure 44
1000
0000
0000
0010
,  // measure 45
0100
0000
0001
0000
,  // measure 46
1000
0000
0000
0001
,  // measure 47
1000
0000
0100
0000
,  // measure 48
1000
0000
0010
0000
,  // measure 49
0100
0000
0001
0000
,  // measure 50
1000
0000
0000
0000
,  // measure 51
0001
0000
0000
0000
,  // measure 52
0100
0000
0000
0000
,  // measure 53
0001
0000
1000
0000
,  // measure 54
0010
0000
0000
0000
,  // measure 55
0100
0000
0000
0000
,  // measure 56
0001
0000
1000
0000
,  // measure 57
0100
0000
1000
0000
,  // measure 58
0010
0000
0000
0000
,  // measure 59
0100
0000
0000
0000
,  // measure 60
0010
0000
0000
0000
,  // measure 61
0100
0000
0000
0000
,  // measure 62
0001
0000
0000
0000
,  // measure 63
1000
0000
0000
0000
,  // measure 64
0001
0000
1000
0000
,  // measure 65
0100
0000
0010
0000
;
