#TITLE:1st Samurai;
#SUBTITLE:;
#ARTIST:Sampling Masters MEGA;
#TITLETRANSLIT:;
#SUBTITLETRANSLIT:;
#ARTISTTRANSLIT:;
#CREDIT:;
#BANNER:1st Samurai.PNG;
#BACKGROUND:1st Samurai-bg.PNG;
#JACKET:1st Samuria-jacket.png;
#LYRICSPATH:;
#CDTITLE:Beatmania IIDX.png;
#MUSIC:1st Samurai.mp3;
#OFFSET:-5.553;
#SAMPLESTART:54.840;
#SAMPLELENGTH:12.000;
#SELECTABLE:YES;
#BPMS:0.000=175.000,252.000=200.060;
#STOPS:252.000=0.900
;
#BGCHANGES:;

//---------------dance-single - ----------------
#NOTES:
     dance-single:
     :
     Hard:
     9:
     0.740,0.797,0.403,0.094,0.374: // measure 1
0001
0100
1000
0000
1000
0100
0001
0000
,  // measure 2
0001
0100
1000
0000
1000
0100
0001
0010
,  // measure 3
0100
0010
0001
0000
0001
1000
0010
0000
,  // measure 4
1000
0001
0010
0000
0001
0010
0001
1000
,  // measure 5
0001
0010
1000
0000
1000
0010
0001
0000
,  // measure 6
0001
0010
1000
0000
1000
0010
0001
0000
,  // measure 7
0001
0100
0010
0000
0100
0010
1000
0000
,  // measure 8
0001
1000
0100
1000
0010
0100
1000
0000
,  // measure 9
0100
0000
0010
0000
1000
0000
0001
1000
,  // measure 10
0010
0100
0100
0001
0100
0100
0010
0010
,  // measure 11
1000
0000
0001
0000
0010
0000
0100
1000
,  // measure 12
0001
0001
1000
0001
0001
1000
1000
0010
,  // measure 13
0100
1000
0100
0000
0100
0010
1000
0001
,  // measure 14
0010
0000
0100
0000
0100
0000
0010
0000
0001
0000
0001
0000
1000
0010
1000
0000
,  // measure 15
0100
0010
0001
0000
0010
0001
0100
0010
,  // measure 16
1000
0000
0010
0100
0001
0000
0010
0000
0100
1000
0010
0000
1001
0000
0000
0000
,  // measure 17
1001
0000
0001
0100
0000
0100
0010
0000
0010
1000
0000
1000
,  // measure 18
0100
0000
0100
0010
0000
0010
0001
0000
0001
1000
0000
1000
,  // measure 19
0010
0000
0010
0100
0000
0100
0010
0000
0010
1000
0000
1000
,  // measure 20
0100
0000
0100
0010
0000
0010
0001
0000
0001
0100
0000
0100
,  // measure 21
0010
0000
1000
0000
0001
0010
0001
0000
0010
0000
0000
0000
0000
0000
0000
0000
,  // measure 22
0100
0000
1000
0000
0010
0100
0010
0000
1000
0000
0000
0000
0000
0000
0000
0000
,  // measure 23
0010
1000
0001
0000
0010
0000
0000
0000
0100
1000
0010
0000
0100
0000
0000
0000
,  // measure 24
0010
1000
0010
0000
0100
0001
0100
0000
1001
0000
0000
0000
0000
0000
0000
0000
,  // measure 25
0001
0001
0010
0010
0100
0100
1000
1000
,  // measure 26
0001
0000
0001
0000
1000
0001
0010
0000
1100
0000
0000
0000
0000
0000
0000
0000
,  // measure 27
1100
0000
0100
0010
0001
0000
0000
0000
0011
0000
0001
0010
0100
0000
0000
0000
,  // measure 28
0110
0000
0010
0001
0100
0000
0010
1000
0001
0000
0010
0100
1000
0000
0001
0000
,  // measure 29
1000
0000
0201
0000
0010
0000
1000
0300
,  // measure 30
0010
0000
0000
0000
1000
0000
0001
0000
0000
0010
0000
0000
0001
0000
0000
1000
0000
0000
0100
0000
0000
0000
0000
0000
,  // measure 31
0011
0100
1010
0100
,  // measure 32
1100
0101
1100
0101
,  // measure 33
0001
0000
1000
0000
0100
0010
0000
0100
0000
1000
0000
0010
0100
0000
0001
0000
,  // measure 34
0010
0000
0001
0000
1000
0010
0000
0100
0000
0001
0000
0100
0010
0000
0100
0000
,  // measure 35
0101
0010
1100
0010
,  // measure 36
0011
1010
0011
1010
,  // measure 37
0001
1000
1010
0000
1000
0001
0011
0000
,  // measure 38
0001
1000
1010
0000
1000
0001
0011
0000
,  // measure 39
0001
1000
0010
1000
0001
0010
0001
1000
,  // measure 40
0010
1000
0001
0010
0100
1000
1100
0000
,  // measure 41
0100
1000
0001
0100
1000
0100
0010
1000
,  // measure 42
0001
0010
1000
0010
0100
0010
0001
1000
,  // measure 43
0010
0001
0010
0100
0010
1000
0001
0010
,  // measure 44
0100
2000
0002
3003
,  // measure 45
0101
0000
0000
0011
0000
0000
1100
0000
,  // measure 46
0011
0000
0000
0101
0000
0000
1010
0000
,  // measure 47
1100
0000
0000
0011
0000
0000
1100
0000
,  // measure 48
0110
0002
2000
3003
,  // measure 49
0001
1000
0100
1000
0010
0100
0001
0010
,  // measure 50
0100
0010
0001
1000
0010
0100
0001
0010
,  // measure 51
0001
1000
0100
1000
0001
0100
0010
1000
,  // measure 52
0100
0010
0100
1000
0001
0100
0001
0010
,  // measure 53
0100
0000
1000
0000
0001
1000
0001
0000
1000
0000
0100
0000
1000
0001
1000
0000
,  // measure 54
0100
0000
1000
0000
0001
1000
0001
0000
1000
0000
0100
0000
1000
0001
1000
0000
,  // measure 55
0010
1000
0010
0000
0100
0000
0001
0000
0010
0100
0010
0000
0001
0000
1000
0000
,  // measure 56
0010
0100
0010
0000
0100
0000
0010
0000
1000
0010
1000
0000
0010
0000
1000
0000
,  // measure 57
0100
0010
0000
0100
0010
0000
0001
0000
1000
0001
0000
1000
0001
0000
0100
0000
,  // measure 58
0001
1000
0000
0001
1000
0000
0001
0000
0100
0010
0000
0100
0010
0000
1000
0000
,  // measure 59
0010
0000
1000
0010
0000
0100
0001
0000
0001
0010
0000
0100
,  // measure 60
1000
0000
1000
0001
0000
0001
0100
0000
0100
0001
0000
0001
,  // measure 61
0010
0010
0010
0010
0010
0010
0010
0010
,  // measure 62
0010
0010
0010
0010
0010
0010
0010
0010
,  // measure 63
2002
0000
0000
0000
,  // measure 64
3003
0000
0000
0000
0001
0100
0001
0000
0100
0000
0010
0000
1000
0010
1000
0000
,  // measure 65
0001
0000
0010
0000
0100
1000
0100
0000
1000
0000
0001
0000
0010
0001
0010
0000
,  // measure 66
0001
0000
1000
0001
0000
0001
0100
0000
0010
1000
0000
1000
,  // measure 67
0100
0000
0010
0001
0000
0001
1000
0000
1000
0010
0000
0010
,  // measure 68
1000
0000
0000
0000
1000
0000
0100
0000
0000
0100
0000
0000
0100
0000
0000
0100
0000
0000
0100
0000
0000
0100
0000
0000
,  // measure 69
0100
0100
0100
0100
0100
0100
0100
0100
,  // measure 70
0100
0100
2002
0000
0000
0000
0000
0000
,  // measure 71
3003
0000
0000
0000
1000
0000
0001
0000
0000
1000
0000
0000
1001
0000
0000
0000
0000
0000
0000
0000
0000
1001
0000
0000
0000
0000
0000
0000
0000
0000
0000
0000
0000
0000
0000
0000
0110
0000
0000
0000
0000
0000
0000
0000
0000
0000
0000
0000
,  // measure 72
0000
1001
0000
0110
,  // measure 73
0000
1001
0000
0020
,  // measure 74
0000
0000
0000
0000
,  // measure 75
0030
0000
0000
0000
;

//---------------dance-single - ----------------
#NOTES:
     dance-single:
     :
     Medium:
     8:
     0.575,0.621,0.356,0.103,0.005:
0001
0100
0010
0000
0100
0010
1000
0000
,
0010
0100
0001
0000
1000
0000
1001
0000
,
1000
0100
0010
0000
0100
1000
0010
0000
,
0100
0010
1000
0000
0001
0000
0101
0000
,
0001
1000
0100
0000
0010
0100
1000
0000
,
0100
1000
0010
0000
0100
0010
1000
0000
,
0001
1000
0010
0000
0100
0001
0010
0000
,
0100
0010
0001
0000
0001
0010
0100
0000
,
0001
0000
1000
0000
0010
0000
0100
0001
,
0011
0100
0100
0100
,
0001
0000
1000
0000
0010
0000
0100
0010
,
1100
0100
0100
0100
,
1000
0000
0010
0000
0100
0000
0001
1000
,
1010
0000
0010
0000
0100
0000
0001
1000
,
0001
0000
0010
0000
0100
0000
0010
0001
,
1000
0000
0100
0000
0010
0100
1001
0000
,
0001
0101
1000
1100
,
0001
0101
1000
1100
,
0001
0101
1000
1100
,
0001
0101
1000
1100
,
1000
0100
0010
0001
0010
0000
0000
0000
,
0100
0010
0001
1000
0010
0000
0000
0000
,
0100
0010
0100
0000
0010
0100
0010
0000
,
0100
0010
1000
0001
0010
0000
0000
0000
,
0100
0010
0001
1000
,
0010
0000
0100
0001
1000
0000
0000
0000
,
0100
1000
0010
0000
0100
0010
1000
0000
,
0010
0100
0001
1000
0100
0010
0001
0010
,
0100
0020
0000
0030
,
0000
0022
0000
0033
,
1100
0000
1100
0000
,
1100
1100
1100
1100
,
1000
0100
0010
0100
1000
0001
0010
0001
,
1000
0100
1000
0010
0100
0010
1000
0010
,
0001
0000
1000
0010
0010
0000
0100
0010
,
0010
0010
0010
0010
,
0100
0010
1000
0000
0001
0010
0100
0000
,
0010
0001
1000
0000
0001
0100
0010
0000
,
1000
0100
0010
0001
1000
0100
0010
0001
,
0010
0100
0010
0001
0010
0100
1000
0000
,
0001
0100
0010
1000
0010
0010
0100
0000
,
0010
1000
0001
0010
0100
0100
0010
0000
,
0100
0010
0001
1000
0010
0010
0100
0000
,
0001
2000
0020
3030
,
0101
0000
0000
0011
0000
0000
1100
0000
,
0101
0000
0000
1001
0000
0000
1010
0000
,
0011
0000
0000
0110
0000
0000
1001
0000
,
0101
0000
0002
0000
0020
0000
0000
0033
,
0001
0010
0100
1000
0001
0010
0100
1000
,
0001
0010
0100
1000
0001
0010
0100
1000
,
0001
0010
0100
1000
0001
0010
0100
1000
,
0001
0010
0100
1000
0001
0010
0100
1000
,
0001
0010
0100
0000
1000
0001
0010
0000
,
0100
0010
0001
0000
1000
0100
0010
0000
,
0110
0000
0100
1000
0010
0000
0100
0010
,
1000
0000
0001
0010
0100
0000
0010
0001
,
1000
0001
0100
0001
1000
0100
1000
0000
,
0100
1000
0010
0100
0001
0010
0100
0000
,
0010
0001
0100
1000
,
0100
0010
1000
0001
,
0010
0100
0010
0100
0010
0100
0010
0100
,
0010
0100
0010
0100
0010
0100
0010
0100
,
2002
0000
0000
0000
,
3003
0000
0001
0010
0100
0000
0100
1000
,
0010
0000
0100
0010
1000
0000
0001
0010
,
0100
0010
0001
1000
,
0010
0100
0010
1000
,
0001
0000
1000
0100
1000
0100
1000
0100
,
1000
0100
1000
0100
1000
0100
1000
0100
,
1000
0100
0020
0000
0000
0000
0000
0000
,
0000
0000
0000
0031
0000
0000
1000
0000
0000
0000
1001
0000
0000
0000
0000
0000
0000
0000
0101
0000
0000
0000
0000
0000
,
0000
1010
0000
0101
,
0000
0011
0000
0020
,
0000
0000
0000
0030
;

//---------------dance-single - ----------------
#NOTES:
     dance-single:
     :
     Easy:
     5:
     0.388,0.520,0.262,0.187,0.000:
0101
0001
0010
0001
,
1000
0010
1000
0001
,
1001
1000
0100
1000
,
0010
0100
0010
1000
,
1001
0001
0010
0001
,
0010
0100
1000
0100
,
1100
0100
1000
0010
,
0100
0010
1000
0001
,
1000
0000
0000
0000
0000
0000
0001
0100
,
0010
0000
0000
0000
,
0000
0000
0000
0000
0000
0000
0010
1000
,
0100
0000
0000
0000
,
0110
0000
0000
0000
0000
0000
0010
0001
,
1000
0000
0000
0000
,
0101
0000
0000
0000
0000
0000
0001
0100
,
0010
0000
1000
0000
0010
0100
0010
0000
,
1000
0100
1000
0001
,
0100
0001
1000
0100
,
1000
0001
0100
0001
,
1000
0100
1000
0010
,
0200
0000
0300
0000
,
0002
0000
0003
0000
,
2000
3000
0002
0003
,
2000
0000
3000
0000
,
0010
0010
0010
0010
,
0010
0100
0010
0000
,
0110
0000
1001
0000
,
0110
1001
0110
1001
,
0010
2000
0000
3000
,
0000
0002
0000
0003
,
1000
0000
1000
0000
,
1000
1000
1000
1000
,
0001
0100
0010
0100
,
0001
1000
0100
0010
,
0011
0010
0110
0100
,
1100
0011
1100
0011
,
1000
1001
0001
1001
,
1000
1001
0001
1001
,
0001
0001
0001
0001
,
0001
0001
0001
0001
,
0100
0010
1000
0010
,
0001
0010
0100
1000
,
0100
0001
0010
0100
,
1000
0000
0002
0000
0200
0000
0000
0303
,
0001
0000
0000
0001
0000
0000
1000
0000
,
0010
0000
0000
0100
0000
0000
0010
0000
,
1000
0000
0000
0100
0000
0000
0010
0000
,
0001
2000
0020
3030
,
1000
0010
1000
0010
,
0100
0010
0100
0010
,
0100
0001
0100
0001
,
0010
0001
0010
0001
,
0010
0200
1300
0020
,
0130
0002
1003
0200
,
1300
0000
0100
0010
0001
0000
0010
0000
,
0001
0000
0100
0010
1000
0000
0010
0000
,
0100
0001
0010
0001
,
1000
0100
1000
0010
,
0100
0010
1000
0001
,
0010
0100
1000
0100
,
1000
1000
1000
1000
,
1000
1000
1000
1000
,
2002
0000
0000
0000
,
3003
0001
0101
0100
,
0101
0001
0101
0100
,
0101
0001
0010
0001
,
1000
0010
0100
0001
,
1000
0010
0010
0010
,
0010
0010
0010
0010
,
0010
0220
0000
0000
,
0000
0000
0330
0010
,
0000
0100
0000
0001
,
0000
1000
0000
0200
,
0000
0000
0000
0000
,
0300
0000
0000
0000
;

//---------------dance-single - ----------------
#NOTES:
     dance-single:
     :
     Beginner:
     2:
     0.202,0.341,0.159,0.009,0.000:
0001
0000
1000
0000
,
0001
0000
0000
0000
,
0100
0000
0010
0000
,
0100
0000
0000
0000
,
1001
0000
0001
0000
,
1000
0000
0000
0000
,
0110
0000
0100
0000
,
0010
0000
0000
0000
,
1000
0000
0000
0001
,
0001
0000
0000
0000
,
0000
0000
0000
0100
,
0100
0000
0000
0000
,
0000
0000
0000
0010
,
0010
0000
0000
0000
,
0000
0000
0000
1000
,
1000
0000
0000
0000
,
0100
0000
0100
0000
,
1000
0000
0000
0000
,
0001
0000
0100
0000
,
0010
0000
0000
0000
,
0100
0000
0010
0000
,
0100
0000
0010
0000
,
0100
0000
0100
0000
,
0100
0000
0000
0000
,
0001
0000
1000
0000
,
0001
0000
1000
0000
,
1001
0000
1001
0000
,
0110
0000
0110
0000
,
0100
0020
0000
0030
,
0000
0100
0000
0000
,
0001
0000
1000
0000
,
0010
0010
0100
0100
,
0001
0000
0000
0000
,
1000
0000
0000
0000
,
0100
0000
0010
0000
,
0001
0001
1000
1000
,
0010
0000
0010
0000
,
0010
0000
0010
0000
,
0100
0000
0001
0000
,
1000
0000
0100
0000
,
1000
0000
0000
0000
,
0001
0000
0000
0000
,
0100
0000
0000
0000
,
0010
0000
0000
0000
,
1001
0000
0000
0000
,
0110
0000
0000
0000
,
1001
0000
0000
0000
,
0110
0100
0100
0000
,
0010
0000
0001
0000
,
0100
0000
0010
0000
,
1000
0000
0001
0000
,
0100
0000
0010
0000
,
1000
0000
1000
0000
,
1000
0000
1000
0000
,
1001
0000
1001
0000
,
1001
0000
1001
0000
,
1001
0000
0001
0000
,
0100
0000
0010
0000
,
1000
0000
0010
0000
,
0100
0000
0001
0000
,
1000
1000
1000
1000
,
1000
1000
1000
1000
,
1001
0000
0000
0000
,
0000
0001
0000
0001
,
0000
0100
0000
0010
,
0000
1000
0000
0010
,
0000
0100
0000
0010
,
0000
0100
0100
0100
,
0100
0100
0100
0100
,
0100
1001
0000
0000
,
0000
0010
0000
0100
,
0000
0010
0000
1000
,
0000
0001
0000
1000
;
