#VERSION:0.83;
#TITLE:eastside;
#SUBTITLE:;
#ARTIST:Benny Blanco, Halsey, Khalid;
#TITLETRANSLIT:;
#SUBTITLETRANSLIT:;
#ARTISTTRANSLIT:;
#GENRE:Pop;
#CREDIT:;
#MUSIC:Eastside.ogg;
#BANNER:Eastside.png;
#BACKGROUND:Eastside-bg.png;
#CDTITLE:;
#SAMPLESTART:31.067;
#SAMPLELENGTH:27.500;
#SELECTABLE:YES;
#OFFSET:-0.275;
#BPMS:0.000=90.000;
#STOPS:;
#BGCHANGES:;
#FGCHANGES:;

//--------------- dance-single - PWG ----------------
#NOTEDATA:;
#STEPSTYPE:dance-single;
#DESCRIPTION:PWG;
#DIFFICULTY:Beginner;
#METER:3;
#RADARVALUES:0,0,0,0,0;
#NOTES:
1000
0000
0000
0000
,
0001
0000
0000
0000
,
1000
0000
0000
0000
,
0010
0000
0000
0000
,
0001
0100
0000
0000
,
1000
0010
0000
0000
,
1000
0000
0010
0000
,
0001
0000
0100
0000
,
1000
0000
0001
0000
,
1000
0000
0000
0000
,
0001
0000
0000
0000
,
1000
0100
0010
0000
,
0001
0000
0001
0100
,
0010
0000
0000
0000
,
1000
0000
1000
0000
,
0010
0000
0000
0000
,
0001
0000
0000
0000
,
1000
0000
0010
0000
,
0100
0000
0000
0000
,
0100
0000
0000
0000
,
0001
1000
0100
0010
,
0000
0000
0000
0000
,
0001
1000
0100
0010
,
0000
0000
0000
0000
,
1000
0000
0001
0000
,
0001
0100
0010
0000
,
0010
0000
1000
0000
,
0100
0000
0100
0000
,
0001
0000
0000
0000
,
1000
0000
0000
0000
,
0000
1001
0000
0000
0000
0000
0000
0000
,
1000
0000
0000
0000
,
1010
0000
0000
0000
,
0101
0000
0000
0000
,
1000
0100
0010
0001
,
1000
0000
0000
0000
,
1000
1000
0000
0000
,
0001
0001
0000
0000
,
0100
0100
0001
0000
,
0100
0100
1000
0000
,
0010
0000
0100
0000
,
1000
0000
0001
0000
,
0010
0000
0000
0000
,
0100
0000
0000
0000
,
1000
0000
0010
0000
,
0001
0000
0100
0000
,
1000
1000
0000
0000
,
0001
0001
0000
0000
,
1000
0000
0100
0000
,
0001
0000
0010
0000
,
1000
0100
1000
0000
,
0001
0001
0000
0000
1000
0000
0000
0000
,
1000
0000
0000
0000
1000
0100
1000
0000
,
0001
0000
0000
0000
0001
0010
0001
0000
,
1000
0000
0000
0000
,
0001
0000
0000
0000
,
1000
0000
0000
0000
,
0001
0000
0000
0000
,
0110
0000
0000
0000
,
1001
0000
0000
0000
,
1000
0000
0000
0000
,
0001
0000
1000
0100
,
0010
0001
0010
0100
,
1000
0000
0000
0000
;

//--------------- dance-single - PWG ----------------
#NOTEDATA:;
#STEPSTYPE:dance-single;
#DESCRIPTION:PWG;
#DIFFICULTY:Easy;
#METER:5;
#RADARVALUES:0,0,0,0,0;
#NOTES:
1000
0000
0001
0000
,
0100
0000
0010
0000
,
1000
0000
0010
0001
,
0001
0000
0100
1000
,
0000
1000
0000
0001
,
0000
1000
0100
1000
,
0000
0001
0000
0010
,
0000
0001
0010
0001
,
0000
0000
1000
0100
0010
0000
0001
0000
,
0000
0000
0001
0010
0100
0000
1000
0000
,
0000
1000
0000
0001
,
1000
0000
0100
0000
1000
0000
0001
0010
,
0001
0000
1000
0001
,
1000
0000
1000
0100
,
0010
0000
0001
0000
0010
0000
0001
0010
,
0100
0000
1000
1000
,
0020
0000
0031
1000
,
0100
0100
0100
0010
,
1000
0100
0001
0100
,
0001
0000
1000
0100
1000
0000
1000
0000
,
0000
1000
1000
0000
0000
0001
0001
0000
,
0000
1000
0100
0010
0001
0000
1000
0000
,
0000
1000
0100
1000
,
0000
0001
0010
0001
,
1000
0100
0010
1000
,
0001
0010
0001
0000
,
1000
0000
0100
0000
,
0001
0010
0100
0000
0001
0000
0100
0000
,
1000
0000
0010
0000
,
0001
0000
0100
0000
,
0000
1000
1000
0000
0001
0000
0000
0000
,
1000
0000
0010
0000
,
1000
0000
0100
0000
0010
0100
0010
0000
,
0001
0000
0010
0000
0100
0010
0100
0000
,
1000
0000
0010
0000
,
0001
0000
0100
0000
1000
0000
0001
0010
,
0100
0000
1000
0000
0100
0010
0100
0000
,
0001
0000
1000
0000
0010
0100
1000
0000
,
0001
0100
0010
1000
,
0001
0000
0001
0100
,
0010
0000
0000
0010
1000
0000
1000
0010
,
0100
0001
0010
0100
1000
0000
1000
0100
,
0010
0001
0010
0100
,
1000
0000
0100
0000
1000
0000
0100
0010
,
0000
0000
0100
0000
0100
0000
0010
0100
,
0010
0000
0010
0000
0010
0000
0010
0100
,
0010
1000
0001
1000
,
0000
1000
0100
1000
0100
1000
0100
1000
,
0100
0000
0001
0000
0100
0100
0001
0000
,
0100
1000
0110
0000
0010
0001
0110
0000
,
1000
1010
0010
0101
,
0010
0000
1000
0000
,
1000
1000
0001
0001
,
1000
0000
0001
0000
,
1000
1000
0001
0001
,
1000
0000
0001
0000
,
1000
1000
0000
0000
0000
0000
0000
0000
,
0001
0001
0000
0000
0000
0000
0000
0000
,
1000
0000
0000
0000
,
0001
0000
0000
0000
,
1010
0000
0000
0000
,
0101
0000
0000
0000
,
1001
0000
0000
1000
,
0001
0000
0000
0000
;

//--------------- dance-single - PWG ----------------
#NOTEDATA:;
#STEPSTYPE:dance-single;
#DESCRIPTION:PWG;
#DIFFICULTY:Medium;
#METER:8;
#RADARVALUES:0,0,0,0,0;
#NOTES:
1000
0000
0100
0010
,
0001
0000
0001
0010
,
0100
0000
1000
0010
,
0100
0000
0100
0001
,
0000
1000
0100
0000
0000
0100
0010
0000
,
0000
0010
0001
0000
0000
0001
0100
0000
,
0000
1000
0010
0000
0000
0001
0001
1000
,
1001
0000
1100
0011
,
1000
0100
1000
0100
1000
0100
1000
0100
,
0010
0001
0010
0100
1000
0100
0010
0001
,
0100
0010
1000
0001
0010
1000
0100
0010
,
0100
0010
0001
0100
0010
1000
0100
0000
,
0100
0010
0000
0000
0010
0010
0010
0100
,
1000
0000
0000
0000
0000
0001
0010
0100
,
1000
0000
0100
0000
0010
0000
0001
0000
0010
0000
0100
0000
0001
0010
0001
0010
,
0001
0000
0000
0000
0000
1000
0100
0010
,
0002
0000
0000
0000
0000
0000
1000
0103
0000
0000
0000
0000
0100
0010
0100
0000
,
1000
1000
0100
0010
0001
0100
0100
0001
,
0001
0000
0010
1000
0010
0000
0100
0001
,
0100
0000
0010
1000
0100
0010
0001
0010
,
0100
1000
0100
0100
1000
1100
0010
0100
,
0010
0000
0010
0000
0001
0100
0010
1000
,
0000
0001
0010
0000
0001
0100
0010
1000
,
1000
0000
1000
0000
1000
0010
0100
0000
,
0001
0000
1000
0100
0000
0100
1000
0010
,
0001
0100
0001
1000
0010
0100
0010
1000
,
0001
0000
1000
0100
1000
0000
1000
0100
1000
0000
1000
0010
1000
0000
1000
0000
,
0220
0000
0000
0000
0000
0000
0000
0000
0331
0000
0010
0100
0000
0000
0000
0000
,
0000
1000
1000
0000
0000
0100
0010
0001
,
0000
0010
0000
1000
0000
0100
0010
0001
,
0000
0000
1000
0000
1000
0000
0001
0100
,
0010
0000
0001
0001
1000
0010
0100
0000
,
0010
0100
0010
0000
1000
0100
1000
0000
,
0001
0010
0001
0010
0001
0000
0100
0000
0010
0000
0000
0000
1000
0000
0000
0000
,
1000
0010
0100
0001
0000
0010
0100
0001
,
1000
0000
0010
0000
0100
0000
0001
0000
1000
0000
0010
0000
1000
0100
1000
0000
,
0100
0000
0010
0000
0001
0000
0000
0000
0001
0000
0010
0000
0100
0010
0100
0000
,
0010
0000
0000
0000
0000
1000
0001
0010
,
0010
0000
0100
0010
0100
0000
1000
0000
0001
0000
1000
0100
1000
0000
0010
0000
,
0100
0000
0000
0000
0001
0010
0100
1000
,
0220
0000
0000
0000
0000
0330
1000
0010
0000
0000
0000
0000
0001
0000
0010
0000
,
0100
0010
1000
0010
0100
0001
0010
0100
,
0010
0000
0100
0010
1000
0000
0010
0001
,
0010
0000
1000
0100
0010
0001
0010
0100
,
0000
1000
0100
1000
0100
0010
0001
0010
,
0001
0001
0010
0100
0010
0100
1000
0001
,
0100
0000
0100
0010
1000
0100
0010
1000
,
0100
0000
0010
0001
0010
0100
0010
0100
,
1000
0000
1000
0100
0000
1000
0100
0010
,
0000
0001
0010
0001
0010
0100
0010
1000
,
0100
0000
0010
0000
0001
0000
0001
0010
0001
0000
1000
0100
1000
0000
1000
0100
,
1000
0000
0001
0000
0000
0000
0010
0000
0000
0000
0100
0000
1000
0000
0100
0010
,
0001
0110
0000
0110
0000
1001
0000
1001
,
0000
1000
0100
0010
0001
1000
0000
0000
,
0000
1000
0100
0010
0100
0010
0001
0010
,
0000
1000
0100
0010
0100
1000
0001
0001
,
0001
0010
1000
0000
0000
0000
0000
0000
0010
0000
0000
0000
0100
0000
0000
0000
,
0001
0000
0001
0010
,
1000
0000
1000
0100
,
0010
0000
0001
0100
,
0010
0000
0010
1000
,
0100
0000
0100
0001
,
0010
0000
0000
0000
1000
0000
1000
0100
,
0010
0000
0000
0000
;

//--------------- dance-single - ----------------
#NOTEDATA:;
#STEPSTYPE:dance-single;
#DESCRIPTION:;
#DIFFICULTY:Hard;
#METER:11;
#RADARVALUES:0.453418,0.567045,0.523238,0.080498,0.293243,552,461,91,14,0,0,0.453418,0.567045,0.523238,0.080498,0.293243,552,461,91,14,0,0;
#NOTES:
2000
0000
0010
3001
,
0200
0000
0000
0000
1000
0300
0100
0000
,
0020
0000
0031
0010
,
0200
0000
0000
0300
0100
0000
0110
0000
,
0000
1000
0100
1000
0100
0000
0000
0000
0000
0100
0001
0100
0001
0000
0001
0001
,
0000
0010
0010
0000
0010
0000
0100
0000
0100
0010
0100
0010
0000
0000
0000
0000
,
0000
0001
1000
0001
1000
0000
0000
0000
0001
0010
0100
1000
0000
0000
1000
0000
,
0100
1000
0100
0001
0010
0001
0010
0000
,
1000
0000
0000
1001
0000
0000
0001
0000
0100
0000
0000
0110
0000
0000
0010
0000
,
1000
0000
0000
1010
0000
0000
0010
0000
0001
0000
0000
0101
0000
0000
0100
0000
,
0000
1000
0100
0000
0100
0000
0000
0000
0000
0001
0010
0000
0100
0000
0010
0000
,
0100
0000
1000
0000
0001
1000
0000
0000
0001
0010
0001
0010
0100
1000
0100
0010
,
1001
0000
1001
0000
0000
0000
1000
0000
1000
0000
0001
0000
0001
0000
1000
0100
,
1000
0000
0000
0000
0000
1000
0001
1000
,
0001
0000
0110
0000
0100
0000
1000
0100
1000
0000
0001
0010
0001
0000
0100
0000
,
0011
0000
0000
0000
1000
0100
0010
0001
,
2000
0000
0000
0000
3000
0000
1000
0100
0000
0000
0000
0000
1000
0001
1000
0000
,
1000
0001
0000
0001
0000
0010
0000
0010
0000
0010
0000
0001
0000
0010
0000
0100
,
1000
0000
0100
0100
0010
0000
0010
0010
,
0100
0000
0000
0000
0100
0000
0110
0000
0001
0000
1000
0000
0000
0000
1000
0001
,
0000
1000
1000
0010
1000
0100
0001
0010
,
1000
0100
0010
1000
0001
0010
1000
0010
,
0100
1000
0100
0100
0010
0001
0010
0100
,
1000
0100
0100
0010
0010
1000
0100
0001
,
0010
0000
1000
1000
0000
0001
0001
1000
,
0100
0010
0001
0010
0100
1000
0010
1000
,
0100
0001
0100
0000
0001
0100
0001
0000
0010
0000
1000
0000
0100
0000
0010
0000
,
0001
0020
0000
0000
0000
0000
0000
0000
0100
0000
0130
0000
1010
0000
0000
0000
,
0100
1000
0001
0000
0001
1000
0000
1000
,
0010
0001
0010
0100
0000
0001
1000
0000
,
0000
0000
1000
0100
1000
0000
1000
0000
1000
0000
0000
0000
2000
0000
0100
0000
,
0010
3001
0002
0010
0100
1003
1001
1001
,
0000
0000
1000
0000
0000
0000
0001
0010
0001
0000
1000
0100
1000
0000
0010
0100
,
0010
0100
0010
0100
0010
0100
0010
0000
,
1001
0000
1000
0100
1000
0000
0011
0010
,
0110
0100
1100
0100
0110
1000
0001
1000
,
0001
0000
1001
0000
0000
0000
0100
0010
0100
0010
0100
0010
0100
0010
0100
0000
,
0010
0000
0000
0000
0000
1000
1000
1000
,
0001
1000
0000
1001
0110
0110
0000
0110
,
0110
0000
0000
0000
0000
0000
0000
0100
1000
0100
0010
0001
0010
0100
1000
0100
,
0020
0000
0000
0000
0000
0000
1030
0100
0000
0000
0000
0000
1000
0100
1000
0000
,
0001
0010
0000
0001
0000
0001
0000
0010
0000
0010
0000
0001
0000
0001
0000
0010
,
0001
0000
0010
1000
0100
0000
0001
1000
,
0001
0000
0000
0000
0001
0000
1000
0000
0001
0000
1000
0000
0001
0100
0000
0000
,
0001
0000
1000
0000
0100
0000
1000
0100
0110
0000
0100
0000
1001
0000
0000
0000
,
0001
0000
0100
0000
0001
0000
0000
0000
1000
0000
0100
0000
1000
0000
1000
0100
,
1100
0000
0000
0110
0000
0000
0010
0100
0011
0000
0000
1100
0000
0000
0000
0000
,
1000
0001
1000
0110
0001
0110
1000
0001
,
1001
0000
1001
0000
1000
0100
1000
0000
0001
0010
0001
0000
1000
0010
0001
0100
,
0010
0001
1000
0010
0001
0010
0100
0010
,
1000
0100
1000
0100
0010
0001
0010
0001
0010
0001
0010
0001
1000
0100
1000
0000
,
2002
0000
0000
0000
0000
0000
0000
3003
0100
0010
0100
0010
0000
0000
0000
0000
,
0010
1000
0100
0100
0010
0010
0100
1000
,
1000
0000
0100
0000
0010
0000
0110
0000
2000
0000
0000
0000
0000
0000
0000
3000
,
0010
0100
1000
0100
0010
0001
0010
0100
,
1000
0000
0100
0000
0110
0000
0000
0000
0000
0100
1000
0100
1000
0100
1000
0100
,
0010
0100
0000
0000
1100
0000
0011
0000
,
2002
0000
0000
3003
1010
0000
0110
0000
,
2002
0000
0000
3003
0110
0000
0011
0000
,
2200
0000
0000
0000
0000
0000
0000
3300
0000
1000
0100
1000
0100
1000
0100
0010
,
0001
0010
0000
0000
0000
0000
0000
0000
,
1001
0000
0000
0000
,
0110
0000
0000
0000
0000
0000
1100
0110
,
0011
0000
0000
0000
;
