#TITLE:Xenna;
#SUBTITLE:;
#ARTIST:kors k;
#TITLETRANSLIT:;
#SUBTITLETRANSLIT:;
#ARTISTTRANSLIT:;
#GENRE:;
#CREDIT:PWG;
#MUSIC:Xenna.ogg;
#BANNER:Xenna.png;
#BACKGROUND:Xenna-bg.png;
#CDTITLE:;
#SAMPLESTART:0.000;
#SAMPLELENGTH:0.000;
#SELECTABLE:YES;
#OFFSET:-0.097;
#BPMS:0.000=175.000;
#STOPS:;
#BGCHANGES:;
#FGCHANGES:;

//--------------- dance-single - ----------------
#NOTES:
     dance-single:
     :
     Beginner:
     6:
     0,0,0,0,0:
0000
0000
0000
0000
,
1000
0000
0000
0000
,
0000
0000
0000
0000
,
0001
0000
0000
0000
,
1000
0100
0010
0001
,
1000
0000
0000
0000
,
0000
0000
0000
0000
,
0001
0000
0000
0000
,
0000
0000
0000
0000
,
1000
0000
0010
0000
,
0001
0000
0100
0000
,
1000
0000
0000
0000
,
0001
0000
0000
0000
,
1000
0000
0000
0000
,
0010
0000
0000
0000
,
0010
0000
0000
0000
,
0001
0000
0000
0000
,
0001
0000
0100
0000
,
1000
0000
0010
0000
,
1000
0000
0000
0000
,
0010
0000
0000
0000
,
0100
0000
0010
0000
,
0100
0000
0010
0000
,
0001
0000
0000
0000
,
0010
0000
0100
0000
,
1000
0000
0000
0000
,
0001
0000
0000
0000
,
1000
0000
0010
0000
,
0100
0000
0010
0000
,
0100
0000
0000
0000
,
0010
0000
0000
0000
,
1000
0000
0010
0000
,
0010
0000
0000
0000
,
0001
0000
0010
0000
,
1000
0100
1000
0000
,
0100
0000
0010
0000
,
0001
0010
0001
0000
,
1000
0000
1000
0000
,
0001
0000
0001
0000
,
1000
0000
0000
0000
,
0010
0000
0000
0000
,
0001
0000
0000
0000
,
0010
0000
0000
0000
,
1001
0000
0000
0000
,
0010
0000
0100
0000
,
1000
0000
0000
0000
,
0010
0000
0000
0000
,
0001
0000
0100
0000
,
0010
0000
0100
0000
,
1000
0000
0000
0000
,
0001
0000
0000
0000
,
0100
0000
0010
0000
,
0100
0000
0001
0000
,
1000
0000
0000
0000
,
1000
0000
0000
0000
,
0001
0000
0000
0000
,
0010
0000
0100
0000
,
1000
0000
0000
0000
,
0010
0000
0000
0000
,
0001
0000
0000
0000
,
0010
0000
0000
0000
,
1000
0000
0100
0000
,
0010
0000
0001
0000
,
0001
0010
1000
0100
,
0010
0000
0100
0000
,
0001
0010
0001
0010
,
1000
0100
1000
0100
,
1000
0000
0001
0000
,
1000
0000
0001
0000
,
0100
0000
0100
0000
,
0001
0000
0000
0000
,
0100
0000
0100
0000
,
1000
0000
0000
0000
,
0010
0000
0010
0000
,
0001
0000
0000
0000
,
0010
0000
0010
0000
,
1000
0000
0000
0000
,
1000
0000
0000
0000
,
0100
0000
0000
0000
,
0010
0000
0000
0000
,
0001
0000
0000
0000
,
1000
0000
0010
0000
,
0001
0000
0100
0000
,
1000
0010
0001
0100
,
0010
0000
1000
0000
,
1000
0000
0000
0000
,
0010
0000
0000
0000
,
0001
0010
0100
0001
,
1000
0000
0010
0000
,
0100
0000
0000
0000
,
0010
0000
0000
0000
,
1000
0000
0000
0000
,
0010
0000
0000
0000
,
0001
0000
0000
0000
,
0100
0000
0000
0000
,
1000
0000
1000
0000
,
0001
0000
0001
0000
,
1000
0000
0000
0000
,
0000
0000
0000
0000
,
0010
0000
0000
0000
,
0001
0000
0010
0000
,
0100
0000
0000
0000
,
0000
0000
0000
0000
,
1000
0000
0000
0000
,
0000
0000
0010
0000
,
0010
0000
0000
0000
,
0000
0000
1000
0000
,
0001
0000
0000
0000
,
0000
0000
0100
0000
,
0100
0000
0000
0000
,
0000
0000
1000
0000
,
0001
0000
0000
0000
,
0001
0000
0010
0000
,
0100
0000
0000
0000
,
0000
0000
0000
0000
,
0010
0000
0000
0000
,
0000
0000
0000
0000
,
1000
0000
0000
0000
,
0100
0000
0000
0000
,
0010
0000
0000
0000
,
0010
0000
0001
0000
,
0001
0000
0000
0000
,
1000
0000
0000
0000
,
1000
0000
0000
0000
,
0010
0000
0000
0000
,
0010
0000
0000
0000
,
0100
0000
0000
0000
,
1001
0000
0000
0000
,
0000
0000
0000
0000
,
0001
0000
0000
0000
,
0100
0000
0000
0000
,
1000
0000
0000
0000
,
0010
0000
0000
0000
,
1000
0000
0100
0000
,
0001
0000
0010
0000
,
1000
0100
0010
0001
,
1001
0000
0000
0000
,
1000
0000
0100
0000
,
0001
0010
0001
0000
,
0001
0000
0100
0000
,
1000
0100
1000
0000
,
0010
0000
0010
0000
,
0100
0000
0100
0000
,
0001
0000
0000
0000
,
1000
0000
0000
0000
,
1000
0000
0100
0000
,
0010
0000
0001
0000
,
0001
0000
0100
0000
,
1000
0000
0010
0000
,
0001
0000
0000
0000
,
1000
0000
0000
0000
,
1001
0000
0000
0000
,
0110
0000
0000
0000
,
1000
0000
0000
0000
,
0100
0000
0000
0000
,
0001
0000
0000
0000
,
0010
0000
0000
0000
,
1000
0000
1000
0000
,
0001
0000
0001
0000
,
0110
0000
0000
0000
,
1001
0000
0000
0000
,
1000
0000
0000
0000
,
0100
0000
0000
0000
,
0010
0000
0000
0000
,
0001
0000
0000
0000
,
0001
0000
0010
0000
,
0100
0000
1000
0000
,
1000
0000
0001
0000
,
1001
0000
0000
0000
,
1000
0000
0000
0000
,
0010
0000
0010
0000
,
0100
0000
0000
0000
,
0100
0000
0100
0000
,
0001
0000
0000
0000
,
0001
0000
1000
0000
,
0010
0000
0000
0000
,
0100
0000
0001
0000
,
1000
0000
0000
0000
,
1000
0000
1000
0000
,
0001
0000
0000
0000
,
0001
0000
0001
0000
,
0100
0000
0010
0000
,
1000
0000
0010
0000
,
0001
0000
0010
0000
,
1001
0000
0000
0000
,
1000
0000
0000
0000
,
0010
0000
0001
0000
,
0100
0000
0000
0000
,
1000
0000
0100
0000
,
0001
0000
0000
0000
,
0001
0000
0010
0000
,
1000
0000
0000
0000
,
1000
0000
0001
0000
,
1001
0000
0000
0000
,
1000
0000
0000
0000
,
0001
0000
0000
0000
,
0110
0000
0000
0000
,
1001
0000
1000
0000
,
0100
0000
0010
0000
,
0001
0000
0000
0000
;

//--------------- dance-single - ----------------
#NOTES:
     dance-single:
     :
     Easy:
     9:
     0,0,0,0,0:
0000
0000
0000
0000
,
1000
0000
0000
0000
,
0001
0000
0000
0000
,
1000
0000
0000
0000
,
0001
0000
0000
0000
,
1000
0000
0000
0000
,
0100
0000
0000
0000
,
0010
0000
0000
0000
,
0001
0000
0000
0000
,
1000
0000
0100
0000
,
1000
0000
0100
0000
,
0001
0000
0100
0000
,
0001
0000
0100
0000
,
1000
0000
0010
0000
,
1000
0000
0010
0000
,
0001
0000
0010
0000
,
0001
0000
0010
0000
,
1001
0000
0010
0000
,
0001
0000
1000
0000
,
1010
0000
0001
0000
,
0100
0000
0010
0000
,
1000
0100
0010
0001
,
1000
0100
0001
0010
,
1000
0100
1000
0100
,
0001
0010
0001
0010
,
1000
1000
0001
0001
,
1000
0100
0010
0001
,
1000
0000
1000
0000
,
0001
0000
0001
0010
0001
0000
0000
0000
,
0010
0000
0001
0000
,
1000
0000
0010
0000
,
0001
0010
0100
1000
,
1000
0000
0000
0000
,
1000
0000
0001
0000
,
0010
1000
0010
0000
0010
0000
0000
0000
,
0001
0000
0100
0000
,
0100
0010
0100
0000
0100
0000
0000
0000
,
1000
0000
0010
0000
,
0001
0000
0100
0000
,
0010
1000
0001
0100
,
0010
1000
0001
0000
,
0010
0000
1000
0100
1000
0000
0001
0100
,
0010
0000
0010
1000
,
0010
0000
0000
0000
0001
0000
0010
0100
,
0001
1000
0010
1000
,
0001
0001
1000
1000
,
0001
0001
1000
1000
,
0010
0100
0001
1000
,
1010
0000
0011
0000
,
1000
1000
0001
0001
,
0010
0100
0001
1000
0010
0000
1000
0000
,
0100
0000
0010
0000
1000
0001
0100
0000
,
0010
1000
0001
1000
,
0100
1000
0001
0010
,
0001
0100
0010
1000
,
0001
1000
0010
0100
0001
0000
0100
0000
,
0010
1000
0001
1000
,
0100
1000
0010
0001
,
0010
0001
0100
0010
,
0100
0001
1000
0010
,
0100
0001
1000
0010
,
1000
0100
0010
0001
1000
0100
0010
0001
,
1000
0100
0010
0001
1000
0100
0010
0001
,
1000
1000
0001
0001
,
1010
0000
0101
0000
,
1000
0100
0001
0100
,
1000
0100
0010
1000
,
0010
1000
0001
0100
,
0010
0100
1001
1001
,
0010
1000
0001
0100
,
0001
0100
0010
1000
,
0001
0100
0010
1000
,
1000
0000
0001
0000
,
0001
0000
0000
0000
0001
1000
0001
0000
,
1000
0000
0000
0000
1000
0001
1000
0000
,
1000
0000
0010
0000
,
1000
0000
0001
0000
,
0100
0000
0010
0000
,
0100
0000
0010
0000
,
1000
0000
0001
0000
,
0010
0000
0000
0000
,
1000
0000
0010
1000
0010
0000
0001
0000
,
0100
0000
0001
0100
0001
0000
1000
0000
,
0010
0001
0100
0001
,
1000
0010
0100
0010
,
0001
0001
1000
1000
,
0010
0000
0001
0100
,
1000
0000
1000
0000
,
0010
0000
0000
0000
0001
0000
1000
0010
,
1000
0000
0001
0000
0001
0000
0001
0100
,
0001
1000
1000
1000
,
0010
0001
1000
0010
,
1000
0100
0001
0100
,
0010
0010
0100
0100
,
0001
0001
1000
1000
,
0010
1000
0001
0000
0001
0100
0010
0000
,
1000
0000
0000
0000
,
0001
0000
0000
0000
,
0001
0000
0010
0000
,
1000
0000
0000
0000
,
1000
0000
0010
0000
,
0100
0000
0000
0000
,
0001
0000
1000
0000
,
0010
0000
0000
0000
,
0010
0000
0000
0000
,
1000
0000
0000
0000
,
0100
0000
0000
0000
,
0010
0000
0000
0000
,
0001
0000
0000
0000
,
0001
0000
0010
0000
,
0100
0000
0010
0000
,
1000
0000
0001
0000
,
0100
0000
0000
0000
,
1000
0000
1000
0000
,
0001
0000
0001
0000
,
0100
0000
0010
0000
,
1000
0000
0001
0000
,
0010
0000
0001
0000
,
1000
0000
0010
0000
,
0100
0000
0010
0000
,
1000
0000
0001
0000
,
1000
0000
1000
0100
,
1000
0000
1000
0000
,
0010
0000
0001
0010
,
0001
0000
0010
0000
,
1000
0000
0100
0000
,
0010
0000
0001
0000
,
1000
0000
0010
0000
,
0100
0000
0001
0000
,
1000
0000
0000
0000
,
0010
0000
0000
0000
,
0001
0000
0000
0000
,
0100
0000
0000
0000
,
1010
0000
0101
0000
,
1010
0000
0101
0000
,
0011
0000
1100
0000
,
0010
0000
0000
0000
,
1000
0100
1000
0000
0001
0010
0001
0000
,
1000
0010
0100
0001
1000
0000
0010
0000
,
1000
1000
0001
0001
,
0100
0000
0010
0000
,
0001
1000
0010
0100
,
0001
0100
0010
1000
,
0001
0001
1000
1000
,
0010
0000
0001
0000
,
0100
0000
0000
0000
,
0010
0000
0000
0000
,
1000
0000
0000
0000
,
0001
0000
0000
0000
,
1000
0000
0100
0000
,
0010
0000
0001
0000
,
1000
0000
0100
0000
,
0010
0000
0100
0000
,
0001
0000
1000
0000
,
0010
0000
0100
0000
,
0001
0010
0100
1000
,
0100
0010
0001
0000
,
1000
0000
0100
0000
,
0001
0010
0001
0000
,
1000
0000
1000
0000
,
0001
0000
0001
0000
,
1000
0000
1000
0000
,
0001
0000
0001
0000
,
1010
0000
1010
0000
,
0011
0000
0011
0000
,
1000
0000
1000
0000
,
0001
0000
0001
0000
,
1000
0100
0010
0001
,
1001
0000
0000
0000
,
1000
0000
0000
0000
1000
0100
1000
0000
,
0001
0000
0000
0000
0001
0010
0001
0000
,
1000
0000
0100
0000
,
0010
0000
0001
0000
,
1000
0000
0000
0000
1000
0000
1000
0010
,
1000
0000
1000
0000
,
0001
0000
0000
0000
0001
0000
0001
0010
,
0001
0000
0001
0000
,
1000
0000
0010
0000
,
0001
0000
0100
0000
,
0001
0000
1000
0000
,
0010
0000
0100
0000
,
0001
0000
1000
0000
,
0010
0000
0100
0000
,
0001
1000
0010
0100
,
1001
0000
1010
0000
,
0011
0000
0000
0000
,
0000
0000
0000
0000
,
0011
0000
0000
0000
,
0000
0000
0000
0000
,
1010
0000
1001
0000
,
0101
0000
1100
0000
,
1010
0000
0101
0000
,
0011
0000
1010
0000
,
0010
0000
0000
0000
,
0100
0000
0000
0000
,
1000
0000
0000
0000
,
0001
0000
0000
0000
,
0100
0000
0100
0000
,
0010
0000
0010
0000
,
1001
0000
0000
0000
;

//--------------- dance-single - PWG ----------------
#NOTES:
     dance-single:
     PWG:
     Medium:
     14:
     0,0,0,0,0:
0000
0000
0000
0000
,
1001
0000
0000
0000
,
0010
0000
0100
0000
,
1001
0000
0000
0000
,
0100
0000
0010
0000
,
1100
0000
0000
0000
,
0011
0000
0010
1000
,
0001
0000
0001
0100
,
0010
1000
0001
1000
,
0010
0010
0010
0100
,
0100
0001
1000
0010
,
0100
1000
0010
0100
,
0100
0100
0010
0010
,
1000
0000
0001
0100
,
0010
0000
1000
0010
,
0100
0000
0001
1000
,
0010
0100
0010
0010
,
1000
0100
1000
0000
1000
0100
1000
0000
,
0001
0010
0001
0000
0001
0010
0001
0000
,
0001
0100
0010
0000
0010
1000
0001
0000
,
0010
0100
0001
0000
1000
0100
1000
0000
,
0010
0000
0001
0000
0010
1000
0001
0000
,
0100
0010
0100
0001
1000
0000
0100
0000
,
0010
1000
0001
0100
,
0010
0001
0010
0001
,
1100
0010
0010
0010
,
0011
0100
0100
0100
,
0101
0010
1000
0100
,
1010
0001
0100
0010
,
1000
0010
0001
0100
,
0001
0100
0010
1000
,
1000
0100
1000
0000
0010
0100
0010
0000
,
0100
0001
0010
0010
1000
0001
1000
0000
,
0010
0001
0010
0100
,
0010
1000
0100
0000
0010
0000
0100
0000
,
0001
0010
0001
1000
,
0010
0100
0001
1000
0010
0000
0100
0000
,
0010
0000
0100
0000
0001
1000
0010
0000
,
0100
1000
0100
1000
0010
0000
0001
0000
,
0010
0010
0100
0100
,
0001
1000
0010
0010
,
0001
0100
0010
0000
,
0010
0000
1000
0010
,
1000
0100
1000
0000
1000
0000
0000
0000
,
0001
0010
0001
0000
0001
0000
0001
0000
,
1000
0010
1000
0000
,
0001
0100
0001
0000
,
0100
1000
1000
0100
,
0100
0001
0001
0010
,
1010
0100
0100
0100
,
0011
0010
0010
0010
,
1000
0001
0100
0010
,
1000
0010
0001
0100
,
0010
1000
0010
0000
0001
0000
0100
0000
,
0001
0100
0001
0000
0010
0000
0010
0000
,
1000
0000
0001
0000
0100
1000
0010
1000
,
0001
0100
0010
0001
,
1000
0010
1000
0010
,
0001
1000
0001
0100
,
0010
0100
0010
0000
0100
0010
0100
0000
,
0010
0100
0010
0000
0100
0010
0100
0000
,
1000
0010
0100
0000
0001
0010
0010
0000
,
0100
0001
1000
0000
0010
1000
0001
0000
,
0100
0010
0100
0001
1000
0010
1000
0001
,
0100
0000
0001
1000
,
0010
0001
1000
0000
,
1000
0010
0100
0000
,
0001
0000
0010
0000
,
0001
1000
0100
0000
,
0100
0000
1000
0000
,
1000
0001
0100
0000
,
0010
0000
0010
0000
,
0100
0001
1000
0010
,
0100
0000
0100
0000
,
0001
0001
1000
1000
,
0010
0000
0100
0000
,
0100
0100
0001
1000
,
0010
0000
0010
0000
,
0001
0000
0100
0000
,
1000
0000
1000
0010
,
0100
0000
0000
0000
,
1001
0010
0100
0001
,
1000
0000
0010
0000
0100
0000
1000
0100
,
1000
0000
0001
0010
0001
0000
0010
0000
,
0100
0000
0001
0000
1000
0000
0010
1000
,
0100
0000
0010
1000
0001
0000
0100
0001
,
0010
0000
0010
0100
0001
1000
0010
0000
,
0001
0000
0100
0000
0010
1000
0001
0000
,
1000
0100
0010
0001
,
0100
0010
1000
0001
,
0001
1000
0010
0100
0001
0000
1000
0000
,
0010
1000
0001
0100
,
0001
0010
0010
0100
0001
0000
1000
0000
,
0010
1000
0001
0100
,
0010
1000
0001
0100
,
1010
0101
1010
0101
,
1010
0000
0001
0100
,
2000
0100
0010
0001
,
3000
0001
0100
0000
,
0002
0000
0000
0000
0000
0000
0000
0000
0000
0000
0000
0000
0000
0000
0000
0000
0010
0000
0000
0000
0000
0000
0000
0000
0000
0000
0000
0000
0000
0000
0000
0000
0100
0000
0000
0000
0000
0000
0000
0000
0000
0000
0000
0000
0000
0000
0000
0000
1000
0000
0000
0000
0000
0000
0000
0000
0000
0000
0000
0000
0000
0003
0000
0000
,
0000
1000
0010
0000
,
0001
0100
0010
1000
,
0000
1000
0010
0100
,
0001
1000
0010
0100
,
0001
0001
1000
1000
,
0010
0000
0001
0000
,
1000
0000
0100
0000
,
0010
0000
1000
0000
,
0001
0000
0010
0000
,
0100
0100
0010
0010
,
1000
1000
0001
0001
,
0100
0010
1000
0001
,
1000
0100
1000
0000
0001
0010
0001
0000
,
0010
0000
0001
0000
0010
0100
0001
0000
,
1001
1010
0101
0110
,
0001
0000
1000
0000
0010
0100
0001
0000
,
1000
0010
0001
0010
,
0100
0001
1000
0010
,
1000
0001
0100
0010
,
1010
0001
0010
0100
,
0101
0010
1000
0001
,
1010
0001
0100
0010
,
0011
0010
1000
0001
,
1100
0001
1000
0010
,
0101
0010
0100
0001
,
1000
0100
1000
0000
0001
0010
0001
0000
,
0100
0010
0100
0000
1001
0000
0010
0000
,
1000
0001
0100
0010
1000
0001
0100
0100
,
1000
0010
0010
0001
0100
0000
0010
0000
,
1000
0000
1000
0000
,
0001
0000
0001
0000
,
0100
0000
0100
0000
,
0010
0000
0010
0000
,
1000
0100
0010
0001
,
0100
0010
0100
0001
,
1000
0010
1000
0100
,
0010
0000
0000
0000
,
1000
0100
0010
0000
0001
0100
0010
0000
,
0001
1000
0010
0001
,
0100
0000
0010
0000
1000
0000
0010
1000
,
0010
0001
0100
0010
,
0001
1000
0010
0100
,
0010
0100
0010
0100
0010
0000
1000
0000
,
0001
0010
1000
0001
,
0100
0000
0001
0100
,
0010
1000
0001
0000
,
0001
0000
0100
0010
1000
0000
0001
0000
,
1000
0000
0000
0000
1000
0000
0010
0100
,
0000
0001
0000
0100
0000
0010
0000
0100
,
0001
0001
1000
1000
,
0010
0100
0001
0100
,
0010
1000
0010
0100
,
1010
0000
0101
0000
,
0010
0000
1000
0001
0100
0000
0010
0000
,
1000
0000
0001
0100
0010
0000
1000
0000
,
0001
0000
0100
0000
0010
0000
1000
0001
,
0100
0010
1000
0000
0001
0000
1000
0000
,
0100
0000
0010
0000
1000
0001
0100
0000
,
0010
1000
0001
0100
,
0010
1000
0001
1000
,
0010
0100
0001
1000
0010
0000
0100
0000
,
0010
1000
0100
1000
,
0010
0001
0010
0001
,
1000
0010
0100
0001
,
0100
0010
1000
0100
,
0010
1000
0001
0100
0010
1000
0001
0100
,
0010
1000
0001
0100
0001
0010
0001
0100
,
0010
1000
0001
1000
0100
0000
0100
0000
,
1000
0000
0000
0000
,
1000
0100
0001
0000
,
0001
1000
0010
0100
,
0010
0100
0001
1000
,
0001
1000
0100
1000
,
0010
0100
0001
0100
,
0010
1000
0001
1000
,
0001
1000
0010
0100
,
0001
0100
0010
1000
,
0001
1000
0100
1000
,
0010
0001
0100
0010
,
1000
0100
1000
0010
0100
0000
0001
0000
,
0100
0001
0010
0001
0100
0000
0010
0000
,
1000
0010
0001
0100
,
1000
0010
1000
0001
,
0100
0010
1000
0001
,
1010
0000
0011
0000
,
0001
0000
0001
0000
,
0001
0000
1000
0000
,
1000
0000
1000
0000
,
1000
0000
0010
0000
,
0001
0000
0100
0000
,
0010
0000
1000
0000
,
0001
0000
0010
0000
,
1000
0000
0010
0000
,
0100
0000
0001
0000
,
1000
0000
0010
0000
,
0100
0000
0010
0000
,
1000
0000
0001
0000
,
1001
0000
0000
0000
,
1010
0000
0000
0000
,
0011
0000
0000
0000
,
0110
0000
0000
0000
;

//--------------- dance-single - PWG ----------------
#NOTES:
     dance-single:
     PWG:
     Hard:
     16:
     0,0,0,0,0:
0000
0000
0000
0000
,
1001
0000
0000
0001
0100
1000
0100
0100
,
0010
0000
0000
1000
0010
0010
0001
0100
,
0010
0000
0000
1000
0010
0001
0100
0001
,
1000
0100
0010
0001
,
0001
0000
0000
0100
0010
1000
0100
0010
,
1000
0000
0000
0010
0100
0100
0010
0001
,
1000
0000
0000
0001
1000
0010
0100
0001
,
1000
0010
0100
0001
,
0100
0000
0010
1000
0001
0000
0110
0000
,
1000
0000
0001
0100
0010
0000
1010
0000
,
0001
0000
0010
1000
0001
0010
0100
0010
,
1010
0101
1100
0011
,
1000
0000
0010
0100
0001
0000
0010
0000
,
1000
0001
0100
0010
0001
1000
0100
0010
,
1000
0100
0001
0010
0100
1000
0100
0000
,
0100
0001
1000
0010
0100
0001
1000
0000
,
0010
1000
0001
0100
0010
1000
0001
0100
,
0010
1000
0001
1000
0010
1000
0001
0100
,
0010
0100
0001
1000
0100
1000
0010
0100
,
0001
0100
0010
1000
0001
0100
0100
1000
,
0001
0100
0010
0100
0001
1000
0010
0100
,
0001
1000
0010
0100
0001
1000
0100
0100
,
0001
1000
0010
0100
0001
1000
0100
0100
,
0001
1000
0010
0001
0010
0100
0010
1000
,
0001
0010
0100
1000
0010
0010
0001
1000
,
0010
1000
0010
0010
0100
1000
0010
0100
,
0001
1000
0010
0100
0001
1000
0010
0100
,
0001
0100
0001
0100
0010
1000
0010
1000
,
0001
1000
0010
0100
0001
1000
0010
0100
,
0001
1000
0010
1000
0001
1000
0010
1000
,
0001
1000
0010
0100
0001
1000
1001
0000
,
1001
1001
1001
0000
,
0001
1000
0010
0000
0001
1000
0010
0000
,
0001
1000
0010
0000
0001
1000
0010
0000
,
1000
0001
0100
0000
1000
0001
0100
0000
,
1000
0001
0100
0000
1000
0001
0100
0000
,
1010
0011
1100
0101
,
1001
1001
0110
0110
,
0001
0000
1000
0010
0100
0000
0001
1000
,
0010
1000
0010
0100
0001
0000
1000
0000
,
1000
0100
0010
0001
1000
0100
1000
0100
,
0001
0010
0100
1000
0001
0010
0001
0010
,
1000
0100
1000
0000
1000
0000
1000
0000
0001
0100
0001
0000
0001
0000
0001
0000
,
1000
0100
0100
0001
0010
0010
1000
0001
,
1010
0000
1000
0010
1000
0010
1000
0010
,
0011
0000
0001
0010
0001
0010
0001
0010
,
1001
0110
1001
0110
,
0101
0011
1010
1100
,
1000
0000
0010
0100
0001
0000
0010
1000
,
0001
0000
0100
0010
1000
0001
0100
0010
,
1000
0000
0010
1000
0100
0000
0100
1000
,
0001
0000
0001
0100
0010
1000
0001
0100
,
0010
0000
0001
1000
0010
0000
0100
0001
,
0100
0000
0010
1000
0001
1000
0010
1000
,
0001
0000
0010
0100
0001
0000
0100
0010
,
0100
0000
0001
1000
0010
0100
0001
0000
,
0010
1000
0001
0100
0010
1000
0001
0100
,
0100
1000
0010
0100
0001
0100
0001
0010
,
0010
1000
0001
0100
0010
1000
0001
0100
,
0010
1000
0001
0100
0010
0100
0001
1000
,
0010
1000
0100
1000
0010
0100
0001
0010
,
0001
0100
0010
1000
0100
1000
0010
1000
,
0001
0100
0010
1000
0001
0100
0010
0000
,
0101
1100
0011
1010
,
1000
0000
0100
0010
1000
0000
0001
0000
,
0100
0000
0010
0100
0001
0000
1000
0000
,
0010
1000
0001
0100
,
0001
0000
0100
0000
0010
1000
0001
0000
,
0010
0000
0100
0001
0100
0000
0010
0000
,
1000
0001
1000
0010
,
0100
0000
0001
1000
0010
0100
0001
0000
,
1000
0010
0100
0001
,
0100
0001
1000
0010
,
1000
0010
0100
0001
,
0100
0010
1000
0001
,
0100
0010
0010
0010
,
1000
0001
0100
0100
,
0001
1000
0100
0010
,
1000
0001
1000
0100
,
0001
1000
0010
0010
,
0001
1000
0010
1000
0001
1000
0010
0000
,
0001
0100
0001
0010
0001
1000
0001
0000
,
0001
1000
0010
0100
0001
1000
0010
0100
,
0001
1000
0010
0100
0001
1000
0010
0000
,
0001
0000
0001
0100
0010
1000
0001
0000
,
0001
0010
0010
0100
0001
1000
0100
0000
,
0100
0000
0100
1000
0010
0100
0001
0000
,
0001
0010
0010
1000
0001
0100
0100
0000
,
0001
0000
0010
0000
0001
1000
0010
0000
,
0001
0000
0001
0100
0010
1000
0100
0000
,
0010
1000
0100
0000
0010
1000
0001
0000
,
0001
0100
0010
0100
0001
1000
0010
0000
,
0001
0000
0010
1000
0001
0000
0010
1000
,
0001
0000
0010
1000
0001
0000
0100
0010
,
0100
0000
0001
0100
0010
0000
1000
0001
,
0100
0010
1000
0001
1000
0000
1001
0000
,
1010
0000
0001
0100
0001
0000
0100
0000
,
0010
1000
0001
0000
,
1010
0000
0010
0100
0001
0000
0100
0000
,
0010
1000
0001
0000
,
1000
0000
0001
0000
,
1000
0010
0100
0001
0100
0000
0010
0000
,
1000
0000
1000
0000
0001
0000
0100
0010
,
0100
0000
0001
0000
1000
0000
0000
1000
,
0000
0010
1000
0001
1000
0000
0010
1000
,
0000
0001
0100
0000
0010
0000
0100
0001
,
0000
0100
0010
1000
0001
0000
0100
0010
,
0000
1000
0001
0000
1000
0000
0000
0000
,
1000
0001
1000
0001
,
1000
0001
1000
0001
,
0100
0010
0100
0010
,
1000
0001
0100
0010
0001
1000
0010
0100
,
1001
1010
0101
0110
,
1001
0110
1001
1010
,
0101
1010
0101
0110
,
0011
1010
1100
0011
,
1000
0000
0001
0010
0001
0010
0001
0000
,
0001
0000
1000
0100
1000
0100
1000
0000
,
0001
0000
1000
0010
0100
0001
1000
0010
,
0100
0010
0100
0001
1000
0001
1000
0000
,
0110
0000
0001
1000
0010
0000
0001
0000
,
0110
0000
0001
1000
0001
0000
1000
0000
,
0110
0000
0010
0100
0010
1000
0001
0000
,
0110
0000
0001
0100
0010
0000
1000
0000
,
0001
0000
0100
0001
1000
0000
1000
0000
,
0010
0100
0001
1000
0010
0100
0001
0100
,
0001
0010
0001
1000
0010
1000
0010
0100
,
0001
0010
0010
1000
1001
0000
1001
0000
,
1000
0100
1000
0100
0001
0100
0001
0100
,
1000
0010
1000
0010
0001
0010
0001
0010
,
1000
1000
0100
0100
0010
0010
0001
0001
,
1000
0100
0100
0010
0011
0000
0110
0000
,
1100
0100
0100
0010
0110
0010
0010
0001
,
0011
1000
1100
0010
0101
0000
1010
0000
,
1001
0000
1001
0000
0001
1000
0010
0100
,
0001
1001
1010
1001
,
0110
0000
0001
1000
0010
0100
0001
0000
,
0010
1000
0001
0100
0010
0000
1001
0000
,
0110
0000
0001
1000
0010
0000
0001
0000
,
0010
1000
0001
0100
0010
0000
0101
0000
,
1100
0001
0001
1000
0001
0000
0010
1000
,
0001
0100
0010
0000
0001
0000
1000
0000
,
0010
0100
0001
1000
0010
0000
0010
0000
,
0010
1000
0010
0100
0001
0000
0100
0000
,
0100
0000
0100
0010
0100
0001
0100
1000
,
0100
0010
0100
0001
0100
1000
0100
0010
,
1000
0100
1000
0010
1000
0001
0100
0010
,
0010
0001
0100
0010
0001
0100
1000
0100
,
0010
1000
0010
0001
0100
1000
0001
0100
,
0100
1000
0001
0100
0010
0100
0010
1000
,
0001
1000
0100
1000
0010
0010
0001
0100
,
0010
1000
0001
0100
0010
1000
0001
1000
,
0110
0000
1001
0000
1000
0100
1000
0000
,
0001
0010
0001
0010
0100
1000
0100
0000
,
0001
0000
1000
0010
0100
0000
0001
0100
,
0010
1000
0100
1000
0010
0100
0001
0100
,
0010
0000
0001
0010
0001
0000
0010
0000
,
1000
0001
0100
0010
1000
0001
0100
0000
,
0010
1000
0001
1000
0100
0100
0010
0100
,
0001
0010
0001
1000
0010
0100
0001
0000
,
1010
0000
0101
0000
0010
1000
0001
0000
,
0011
0000
1010
0000
0001
1000
0010
0000
,
0101
0011
0101
1010
,
0101
0110
1010
1100
,
1000
0010
0001
0100
,
1001
0110
1001
0110
,
0001
1000
0010
0100
0001
1000
0010
0100
,
1001
1010
0011
0110
,
1000
0100
0010
1000
0001
0100
0010
0000
,
0001
0100
0010
0000
0001
0000
1000
0000
,
0010
1000
0100
1000
0010
0100
0001
0000
,
0010
0001
0100
0010
,
1000
0000
0001
1000
0010
0000
0001
0100
,
0010
0000
0001
1000
0010
0100
0001
0000
,
0100
1000
0010
0100
0001
0100
0010
1000
,
0001
0000
0010
1000
0100
0000
0010
0000
,
1000
0001
0100
0010
1000
0001
0100
0010
,
1000
0001
0100
0010
1000
0010
1000
0001
,
0100
0001
0100
0010
1000
0001
0100
0100
,
1000
0010
0100
0001
0010
0001
0010
0010
,
0100
0001
1000
0010
0100
0001
1000
0010
,
0100
0001
1000
0010
1000
0010
0100
0001
,
0100
0001
1010
0000
0101
0000
1010
0000
,
1001
1000
0010
0100
,
1001
0000
0000
0000
,
0000
0000
0000
0000
,
1010
0000
0000
0000
,
0000
0000
0000
0000
,
0101
0000
0000
0000
,
0000
0000
0000
0000
,
1001
0000
0000
0000
,
1000
0100
0010
0001
,
1000
0000
0010
0000
,
0100
0000
0001
0100
,
0010
0000
0001
0000
,
1000
0000
0010
1000
,
0001
0000
0001
0000
,
0010
0000
0001
1000
,
0100
0000
0100
0000
,
0010
0000
0010
0000
,
1001
0000
0000
0000
;
