#TITLE:Who Do You Love;
#SUBTITLE:;
#ARTIST:The Chainsmokers ft. 5SOS;
#TITLETRANSLIT:;
#SUBTITLETRANSLIT:;
#ARTISTTRANSLIT:;
#GENRE:;
#CREDIT:PWG;
#MUSIC:Who Do You Love.ogg;
#BANNER:Who Do You Love-banner.png;
#BACKGROUND:Who Do You Love-bg.png;
#CDTITLE:;
#SAMPLESTART:0.000;
#SAMPLELENGTH:0.000;
#SELECTABLE:YES;
#OFFSET:-0.451;
#BPMS:0.000=140.015;
#STOPS:;
#BGCHANGES:;
#FGCHANGES:;

//--------------- dance-single - PWG ----------------
#NOTES:
     dance-single:
     PWG:
     Beginner:
     4:
     0,0,0,0,0:
0000
0000
0000
0000
,
0000
0000
0000
0000
,
0000
0000
0000
0000
,
0000
0000
0000
0000
,
0100
0000
0000
0000
,
0010
1000
0000
0000
,
0001
0000
0000
0000
,
0100
0001
0000
0000
,
0001
0000
0000
0000
,
0001
0000
0000
0000
,
1000
0000
0000
0000
,
1000
0000
0000
1000
,
0001
0000
0000
0000
,
0100
0000
0000
0100
,
0010
0000
0000
0000
,
0001
0000
0010
0000
,
0001
0000
0000
0000
,
1000
0000
0000
0000
,
0001
0000
0100
0000
,
0010
0000
0001
1000
,
0100
0000
0000
1000
,
0100
0000
0000
0100
,
0010
0000
0000
0010
,
0100
0000
0000
0010
,
0100
0000
0000
0010
,
0100
0000
0100
0000
,
0001
0000
0100
0000
,
0010
0000
0001
1000
,
0100
0010
0001
0000
,
0010
1000
0001
0010
,
0100
0000
0010
0000
,
0001
0000
0100
0000
,
0001
0000
0100
0000
,
0001
0000
0010
0000
,
0001
0000
0000
0000
,
0010
0000
0000
0000
,
0100
0000
1000
0000
,
1000
0000
0001
0000
,
0010
0000
0001
0000
,
0010
0000
0001
0000
,
0100
0000
0001
0000
,
0100
0000
0001
0000
,
0100
0000
0001
0000
,
0010
0000
0001
0000
,
0100
0000
0001
0000
,
0100
0000
0001
0000
,
0010
0000
1000
0000
,
0001
0000
0010
0000
,
0001
0000
0010
0000
,
0001
0000
0100
0000
,
0010
0000
0001
0000
,
0100
0000
0001
0000
,
0010
0000
0001
0000
,
0100
0000
0010
0000
,
0001
0000
0100
0000
,
0010
0000
0001
1000
,
0100
0000
0001
0000
,
0010
0000
0100
0010
,
0001
0000
0000
0000
,
1000
0010
1000
0010
,
0001
0000
0100
0000
,
0001
0100
0100
0000
,
1000
0000
0001
0000
,
1000
0010
0010
0000
,
1000
0000
0010
0000
,
0001
0000
0100
0000
,
0001
0000
0010
0000
,
0001
0000
0010
0000
,
0001
0000
0000
0000
,
0100
0000
0000
0000
,
0010
0000
0000
0000
,
0100
0000
0000
0000
,
0010
0000
1000
0000
,
0100
0000
0001
0000
,
2002
0000
0000
0000
,
3003
0000
0000
0000
,
0110
0000
1000
0000
,
0110
0000
0001
1000
,
0010
0000
0001
0000
,
1000
0000
0001
1000
,
0010
0000
0001
0000
,
0100
0000
0001
0100
,
0010
0000
0001
0000
,
0100
0000
0010
0100
,
0001
0000
0010
0000
,
0001
0000
0010
0000
,
0001
0000
0100
0000
,
0001
0000
0010
0000
,
0001
0000
0010
0000
,
0100
0000
0001
0010
,
1000
0001
0000
0010
,
0100
1000
0001
0010
,
1000
0000
0010
0000
,
0001
0000
0100
0000
,
0010
0000
0001
0000
,
0100
0000
0001
0000
,
0010
0000
0100
0000
,
0001
0000
0100
0000
,
0001
0000
0010
0000
,
0001
0000
0010
0000
,
0001
0010
0100
1000
,
0001
0010
0100
1000
,
1001
0000
0000
0000
,
0000
0000
0000
0000
,
1000
0100
0010
0001
,
1000
0100
0010
0001
,
0110
0000
0000
0000
,
0100
0000
0000
0000
,
0010
0000
0000
0000
,
0001
1000
0100
0000
,
0001
0000
0010
0000
,
0001
0000
0010
0000
,
0100
0000
0001
0000
,
0010
0000
0001
0100
,
0010
0000
0001
0010
,
0100
0000
0010
0000
,
0001
0000
0100
0000
,
0001
0000
0100
0000
,
0010
0000
0001
0000
,
0100
0000
0001
0000
,
0010
0000
0100
0000
,
0001
0000
0010
0000
,
0100
0000
0001
0000
,
0010
0000
0001
0000
,
0100
0000
0001
0000
,
0100
0000
0000
0000
,
0010
0000
0000
0000
,
0110
0000
0000
0000
,
1001
0000
0000
0000
,
0110
0000
0000
0000
,
1001
0000
0000
0000
;

//--------------- dance-single - PWG ----------------
#NOTES:
     dance-single:
     PWG:
     Easy:
     6:
     0,0,0,0,0:
0000
0000
0000
0000
,
0000
0000
0000
0000
,
0000
0000
0000
0000
,
0000
0000
0000
0000
,
1000
0000
0010
0000
,
0001
0000
0100
0000
,
1000
0100
0010
0000
,
0001
0100
0010
0000
,
0001
0000
1000
0000
0010
1000
0000
0000
,
0001
0000
1000
0000
0010
0100
0000
0000
,
0001
0000
1000
0000
,
0010
0000
0100
0001
,
0010
0001
0000
1000
,
0000
0100
1000
0100
,
0010
0000
0010
0010
0100
0000
0001
0000
,
1000
0000
0100
0100
0010
0000
1000
0000
,
0001
0000
0010
0000
,
0100
0000
0010
0000
,
1001
0000
0000
0000
,
0110
0000
0000
0000
,
2000
0000
0000
0010
3001
0000
0000
0000
,
0002
0000
0000
0010
1003
0000
0000
0000
,
1000
0100
0010
0000
,
0001
0100
0010
0001
,
1000
0100
0010
0000
,
0001
0010
0100
0000
,
1000
0100
0001
0010
,
0001
0010
1000
0100
,
1000
0100
0010
0001
,
1000
0100
0010
0001
,
0001
0010
0100
1000
,
0001
0010
0100
1000
,
1000
0010
1000
0001
,
0010
0000
0100
0000
0010
0100
0010
0000
,
1100
0000
0011
0000
,
1001
0000
0001
1000
,
0010
0000
0001
0100
,
0010
1000
0100
0010
,
1000
0000
0100
0010
,
0100
0001
0010
1000
,
0001
0000
1000
0000
,
0001
0000
1000
0000
,
1000
0000
0001
0000
,
1000
0001
0000
0010
,
0001
1000
0000
1000
,
0010
0100
0000
0100
,
0010
1000
0000
0100
,
0010
0001
0010
0000
,
0001
1000
0000
0000
,
1000
0001
0000
0001
,
1000
0000
1000
0001
,
0010
0000
0100
0010
0000
0000
0100
0000
,
0010
0010
0100
0100
,
1000
1000
0001
0001
,
1000
0100
1000
0100
,
0001
0100
0100
0100
,
0001
0010
0001
0010
,
1000
0010
0010
0010
,
1000
0000
0001
0000
,
1000
0010
0001
0100
,
0020
0000
0000
0100
1030
0000
0000
0000
,
0200
0000
0000
0010
0301
0000
0000
0000
,
0010
0000
0100
0000
,
0100
0000
0010
0000
,
1000
0000
0010
0000
,
0001
0000
0010
0000
,
0001
0000
0100
0000
,
1000
0000
0100
0000
,
1000
0000
1000
0000
,
0000
0001
0001
0000
,
0001
0000
0001
0000
,
0000
1000
1000
0000
,
0100
0100
0010
0010
,
0100
0100
0010
0010
,
0001
0001
1000
1000
,
0001
0001
0000
1001
,
1000
0000
0010
0100
,
0010
0000
0000
0000
,
0001
0000
0100
0010
,
0100
0000
0000
0000
,
1000
0000
0000
0000
,
0010
0000
0000
0000
,
0100
0000
0000
0000
,
0010
0000
0001
0000
,
1000
0000
1000
0000
,
0001
0000
0001
0000
,
0100
0000
0100
0000
,
0010
0000
0010
0000
,
0001
0000
1000
0000
,
0100
0000
1000
0000
,
0001
0010
0001
1000
,
0100
1000
0110
0000
,
0001
0000
0100
0000
,
1000
0000
0100
0000
,
1000
0000
0010
0000
,
0001
0000
0010
0000
,
1000
0000
0100
0000
,
1000
0000
0000
0000
,
0001
0000
0100
0000
,
0001
0000
0000
0000
,
1000
0000
1000
0000
,
0000
1000
1000
0000
,
0001
0000
0001
0000
,
0000
0001
0001
0000
,
0010
0000
0010
0000
,
0000
0010
0010
0000
,
0100
0000
0100
0000
,
0000
0100
0100
0000
,
1000
0010
0000
0000
,
0001
0010
0000
0000
,
1000
0100
0000
0000
,
0001
0100
0000
0000
,
0010
0010
0110
0100
,
0100
0010
0100
0100
,
1001
0000
0010
1000
,
1001
0000
0001
0010
,
1000
0000
0010
1000
,
0001
0100
0010
0000
,
1000
0000
0001
0000
,
1000
0100
1000
0000
0000
0000
0000
0000
,
0001
0010
0001
0000
0000
0000
0000
0000
,
1000
0000
0010
0000
,
0100
0000
0001
0000
,
0001
0000
0010
0000
,
1000
0000
0010
0000
,
0100
0000
1000
0000
,
1000
0000
0000
0000
,
0010
0000
0000
0000
,
0001
0000
0000
0000
,
0100
0000
0000
0000
,
1001
0000
0000
0000
;

//--------------- dance-single - PWG ----------------
#NOTES:
     dance-single:
     PWG:
     Medium:
     12:
     0,0,0,0,0:
0000
0000
0000
0000
,
0000
0000
0000
0000
,
0000
0000
0000
0000
,
0000
0000
0000
0000
,
0010
0100
0010
0000
1000
0000
0000
0000
,
1000
0001
1000
0000
0001
0000
0000
0000
,
0001
0010
0001
0000
0001
0000
0000
0000
,
1000
0010
1000
0000
1000
0000
0000
0000
,
1000
0100
0010
0000
0001
0000
0000
0000
,
0001
0010
0100
0000
1000
0000
0000
0000
,
1000
0010
0100
0000
0100
0000
0000
0000
,
0001
0100
0010
0000
0010
0000
0000
0000
,
1000
0000
0010
0000
0100
0001
0100
0000
,
0010
0000
1000
0000
0010
1000
0100
0000
,
0010
1000
0001
0000
0100
0000
0010
0000
,
1000
0000
0001
1000
0010
0000
0100
0000
,
0001
0000
0100
0000
0010
1000
0001
0000
,
1100
0100
0011
0010
,
1000
0100
0001
0010
,
0001
0010
1000
0100
,
2200
0000
3301
0000
,
0022
0000
1033
0000
,
1000
0000
0100
0000
,
0001
0000
0000
0000
0001
0100
0001
0000
,
0010
0000
0000
0000
0001
0000
0000
1000
,
0010
0000
0000
0001
0100
0000
0010
0000
,
0000
1000
0010
1000
0010
0000
0000
0001
,
0100
0001
0100
0000
0001
0000
1000
0000
,
0010
1000
0100
0000
0010
0000
0000
0000
,
0001
0100
0010
0000
0010
0000
0000
0000
,
0100
0000
0100
0000
0010
0000
1000
0001
,
1000
0010
0100
0001
,
0100
0000
0000
0010
1000
0000
0000
0001
,
0100
0000
0000
0010
0001
0000
0000
1000
,
0100
0000
0010
0000
1000
0000
0000
0001
,
1000
1000
0100
0000
0010
0000
0100
0000
,
1100
0000
0011
0000
,
0101
0000
1010
0000
,
1000
0000
0000
0000
0100
0000
0001
0010
,
0001
0100
0010
1000
0100
1000
0010
0100
,
0001
0000
1000
0010
,
0000
0000
0010
0000
0100
0001
0100
0000
,
0010
0000
0001
0000
1000
0000
0000
0010
,
0000
0100
0001
0000
0100
0000
0000
0000
,
0010
0001
0000
0100
,
0000
0100
1000
0011
,
0001
1000
0000
0010
,
0000
0100
0001
1010
,
0001
0100
0010
0001
,
1000
0010
1000
0001
,
0001
1000
0010
1000
0100
0000
0010
0100
,
0001
0100
0010
0000
0001
0000
1000
0000
,
0010
1000
0010
0000
0010
0001
0010
0000
,
0100
0010
0100
0000
0010
0100
0010
0000
,
0100
1000
0100
0000
0100
0001
0100
0000
,
0010
0001
0010
0000
0010
1000
0010
0000
,
1000
0100
1000
0010
1000
0001
1000
0010
,
0100
0001
0010
0001
0010
0001
0100
0010
,
1000
0001
1000
0010
0100
0000
0001
0000
,
1000
0000
0001
0000
,
1100
0000
0011
0000
,
0010
0000
0100
0000
,
0110
0000
1001
0000
,
0010
0000
0100
0000
,
0001
0000
0000
0001
0100
0000
0000
0100
,
1000
0000
0000
1000
0010
0000
0000
0000
,
0010
0010
0100
0100
,
0001
0001
1000
1000
,
1000
1000
0010
0000
0001
0001
0010
0000
,
0100
0100
1000
0000
0100
0100
0001
0000
,
0010
0000
1000
0000
0001
0100
0000
0010
,
0100
0000
0001
0000
1000
0000
0010
1000
,
0001
0000
0000
0010
0100
0000
0000
0001
,
1000
0000
0000
1000
0100
0000
0010
0000
,
0001
0100
0010
0100
0001
0000
0000
1000
,
0010
1000
0100
0000
0010
0000
1000
0000
,
0001
0000
0100
0010
0100
0000
1000
0010
,
1000
0100
1000
0000
0010
0000
0100
0001
,
0100
0000
0010
1000
0001
0000
1000
0010
,
1000
0100
1000
0010
0100
0000
0001
0000
,
0010
0000
0010
0100
0010
0000
1000
0001
,
1000
0010
1000
0000
0001
0000
1000
0000
,
0010
0000
1000
0010
1000
0000
0001
0100
,
0010
0000
0001
0100
0010
1000
1001
0000
,
0010
1000
0001
1000
0010
1000
0001
0000
,
0100
0010
0110
1001
,
0010
1000
0100
0000
0010
0100
0001
0000
,
0010
0000
0001
0000
0100
0010
1000
0000
,
0100
0000
1000
0000
0100
0010
0001
0000
,
0010
0100
0001
0000
0010
0000
0100
0000
,
1000
0000
1000
0100
0010
0000
0010
0001
,
0100
0000
0010
0100
1000
0000
1000
0100
,
0010
0000
0001
0000
0010
0000
0001
0010
,
0100
0000
0001
0010
0100
0000
1000
0000
,
0100
0010
0100
0001
0100
0000
0010
1000
,
0000
0001
1000
0010
1000
0000
0001
0000
,
0100
0000
0000
0010
1000
0000
0000
1000
,
0100
0000
0010
0000
0001
0000
0010
0100
,
0001
0010
0100
0001
1000
0000
0010
1000
,
0000
0100
1000
0010
1000
0000
0001
0100
,
0010
0000
0001
0100
0010
0000
1000
0100
,
0010
0000
1000
0010
0100
0000
1000
0010
,
1000
0000
0100
1000
0011
0100
0010
0100
,
0001
0000
1100
0000
0010
0000
1100
0001
,
0100
0010
1000
0001
1000
0010
1000
0100
,
1000
0010
0100
0001
0010
0001
0100
0010
,
1000
0001
1000
0010
1000
0000
0000
0100
,
0010
0100
0001
0000
1010
0000
0101
0000
,
0010
1000
0001
0000
0100
0000
1010
0000
,
0010
1000
0001
0000
0001
0000
0011
0000
,
0100
0001
0100
0000
0010
1000
0001
0000
,
0010
0100
0010
1000
0100
1000
0010
0100
,
0001
0000
0010
0000
0100
0001
1000
0010
,
1000
0000
0001
0000
0010
0100
0001
0000
,
0010
0000
1000
0000
0010
1000
0100
1000
,
0010
0100
0001
0010
,
0001
0000
1000
0010
1000
0000
0100
0000
,
1000
0010
0100
0000
,
0001
0001
1000
1000
,
0010
0100
0010
0000
0100
0010
0100
0000
,
0001
1000
0100
1000
,
0001
0010
0001
0010
,
0100
0000
0010
0000
1000
0001
1000
0000
,
0010
0100
0001
0000
0100
0000
0010
0000
,
1001
0000
0000
0000
,
0000
0000
0000
0000
,
1001
0000
0000
0000
,
0000
0000
0000
0000
,
0011
0000
0000
0000
,
0000
0000
0000
0000
,
1100
0000
0000
0000
;

//--------------- dance-single - PWG ----------------
#NOTES:
     dance-single:
     PWG:
     Hard:
     15:
     0,0,0,0,0:
0000
0000
0000
0000
,
0000
0000
0000
0000
,
0000
0000
0000
0000
,
0000
0000
0000
0000
,
0001
0000
1000
0010
1000
0000
0001
0000
,
0100
0010
0100
0001
1000
0000
0010
0000
,
1000
0100
1000
0000
0010
0000
0100
0000
,
0001
0010
0001
0100
0010
1000
0100
1000
,
0010
0000
1000
0000
0001
1000
0010
0000
,
0001
0100
0010
1000
0100
0000
1000
0000
,
0010
0100
0001
0000
0010
0000
0100
0001
,
1000
0000
0010
1000
0001
0000
0100
0000
,
1001
0000
0010
1000
0001
0000
0100
0000
,
0010
1000
0100
1000
0010
0100
0001
0010
,
1010
0000
1000
0010
1000
0000
0001
0000
,
0010
1000
0001
1000
0010
0000
0100
0000
,
0101
0000
0010
1000
0001
0000
0010
1000
,
0100
1000
0010
0100
0001
0000
0100
0000
,
0110
0000
1001
0000
0010
1000
0100
0000
,
1100
0000
0011
0000
0010
0100
0010
0100
,
2000
0000
0000
0000
0000
0000
0010
0000
0001
0000
0000
0000
0000
0000
3010
0001
,
0010
0000
0000
0000
0000
0000
0010
0100
0010
0000
0000
0000
1000
0000
0000
0000
,
0100
0001
1000
0000
0010
1000
0001
0000
,
0100
0010
0100
0000
0001
1000
0010
1000
,
0200
0000
0000
0000
0000
0000
0010
0300
0001
0000
0000
0000
0000
0000
0100
0010
,
0100
0000
0000
0000
0000
0000
0001
1000
0010
0000
0000
0000
1000
0000
0000
0000
,
0010
0000
0001
1000
0010
0000
1000
0001
,
0000
0000
0010
0100
,
0001
0000
0000
1000
0010
0000
0100
0000
,
0010
0100
0001
0000
0100
0000
0010
0000
,
1000
0000
0100
0000
0010
0000
0001
0010
,
0001
0000
0010
0100
0010
0000
1000
0000
,
0010
0000
0000
0100
0010
0000
0100
0000
,
0001
0000
0010
0000
0001
0010
0100
0000
,
0001
0010
0100
1000
0100
0010
0001
0000
,
0010
1100
0100
0011
,
0010
0000
1000
0100
1000
0000
0010
0000
,
0001
0100
0010
0100
1000
0000
0100
1000
,
0010
0000
1000
0001
0100
0000
0010
0100
,
0001
0000
1000
0010
1000
0000
0001
0000
0100
0000
0000
0000
0010
0000
0000
0000
,
1000
0000
0001
0000
1000
0000
0000
0000
0010
0000
0000
0000
1000
0000
0100
1000
,
0010
0000
0100
0000
0001
0000
0100
0010
0100
0000
0001
0000
0010
0000
0001
0000
,
1000
0000
0010
1000
0001
0000
0010
0000
,
1000
0100
0010
1000
0100
1000
0010
0100
,
0001
0000
0010
0000
0001
0010
0100
0000
,
0001
0010
0100
0010
0100
0001
0100
0000
,
0010
1000
0001
0000
0010
1000
0001
0000
,
0100
1000
0010
0000
0001
1000
0100
0000
,
0001
0100
0010
0100
0001
1000
0010
0000
,
0100
0000
1000
0000
0010
0000
1000
0100
1000
0000
0010
0000
0100
0000
0000
0000
,
0001
0000
0100
0000
0010
0000
0100
0001
0100
0000
0010
0000
1000
0000
0001
0000
,
1000
0000
0010
0000
1000
0000
0100
0000
1000
0000
0010
1000
0100
0000
1000
0000
,
0010
0000
0001
0000
0100
0010
1000
0000
,
0001
1000
0010
1000
0100
1000
0010
0000
,
0100
0000
0001
0000
1000
1010
0001
0100
,
0010
0000
0000
0000
0001
0000
0100
0000
0010
0000
0100
0001
1000
0000
0010
0000
,
1000
0000
0001
0100
0010
0000
0100
0001
,
0100
0000
0000
0000
0010
0000
1000
0000
0001
0000
1000
0010
1000
0000
0100
0000
,
1000
0010
0100
0001
0100
0000
0010
0000
,
1001
0110
1100
0011
,
0100
0000
0000
0000
0000
0000
0010
0000
0001
0000
0000
0000
0000
0000
0010
0100
,
0001
0000
0000
0000
0000
0000
1000
0010
1000
0000
0000
0000
0001
0000
0000
0000
,
0100
0000
0010
0100
0001
0000
0100
0010
,
1000
0000
0100
1000
0010
1000
0001
0100
,
1000
0000
0000
0000
0000
0000
0010
0000
0001
0000
0000
0000
0000
0000
0010
0100
,
0001
0000
0000
0000
0000
0000
1000
0010
1000
0000
0000
0000
0100
0000
0000
0000
,
1000
0010
0100
0001
0010
0000
0001
0000
,
0021
0000
1230
0000
,
0301
0010
0100
0001
,
1000
0010
0100
0010
,
1000
0010
1000
0000
0001
0010
0001
0000
,
0100
0010
1000
0001
1000
0010
1000
0100
,
1000
0010
0100
0001
0010
0001
0100
0010
,
1000
0001
1000
0010
0100
0001
0010
0001
,
0010
0001
1000
0100
1000
0010
1000
0100
,
1000
0010
0100
0001
0100
0000
1001
0000
,
0010
1000
0001
0000
0010
0100
0001
0000
,
1000
0000
0010
0000
1000
0000
0001
0010
0100
0000
0010
0000
0100
0000
0001
0000
,
1000
0000
0000
0010
1000
0000
0001
0100
,
0010
0000
0100
0001
0100
0000
0010
0000
1000
0000
0001
1000
0010
0000
1000
0000
,
0100
0010
0001
0100
1000
0010
0001
0100
,
0010
0000
1000
0000
0001
0000
1000
0010
1000
0000
0010
0100
1000
0000
0001
0000
,
1000
0001
0010
0100
0010
0000
0000
0010
,
1000
0100
1000
0000
0010
1000
0001
0000
,
0010
0000
0100
0001
0100
0000
0010
1000
,
0100
1000
0010
1000
0001
0000
0100
0010
,
0000
0000
0000
0000
0000
0000
0001
1000
,
0010
1000
0100
1000
0010
0000
0100
0001
,
0000
0000
0010
1000
0001
0000
0010
1000
,
0100
0000
0010
0100
0001
0000
0010
0001
,
0100
0000
0010
0000
1000
0000
0100
1000
,
0010
0000
0001
0100
0010
0000
0001
0000
,
0100
0000
0000
0000
0000
0000
0010
0000
1000
0000
0000
0000
0000
0000
0001
1000
,
0010
0000
0000
0000
0000
0000
0100
0001
0100
0000
0000
0000
0010
0000
0000
0000
,
1000
0001
1000
0010
,
0100
0001
0100
0000
0010
1000
0100
0000
,
0010
1000
0001
0100
0010
0000
0001
0100
,
0010
0000
1000
0100
1000
0000
0010
0000
,
0100
0001
0100
0010
1000
0100
1000
0010
,
1000
1100
0011
0010
,
0110
0001
1001
0010
,
1100
0100
0011
0010
,
0100
0000
0001
0000
1000
0000
0010
1000
,
0010
0000
0000
0000
1000
0000
0000
0000
0100
0000
0010
0100
0001
0000
0000
0000
,
2000
0001
0010
3001
,
0002
1000
0100
1003
,
1000
0100
0010
0001
1000
0100
0010
0001
,
0001
0010
0100
1000
0001
0010
0100
1000
,
1100
0100
0100
0100
,
0011
0010
0010
0010
,
0110
0100
0100
0100
,
1001
0001
0001
0001
,
2000
0100
0000
0100
,
3002
0100
0000
0100
,
1003
0000
0100
0000
1000
0100
1000
0000
,
0001
0000
0100
0000
0001
0010
0001
0000
,
1000
0100
1000
0000
0010
0000
0001
0000
0100
0010
0100
0000
0010
0000
0001
0000
,
0010
1000
0010
0000
0100
0000
1000
0000
0001
0010
0001
0000
0100
0000
1000
0000
,
1000
1000
0010
0010
0100
0100
0001
0001
,
0010
0010
0001
0001
0100
0100
1000
1000
,
1000
0000
1000
0100
0100
0000
0100
0010
,
0001
0000
0010
0001
0110
0000
0110
0000
,
1000
0100
0010
0001
,
1100
0011
0101
1010
,
0010
0000
0100
0000
,
0001
0000
1000
0000
,
1000
0000
0001
0000
,
0100
0000
0010
0000
,
1000
0000
0000
0000
,
0001
0000
0000
0000
,
1001
0000
0000
0000
;
