#TITLE:Tonight;
#SUBTITLE:;
#ARTIST:Kesha;
#TITLETRANSLIT:;
#SUBTITLETRANSLIT:;
#ARTISTTRANSLIT:;
#GENRE:;
#CREDIT:PWG;
#MUSIC:Tonight.mp3;
#BANNER:Tonight-bn.png;
#BACKGROUND:Tonight-bg.png;
#CDTITLE:;
#SAMPLESTART:77.052;
#SAMPLELENGTH:15.200;
#SELECTABLE:YES;
#OFFSET:-0.252;
#BPMS:0.000=150.000;
#STOPS:;
#BGCHANGES:;
#FGCHANGES:;

//--------------- dance-single - PWG ----------------
#NOTES:
     dance-single:
     PWG:
     Beginner:
     3:
     0,0,0,0,0:
0000
0000
0000
0000
,
0000
0000
0000
0000
,
0000
0000
0000
0000
,
0000
0000
0000
0000
,
1000
0000
0000
0000
,
2000
0000
0000
0000
,
3001
0000
0000
0000
,
0002
0000
0000
0000
,
0013
0000
0100
0000
,
0001
0000
1000
0000
,
0001
0000
1000
0000
,
0010
0000
0000
0000
,
1000
0000
0001
0000
,
0010
0000
0001
0000
,
0100
0000
0010
0000
,
2000
0000
0000
0000
,
3001
0000
0000
0001
,
1000
0000
0000
1000
,
0010
0000
0000
0010
,
0100
0000
0000
0100
,
0001
0000
1000
0000
,
0010
0000
0100
0000
,
0001
0000
0100
0000
,
0010
0000
1000
0000
,
0100
0000
0000
0100
,
0000
0000
0100
0000
,
0010
0000
0000
0010
,
0000
0000
0010
0000
,
0100
0000
0001
0000
,
1000
0000
0010
1000
,
0001
0000
0010
0000
,
0100
0000
0000
0000
,
0001
0000
1000
0000
,
0001
0000
0000
0000
,
0100
0000
0010
0000
,
0100
0000
0000
0000
,
1000
0000
0100
0000
,
1000
0000
0000
0000
,
0001
0000
0010
0000
,
0001
0000
0000
0000
,
1000
0000
0100
0000
,
0010
0000
0001
0000
,
1000
0000
0100
0000
,
0010
0000
0001
0000
,
0001
0000
0100
0000
,
0010
0000
1000
0000
,
0001
0000
0100
0000
,
0010
0010
1000
0000
,
0001
0000
0100
0000
,
0010
1000
0001
0000
,
1000
0000
0010
0000
,
0100
0001
0010
0000
,
0001
0000
0100
0000
,
0100
0010
1000
0000
,
1000
0000
0010
0000
,
0010
0100
0001
0000
,
0100
0000
1000
0000
,
0010
0000
0001
0000
,
0100
0000
0010
0000
,
0001
1000
0000
0000
,
0000
0010
0001
0000
,
0100
0000
0010
0000
,
0001
0000
0000
0000
,
1000
0000
0100
0000
,
0020
0000
0000
0000
,
0000
0000
0000
0000
,
1030
0000
0000
0000
,
1001
0000
0000
0000
,
0001
0000
0000
0000
,
1001
0000
0000
0000
,
0110
0000
0000
0000
,
1001
0000
0000
0000
,
0110
0000
0000
0000
,
1001
0000
0000
0000
,
0200
0000
0300
0000
,
0010
0000
0001
0000
,
2000
0000
3000
0000
,
1000
0000
0100
0000
,
0020
0000
0030
0000
,
0100
0000
0100
0000
,
0002
0000
0003
0000
,
0001
0000
1000
0000
,
0010
0000
0000
0000
,
0200
0000
0000
0000
,
0310
0000
0000
0000
,
0002
0000
0000
0000
,
0103
0000
0000
0000
,
0100
0000
0000
0000
,
1000
0000
0000
0000
,
0001
0000
0000
0000
,
0200
0000
0000
0000
,
0000
0000
0000
0000
,
0000
0000
0000
0000
,
0000
0000
0000
0000
,
0300
0000
0000
0000
0000
0001
0010
0000
;

//--------------- dance-single - PWG ----------------
#NOTES:
     dance-single:
     PWG:
     Easy:
     5:
     0,0,0,0,0:
0000
0000
0000
0000
,
0000
0000
0000
0000
,
0000
0000
0000
0000
,
0000
0000
0000
0000
,
1000
0000
2000
0000
,
3001
0000
0001
0001
,
0001
0000
0002
0000
,
1003
0000
1000
0000
,
0010
0100
0001
0000
,
1000
0000
0010
0000
,
1000
0010
0100
0000
,
0001
0000
0010
0000
,
0001
0100
1000
0000
,
0010
0000
1000
0000
,
1000
0100
0001
0000
,
0001
0000
0010
0000
,
0001
0100
0000
0100
,
0010
1000
0100
0000
,
1000
0001
0000
0001
,
0001
0100
0010
1000
,
0010
1000
0000
1000
,
1000
0100
0010
0001
,
0001
0010
0000
0010
,
0200
0000
0320
0000
,
0031
0000
0010
0100
,
0000
0100
0010
0100
,
1000
0000
1000
0001
,
0000
0001
0010
0000
,
0001
0000
0001
1000
,
0000
1000
0010
0100
,
1001
0000
0010
0001
,
0000
0010
1000
0000
,
0110
0000
0001
0010
,
0100
1000
0100
0000
,
0110
0000
1000
0100
,
0010
0001
0010
0000
,
1001
0000
0010
1000
,
0100
0010
0001
0000
,
1001
0000
0001
0010
,
1000
0100
1000
0000
,
0010
0000
0002
0000
0000
0003
0001
0000
,
0010
0100
0001
0100
,
0010
0000
2000
0000
0000
3000
1000
0000
,
1000
0100
0001
0010
,
0001
0000
0200
0000
0000
0300
0100
0000
,
0001
1000
0010
0100
,
0100
0000
0020
0000
0000
0030
0011
0000
,
0000
0010
1100
0000
,
0001
1000
0010
1000
,
0001
0000
0100
0010
0100
0000
0000
0000
,
0001
0000
1000
0000
,
0001
0000
1000
0000
,
1000
0010
0001
0100
,
0001
0000
0100
0010
0100
0000
0000
0000
,
0001
1000
0000
1000
,
0000
1000
0010
0001
,
0001
0000
0000
0001
0010
0000
0000
0000
,
0010
0000
0000
0100
1000
0000
0000
0000
,
1000
0000
0010
0000
,
0001
0000
0100
0000
,
0000
0001
0010
0000
,
0100
1000
0010
0000
,
0100
1000
0100
0000
,
0100
0010
0001
0000
,
0020
0000
0000
0000
,
0000
0000
0000
0000
0000
0030
0000
0000
,
0100
0000
0100
0100
,
0100
0000
0100
0100
,
0010
0000
0010
0010
,
0010
0000
0010
0010
,
1000
0000
0001
0000
,
1000
0001
1000
0000
,
0001
0000
1000
0000
,
0001
1000
0001
0000
,
0001
0001
0000
0001
,
0010
0010
0000
0010
,
0100
0100
0000
0100
,
1000
1000
0000
1000
,
0010
0000
0001
0000
,
0100
1000
0001
0000
,
1000
0000
0010
0000
,
0100
0010
0001
0000
,
0100
0000
0010
0000
,
0001
1000
0010
0100
,
0001
0000
0010
0000
,
1000
0010
0100
0001
,
0100
0000
1000
0000
,
0010
0100
1000
0001
,
0100
0000
0010
0000
,
1000
0100
0001
0100
,
0020
0000
0000
0000
,
0000
0000
0000
0000
,
0000
0000
0000
0000
,
0000
0000
0000
0000
,
0030
0000
0000
0000
0000
0010
0100
0000
;

//--------------- dance-single - PWG ----------------
#NOTES:
     dance-single:
     PWG:
     Medium:
     9:
     0,0,0,0,0:
0000
0000
0000
0000
,
0000
0000
0000
0000
,
0000
0000
0000
0000
,
0000
0000
0000
0000
,
1000
1000
1000
1000
,
1000
1000
1000
1000
,
0001
0001
0001
0001
,
0001
0001
0001
0000
,
0011
0000
0100
0000
0001
1000
0010
0000
,
1000
0000
0010
0100
0000
0000
0000
0000
,
1001
0000
0100
0000
0010
0001
0100
0000
,
0010
0000
0100
0010
0000
0000
0000
0000
,
1010
0000
1000
0000
0001
0100
0010
0000
,
0100
0000
0001
1000
0100
0000
0000
0000
,
0110
0000
0100
0000
0001
1000
0100
0000
,
1000
0000
0010
0100
0000
0000
0001
0000
,
0100
0000
0000
0100
0010
0000
1000
0000
,
0000
0001
1000
0000
0010
0000
0100
0001
,
0100
0000
0000
0100
0010
0000
1000
0000
,
0000
0001
1000
0000
0010
0000
0100
0001
,
0010
1000
0010
1000
,
0010
0100
0001
0100
,
0010
1000
0001
0100
,
0010
0000
1000
0000
0001
1000
0001
1000
,
0100
0000
0010
1000
0100
0000
1000
0000
,
0100
0001
0010
0000
0010
0000
0100
0000
,
0001
0000
0001
0100
0010
0000
1000
0000
,
0001
0000
1000
0100
0010
0000
0100
0000
,
0001
0000
0000
0001
0001
0000
1000
0000
,
0000
1000
1000
0000
0010
0000
0100
0000
,
0001
0000
0000
1000
0010
0000
1000
0000
,
0000
0100
1000
0000
0001
0000
0100
0000
,
0010
0000
0100
0000
0001
1000
0010
0000
,
1000
0010
0100
0000
,
0001
0000
0100
0000
0010
1000
0001
0000
,
0001
0100
0001
0000
,
0001
0000
0010
0000
1000
0100
1000
0000
,
0010
0100
0001
0000
,
0010
0000
0100
0000
0001
0010
1000
0000
,
0100
0000
1000
0000
0010
1000
0010
0100
,
0002
0023
0001
0001
,
1030
0010
0100
0001
,
2000
3200
1000
1000
,
0301
0100
0010
1000
,
1001
0100
1000
0100
,
1001
0001
0010
0001
,
0001
0200
0000
0000
,
0000
0000
0000
0300
,
0101
0010
1000
0001
,
1100
0000
0010
0000
1000
0000
0001
0100
,
1010
0001
0100
0010
,
0011
0001
0200
0300
,
1010
0100
1000
0100
,
0011
0000
0001
0000
0100
0000
0001
0010
,
1100
0000
0010
0000
1000
0000
1000
0100
,
0011
0001
0200
0300
,
1000
0000
0000
0001
0100
0000
0000
1000
,
0010
0000
0000
0001
0100
0000
0000
0010
,
0100
0000
0000
1000
0010
0000
0000
0100
,
0020
0002
0000
0033
,
0000
0001
0100
0010
,
1000
0000
0001
0000
1000
0000
0010
0001
,
0000
0000
0000
0000
0000
0000
0000
0001
,
0010
0000
0100
0000
1000
0000
0100
0020
,
0000
0000
0000
0000
,
0000
0000
0000
0030
0000
0000
0000
0000
,
0010
0000
0100
0000
0001
1000
0010
0000
,
1000
0000
0100
0000
1000
0010
0100
0000
,
0001
0000
0100
0000
0001
0010
0001
0000
,
0100
0000
0010
0000
1000
0100
1000
0000
,
1010
0010
0010
0010
,
0101
0100
0100
0100
,
0011
0001
0001
0001
,
1100
0000
1000
0000
1000
0000
1000
0010
,
0000
0001
0100
0010
0000
0000
0001
0000
,
1000
0000
0010
0000
1000
0000
1000
0010
,
0000
0100
0001
0010
0000
0000
0001
0000
,
1000
0000
0010
0000
0100
0000
1000
0010
,
0000
0001
0100
0010
0000
0000
0001
0000
,
0010
0000
0100
0000
1000
0000
1000
0010
,
0000
0100
0010
0001
0000
0000
0010
0000
,
0100
0001
1000
0100
,
0010
0000
0000
0100
0000
0000
0001
0000
,
1000
0010
1000
0000
,
1000
0000
0000
0010
0000
0000
0100
0000
,
0001
0000
0010
0100
1000
0000
0000
0000
,
0001
0000
0000
0100
0000
0000
0010
0000
,
1000
0001
0100
0000
,
0010
0000
0000
0001
0000
0000
1000
0000
,
0010
0000
0100
0010
0002
0000
0000
0000
,
0000
0000
0000
0000
,
0000
0000
0000
0000
,
0000
0000
0000
0000
,
0000
0000
0000
0000
,
0003
0000
0000
0000
0000
0100
1000
0000
;

//--------------- dance-single - PWG ----------------
#NOTES:
     dance-single:
     PWG:
     Hard:
     13:
     0,0,0,0,0:
0000
0000
0000
0000
,
0000
0000
0000
0000
,
0000
0000
0000
0000
,
0000
0000
0000
0000
,
1002
1000
1000
1003
,
2001
0001
0001
3001
,
0120
0100
0100
0130
,
0210
0010
0010
0310
,
0001
0100
0010
1000
0010
1000
0200
0000
,
0310
1000
0001
0010
0000
0001
0100
0000
,
0100
0001
1000
0010
1000
0100
2000
0000
,
3001
0100
0010
0100
0000
0001
0100
0000
,
0001
0010
0100
1000
0010
1000
0002
0000
,
0013
1000
0001
0010
0100
0000
0001
0100
,
0010
0100
0001
1000
0010
0100
0020
0000
,
0130
0001
0010
0100
0000
0010
1000
0001
,
1000
0010
0100
0000
1000
0100
0010
0000
,
0001
0100
0000
0000
0100
1000
0000
0000
1000
0001
0000
0000
0010
1000
0000
0000
,
0100
1000
0010
0000
0010
0100
0001
0000
,
0100
0001
0000
0000
0010
0100
0000
0000
0100
0000
0001
0000
1000
0000
0010
0000
,
1000
0000
0010
0000
0100
0010
0001
0000
,
0100
0001
0000
0000
0100
0010
0000
0000
1000
0000
0100
0000
1000
0000
0010
0000
,
2000
3020
0000
1000
,
0001
0000
1000
0000
0001
1030
0001
0000
,
1001
0000
1000
0001
0110
0000
0101
0000
,
1000
0001
1010
0000
1010
0000
0110
0000
,
0101
0000
1000
0001
0110
0000
0110
0000
,
1000
0010
1100
0000
1100
0000
0110
0000
,
0001
0000
0100
0010
0100
0000
0001
0000
,
0100
0000
0010
0000
0001
0000
0000
0000
1000
0000
0000
0000
0001
0000
0100
0010
,
1000
0000
0001
1000
1010
0000
1010
0000
,
0000
0000
1000
0001
0011
0000
0011
0000
,
0100
1000
0010
0001
0100
0010
0001
0000
,
0010
1000
0100
0010
0000
0000
0000
0000
,
0100
0001
0010
0100
0001
1000
0010
0000
,
1000
0010
1000
0001
0000
0000
0000
0000
,
1000
0001
0010
1000
0100
1000
0010
0000
,
0100
0010
0100
0001
0000
0000
0000
0000
,
0100
0001
0010
1000
0100
1000
0010
0000
,
0001
0010
0001
0100
0000
0001
0100
0010
,
2000
3020
1000
1030
,
0100
0010
0000
0000
0001
0100
0000
0000
0100
0001
0000
0000
1000
0001
0000
0000
,
2000
3020
0001
0031
,
0001
0100
0000
0000
1000
0010
0000
0000
0010
0000
0100
0000
1000
0010
0000
0000
,
0002
0203
0010
0310
,
0001
0100
0000
0000
0010
0100
0000
0000
1000
0000
0001
0000
0100
1000
0000
0000
,
0100
0000
0010
1000
0001
0000
0010
0000
,
1000
0000
0100
0000
0001
0000
0000
0000
0100
0000
0001
0000
1000
0000
0010
0001
,
1000
0000
0010
1000
0001
0100
0010
0000
,
0001
0100
0010
1000
1000
0010
1000
0000
,
0001
0000
0100
0010
0100
0000
0001
0010
,
1000
0001
0010
0100
0001
0001
0010
0000
,
0001
0000
0100
0010
0001
0000
0010
0100
,
0001
0010
1000
1000
0010
1000
0100
0000
,
0010
0000
1000
0100
0010
0000
2000
0000
,
0000
0000
3001
0010
0100
0000
0002
0000
,
0013
0000
0000
0001
0100
0010
1000
0000
0000
1000
0100
0010
,
0001
0000
0000
0001
0100
0010
1000
0000
0000
1000
0010
0100
,
0001
0000
0000
0001
1000
0001
1000
0000
0000
1000
0001
1000
,
0001
0100
1000
0010
1000
0000
0010
0000
,
1000
0000
0100
0010
0100
0001
0010
1000
,
0100
0000
1000
0001
0100
0001
0100
0010
,
1000
0000
0010
0000
0100
0000
1000
0001
,
1000
0000
0100
0000
0100
0000
0001
0200
,
0000
0000
0000
0000
,
0000
0000
0000
0000
,
0301
0010
0100
1000
0100
0010
0001
0000
,
1000
0100
0010
0001
0110
0001
0001
0001
,
0001
0010
0100
1000
0100
0010
0001
0000
,
1000
0100
0010
0001
1001
0000
0000
0000
,
1000
0100
0010
0001
0010
0100
1000
0000
,
0001
0010
0100
1000
0110
1000
1000
1000
,
1000
0100
0010
0001
0010
0100
1000
0000
,
0001
0010
0100
1000
1001
0000
0001
0100
,
0000
0000
0010
0100
0000
0000
0100
0010
,
1000
0000
0010
0000
0100
0000
0001
0100
,
0000
0000
0100
0001
0000
0000
1000
0010
,
0100
0000
0010
0000
0001
0000
0010
0100
,
0000
0000
0010
1000
0000
0000
1000
0010
,
0000
0000
0000
0010
0000
0000
1000
0000
0001
0000
0000
0000
0100
0000
0001
0000
,
0000
0000
0010
0100
0000
0000
0010
0100
,
0001
0000
1000
0000
0001
1000
0001
1000
,
0100
0100
0010
0010
1000
0100
1000
0000
,
1000
1000
0001
0001
0010
1000
0100
0000
,
0010
0010
1000
1000
0001
0100
0010
0000
,
0001
0001
0100
0100
1000
0010
0001
0000
,
0010
0001
0010
0100
1000
0010
0100
1000
,
0010
1000
0001
0100
0000
0100
0010
0100
,
0001
0010
0100
0010
0100
1000
0001
1000
,
0100
0100
0200
0001
,
0020
0000
0000
0000
,
0000
0000
0000
0000
,
0000
0000
0000
0000
,
0000
0000
0000
0000
,
0330
0000
0000
0000
0000
1000
0001
0000
;
