#TITLE:Serious?;
#SUBTITLE:;
#ARTIST:KSUKE;
#TITLETRANSLIT:;
#SUBTITLETRANSLIT:;
#ARTISTTRANSLIT:;
#GENRE:Festival Trap;
#CREDIT:PWG;
#MUSIC:Serious.ogg;
#BANNER:Serious.png;
#BACKGROUND:Serious-bg.png;
#CDTITLE:Serious-jacket.png;
#SAMPLESTART:28.800;
#SAMPLELENGTH:19.200;
#SELECTABLE:YES;
#OFFSET:0.000;
#BPMS:0.000=150.000;
#STOPS:;
#BGCHANGES:0.000=Serious.mp4=1.000=0=0=0=StretchNoLoop====,
99999.000=-nosongbg-=1.000=0=0=0=StretchNoLoop====
;
#FGCHANGES:;

//--------------- dance-single - PWG ----------------
#NOTES:
     dance-single:
     PWG:
     Beginner:
     6:
     0,0,0,0,0:
0000
0000
0000
0000
,
0000
0000
0000
0000
,
1000
0000
0001
0000
,
2000
0000
3002
0000
,
1003
0001
2000
0000
,
3001
1000
0001
0000
,
1000
0000
0100
0000
,
0010
0000
0001
0000
,
1000
1000
0001
0000
,
0001
0001
1000
0000
,
1000
0100
1000
0100
,
0001
0010
0001
0010
,
1000
0000
0010
0000
,
0001
0000
0100
0000
,
1000
0100
0010
0001
,
1000
0100
0010
0001
,
2002
0000
0000
0000
0000
0000
0000
3003
,
0100
0100
0001
0001
,
1000
0000
1000
0000
1000
0100
1000
0000
,
0001
0000
0001
0000
0001
0010
0001
0000
,
1000
0000
1000
0000
,
1000
0100
0010
0001
,
1000
1000
0001
0000
,
0001
0010
0001
0000
,
1000
0100
1000
0000
,
1000
0001
1000
0001
,
1000
1000
0001
0001
,
2000
0000
0000
3000
0020
0000
0000
0030
,
0002
0000
0000
0003
0200
0000
0000
0300
,
0001
0100
1000
0001
,
1000
0100
1000
0000
1000
0000
1000
0000
,
0001
0010
0001
0000
0001
0000
0001
0000
,
1000
0100
1000
0010
,
1000
0001
1000
0010
,
0001
0100
0001
1000
,
0001
0100
0001
0010
,
1000
0000
0010
0000
,
0001
0000
0100
0000
,
1000
1000
1000
1000
,
0001
0001
0001
0001
,
1000
0000
1000
0000
,
0001
0000
0001
0000
,
1000
0000
0100
0000
,
0010
0000
0001
0000
,
1001
0000
0000
0000
,
1001
0000
0000
0000
,
1100
0000
0000
0000
,
0011
0000
0000
0000
,
1001
0000
0000
0000
,
1000
0100
0010
0001
,
1000
0100
0010
0001
0001
0000
0001
0000
,
0001
0010
0100
1000
1000
0000
1000
0000
,
1000
0100
1000
0100
,
0001
0000
0010
0000
0001
0001
0010
0000
,
2000
0000
3100
0000
,
0002
0000
0013
0000
,
1000
0100
0010
0001
,
0010
0100
1001
0000
,
1000
0000
0000
0000
0001
0000
0000
1000
,
0100
0010
0001
1000
,
0001
0010
1000
0100
,
0010
0100
1000
0100
,
0001
0000
0100
0000
,
0001
0100
0001
0000
,
0001
0000
1000
0000
,
0010
1000
0100
0100
,
2002
0000
0000
0000
,
0000
0000
0000
0000
,
0000
0000
0000
0000
,
3003
0000
0000
0000
,
1001
0000
0000
0000
0000
0000
0000
1000
,
0001
0000
0000
0000
,
0001
0000
0000
0000
,
1000
0000
0000
0000
,
0022
0000
0033
0000
,
2200
0000
3300
0000
,
1000
0000
0100
0000
,
0010
0000
0001
0000
,
1000
0100
0010
0001
,
1000
0100
0010
0001
,
0001
0010
0100
1000
,
0001
0010
0100
1000
,
1000
0000
1000
0000
,
0001
0000
0001
0000
,
2000
0000
0000
0000
,
3002
0000
0000
0000
,
0103
0100
0001
0000
,
0100
0100
0001
0000
,
0010
0010
1000
0000
,
0010
0010
1000
0000
,
0100
0100
1000
0000
,
0100
0100
1000
0000
,
0010
0010
0001
0000
,
0010
1000
0101
1010
,
1000
1000
0001
0001
,
1000
0100
1000
0000
0001
0010
0001
0000
,
1000
0000
0001
0000
,
0200
0320
0031
0000
,
0200
0000
1300
0000
,
2000
0100
3010
0000
,
0002
0000
0000
0000
2000
0000
0000
0003
,
0001
0000
0000
3000
1000
0000
0000
0000
,
1000
0100
0010
0001
,
1000
0100
0010
0001
,
0001
0010
0100
1000
,
0001
0010
0100
1000
,
2002
0000
0000
0000
0000
0000
0000
3003
,
1000
0000
0001
0000
,
2000
0000
0000
3000
0200
0000
0000
0300
,
0020
0000
0000
0030
0002
0000
0000
0003
,
2002
0000
0000
0000
,
3003
0000
0000
0000
;

//--------------- dance-single - PWG ----------------
#NOTES:
     dance-single:
     PWG:
     Easy:
     9:
     0,0,0,0,0:
0000
0000
0000
0000
,
0000
0000
0000
0000
,
1000
0001
1000
0001
,
0010
0100
0010
0100
,
1000
0010
1000
0010
,
0001
0100
0001
0100
,
1100
1000
0100
0010
,
0011
0001
0010
0100
,
1001
1000
0001
1000
,
1001
0001
1000
0001
,
1000
0100
1000
0000
1000
0000
1000
0000
,
0001
0010
0001
0000
0001
0000
0001
0000
,
0010
0100
0010
0000
0010
0000
0010
0000
,
0100
0010
0100
0000
0100
0000
0100
0000
,
1000
0100
0010
0001
0000
0000
0110
0000
,
0001
0010
0100
1000
0000
0000
0110
0000
,
1001
1001
1001
1001
,
1000
0100
0010
0001
,
1000
0000
0100
0000
,
0010
0000
0001
0000
,
1100
0000
0011
0000
,
2002
0000
0000
0000
0000
0000
0000
3003
,
0001
0010
0001
0010
,
1000
0100
0010
0001
,
1000
0100
1000
0100
,
1000
0100
0010
0001
,
1000
0100
1000
0000
0100
0000
0010
0000
,
0001
0010
0001
0000
0010
0000
0100
0000
,
1001
1001
0110
0110
,
1000
0100
0010
0001
1000
0000
0001
0000
,
2000
3000
1000
0000
0002
0003
0001
0000
,
2000
3100
0200
0310
0020
0031
0002
1003
,
1001
0000
1001
0000
1000
0100
0010
0001
,
1000
1000
0001
0001
,
1001
0000
0000
1100
,
0011
0000
0000
0110
,
1000
0001
0010
1000
,
0100
0001
1000
0010
,
1000
0100
1000
0000
1000
0100
1000
0000
,
0001
0010
0001
0000
0001
0010
0001
0000
,
1000
0100
0010
0000
0001
0010
0100
0000
,
1000
0100
0010
0001
0010
0100
1000
0000
,
1100
0000
0000
0000
,
1010
0000
0000
0000
,
0011
0000
0000
0000
,
0101
0000
0000
0000
,
1000
0000
0100
0000
,
0001
0000
0100
0000
,
1000
0100
0010
0001
,
1000
0100
1000
0100
1000
0100
1001
0000
,
1001
0000
1000
0100
1001
0000
0001
0100
,
1000
0100
0010
0001
0001
0010
0100
1000
,
2000
0000
0100
0010
0100
0000
0001
0000
,
3002
0000
0000
0000
1000
0100
0010
0000
,
1003
1000
0100
0000
0001
0001
0010
0000
,
1000
0100
0001
0010
,
1100
1100
0011
0011
,
1000
0000
0001
0000
0010
0100
0000
0000
,
0000
0000
0000
0000
1100
0000
0000
0100
,
0100
1000
0000
1000
0000
1000
0100
0010
,
0001
0010
0100
1000
,
0001
0010
0001
0000
0001
0010
0100
0000
,
1000
0100
0010
0000
1000
0010
0100
0000
,
0010
0100
0010
0100
,
0001
0010
0100
0000
1000
0100
0010
0000
,
1100
0000
0011
0000
,
2000
0000
0000
0000
,
0000
0000
0000
0000
,
3000
0000
0000
0000
,
0000
0000
0000
0000
,
0001
0000
0000
0000
0000
0000
0000
0001
,
1000
0000
0000
0000
,
1000
0000
0000
0000
,
1000
0100
0100
0001
,
0010
0000
0000
0000
0000
0000
0000
1000
,
0100
0000
0000
0000
,
0001
0000
0000
0000
,
1000
0001
1000
0000
0001
1000
0001
0000
,
1000
1000
1000
1000
,
0001
0001
0001
0001
,
0100
0100
0001
1000
,
0100
0100
0001
1000
,
1100
0100
0010
0001
,
0011
0001
0010
0100
,
1000
1000
0100
0100
,
0010
0010
0001
0001
,
1000
0100
1000
0000
0001
0010
0001
0000
,
0010
0100
0010
0000
0100
0010
0100
0000
,
1000
0100
0010
0001
0100
0000
0100
0000
,
0010
0010
1001
0000
,
1000
0001
0001
1000
,
1000
0001
1000
0001
,
1000
0100
1000
0100
1000
0100
1000
0100
,
1001
0000
1001
0000
1001
0000
2002
3003
,
1000
0000
0100
0000
0001
0010
0001
0000
,
0001
0000
0010
0000
1000
0100
1000
0000
,
1000
0100
0010
0001
0100
0000
0010
0000
,
0100
0010
1000
0001
0010
0000
0010
0000
,
1001
1000
0100
0010
,
1001
0001
0010
0100
,
1000
1000
0100
0000
0010
0010
0001
0000
,
1100
0000
0011
0000
,
1001
0100
1000
0000
1001
0010
0001
0000
,
1100
0100
0010
0001
0010
0100
1000
0000
,
0011
0001
0010
0100
0010
0100
0010
0100
,
1010
0101
1010
0101
,
1001
0000
1000
1000
0001
0001
1000
0001
,
1001
0000
1000
0100
0010
0001
0010
0100
,
1100
0011
0110
1001
,
1000
0100
1000
0100
0001
0010
0001
0010
,
2002
0000
0000
0000
,
3003
0000
0000
0000
;

//--------------- dance-single - PWG ----------------
#NOTES:
     dance-single:
     PWG:
     Medium:
     13:
     0,0,0,0,0:
0000
0000
0000
0000
,
0000
0000
0000
0000
,
1000
0100
0010
0001
,
1000
0010
0001
0100
,
1000
1000
0010
0010
,
0001
0001
0100
0100
,
1000
0100
1000
0100
1000
0000
1000
0000
,
0001
0010
0001
0010
0001
0000
0001
0000
,
1000
0100
1000
0100
,
0001
0010
0001
0010
,
1000
0100
0010
0001
1000
0100
0010
0001
,
1000
0100
1000
0100
0001
0010
0001
0010
,
1000
0100
1000
0000
0001
0010
0001
0000
,
1000
0001
1000
0001
0010
0100
1000
0001
,
1000
1000
0001
0001
1000
1000
0001
0001
,
0100
0100
0010
0010
0100
0100
0010
0010
,
1000
0100
1000
0100
0001
0010
0001
0010
,
1100
0110
0011
1001
,
1000
0000
1000
0100
0010
0100
1000
0100
,
0001
0000
0001
0010
0100
0010
0001
0010
,
0001
0000
0100
0010
0100
1000
0100
0010
,
1001
0000
0110
0100
0010
0001
1000
1000
,
0002
0000
0010
0100
0010
1000
0100
0010
,
2003
0000
0100
0010
0100
0001
0010
0001
,
3011
0000
1100
0100
0010
0100
0010
0100
,
1100
0000
0011
1000
0100
0010
0100
0010
,
1000
0000
1000
0100
0010
0100
0010
0100
,
0001
0000
0001
0010
0100
0010
0100
0010
,
1001
0000
1001
0100
0010
0100
0010
0100
,
0110
0000
0110
1000
0001
1000
0001
1000
,
1100
0000
0100
0010
0001
0010
0100
0000
,
0011
0000
0010
0100
1000
0100
0010
0001
,
1000
0000
1000
1000
0001
0001
0100
0010
,
0001
0000
0001
0001
1000
1000
0010
0100
,
1000
0100
1000
0000
1000
0000
0100
0000
0010
0000
0001
0000
0010
0000
0100
0000
,
0001
0010
0001
0000
0001
0000
0010
0000
0100
0000
1000
0000
0100
0000
0010
0000
,
1000
0100
1000
0100
0001
0010
0001
0010
,
1000
0100
0010
0001
1001
0000
1001
0000
,
1000
0100
1000
0100
,
0001
0010
0001
0010
,
0100
0100
0001
0001
,
0010
0010
1000
1000
,
1001
0100
0010
0100
1001
0010
0100
0010
,
1100
0001
0010
0001
0011
1000
0100
1000
,
1100
0000
0011
0100
0010
0100
0010
0000
,
1000
0100
1000
0100
0001
0010
0001
0010
,
0001
0010
0100
1000
0001
0010
0100
1000
,
1000
0001
1000
0001
1000
0001
1000
0001
,
1001
1001
1001
1001
,
1100
0011
0110
1001
,
1000
0100
1000
0100
0001
0010
0001
0010
,
1000
0100
1000
0000
0110
0000
0110
0000
0001
0010
0001
0000
1001
0000
1001
0000
,
0010
0010
0100
0100
1000
1000
0001
0001
,
1000
0100
1000
0100
1100
0110
0022
0033
,
0001
0010
1000
0100
1000
0100
0001
0010
,
1001
0100
0010
0100
0110
0001
1000
0001
,
1100
0000
0011
0000
1000
0100
0010
0001
,
1000
0000
0100
0000
1000
0000
0110
0000
0001
0000
0010
0000
0001
0010
0100
1000
,
0000
0000
1001
0000
,
0101
0001
0100
1000
1010
1000
0010
0001
,
1000
0100
0010
0100
1000
0001
0010
0100
,
0001
0010
0100
0010
0001
1000
0100
0010
,
1000
0001
1000
0010
0001
1000
0001
0100
,
1000
1000
0001
0001
1000
1000
0001
0001
,
0100
0010
1000
0001
0010
0100
0001
1000
,
1000
0000
0100
0000
1000
0100
1000
0000
0001
0000
0010
0000
0001
0010
0001
0000
,
2002
0000
0000
0000
,
0000
0000
0000
0000
,
3003
0000
0000
0000
,
0000
0000
0000
0000
,
1100
0000
0000
0000
0000
0000
0000
0011
,
0100
0000
0000
0100
0000
0000
0100
0000
0000
0000
0000
0000
0000
0000
0000
0000
,
1000
0000
0000
0000
,
1000
0000
0000
1000
0000
0000
1000
0000
0001
0000
0000
0001
0000
0000
0001
0000
,
0110
1000
0001
1000
,
0110
0001
1000
0001
,
1100
1100
0011
0011
,
1000
0000
0000
1000
0000
0000
1000
0000
0001
0000
0000
0001
0000
0000
0001
0000
,
1000
0100
0010
0001
0010
0100
1000
0100
,
1000
0001
0010
0100
0001
1000
0100
0010
,
1000
1000
0001
0001
0100
0010
0001
1000
,
1000
0100
0010
0001
0001
0010
0100
1000
,
1000
0100
1000
0100
0001
0010
0001
0010
,
0100
0010
0100
0010
0010
0100
0010
0100
,
1000
0010
1000
0010
0001
0100
0001
0100
,
1000
0100
0010
0001
1000
0100
0010
0001
,
1001
1000
0100
0010
1001
0001
0010
0100
,
1100
1000
0100
0010
0011
0001
0010
0100
,
1100
0011
0110
1001
,
1010
0101
1001
0110
,
1000
0100
1000
0000
0000
0000
0000
0000
0001
0010
0001
0000
0000
0000
0000
0000
,
0010
0100
0010
0000
0000
0000
0000
0000
0100
0010
0100
0000
0000
0000
0000
0000
,
1000
0010
1000
0010
0001
0100
0001
0100
,
1001
1001
1001
0220
,
1330
0001
1000
0001
0010
0100
1000
0100
,
0001
0010
0001
0001
1000
0100
1000
0100
,
1000
1000
0010
0010
0100
0100
0001
0001
,
1000
0100
1000
0100
0010
0001
0010
0001
,
1001
0000
1000
0000
1000
0100
1000
0000
1001
0000
0001
0000
0001
0010
0001
0000
,
1001
0000
1000
0100
0010
0000
0001
0000
0001
0000
0001
0000
0100
0010
0100
0000
,
1001
1000
1100
0100
0110
0010
0011
0010
,
1001
1000
0100
0010
0001
0110
2002
3003
,
1000
0000
0010
0100
0100
0100
0001
0001
,
0010
0000
0000
0000
0001
0000
0100
0000
1000
0100
1000
0000
0010
0000
0100
0000
,
1000
0000
1000
0100
0100
0001
0010
1000
,
1001
0000
0000
0000
1100
0000
0100
0000
0001
0010
0001
0000
0001
0000
0100
0000
,
1001
1000
0001
0100
,
1001
0000
0001
0100
0010
0100
0001
1000
,
1001
1100
0011
0110
,
1001
1010
0101
1001
,
0220
0000
0000
0000
0000
0000
0000
0330
;

//--------------- dance-single - PWG ----------------
#NOTES:
     dance-single:
     PWG:
     Hard:
     15:
     0.751291,1.015951,0.505259,0.081493,0.350422,968,875,93,15,0,1,0.751291,1.015951,0.505259,0.081493,0.350422,968,875,93,15,0,1:
0000
0000
0000
0000
,
0000
0000
0000
0000
,
1000
1000
0001
0001
,
1000
1000
0001
0001
,
1000
0001
1000
0001
,
0100
0010
0100
0010
,
1000
0100
1000
0100
0001
0010
0001
0010
,
0100
0010
0100
0010
1000
0100
0010
0001
,
1000
1000
0001
0001
0100
0100
0010
0010
,
2002
0000
0000
3003
,
1000
0100
1000
0100
1000
0100
1000
0100
,
0001
0010
0001
0010
0001
0010
0001
0010
,
1000
0100
1000
0100
1000
0100
1000
0100
,
0001
0010
0001
0010
0001
0010
0001
0010
,
0001
0010
0001
0000
0001
0000
0001
0000
1000
0100
1000
0000
1000
0000
1000
0000
,
0100
0000
0010
0000
0100
0000
0010
0000
0001
0000
0001
1000
0001
0000
1000
0000
,
0001
0000
0001
1000
0001
0000
1000
0000
0000
0000
0000
0000
0000
0000
0000
0000
,
1100
0011
1010
0101
,
1000
0000
1000
1000
0001
0001
1000
0001
,
0100
0000
0010
0100
0010
0010
0100
0100
,
1000
0000
0001
0100
0010
1000
0100
0010
,
0001
0000
0001
0010
0100
0010
0110
0110
,
1000
0000
0100
0000
1000
0000
0100
0000
0001
0010
0001
0010
0001
0000
0010
0000
,
0001
0000
0010
0000
0001
0000
0010
0000
1000
0100
1000
0100
1000
0000
0100
0000
,
1000
0001
0000
0110
0220
0000
0330
1001
,
1000
0100
1000
0000
0001
0010
0001
0000
1000
0000
0100
0000
0010
0000
0001
0000
,
0001
0010
0100
1000
1000
0001
1000
0001
,
1000
0000
0100
0000
0100
0010
0100
0000
0001
0000
0010
0000
0010
0100
0010
0000
,
1000
0100
0010
0100
1000
0100
0010
0100
,
0001
0010
0100
0010
0001
0010
0100
0010
,
1000
0000
0100
0000
1000
0100
1000
0000
0001
0000
0010
0000
0001
0010
0001
0000
,
1001
0000
0110
0000
1100
1000
0011
0001
,
1000
0000
0100
0000
1000
0100
1000
0000
0001
0000
0010
0000
0001
0010
0001
0000
,
0000
1000
0100
1000
0100
0001
0010
0100
,
1000
0001
0010
0001
0010
1000
0100
0010
,
0001
0010
0100
1000
0001
0010
0100
1000
0000
0000
0001
0000
0001
0000
0000
0000
,
1000
0000
1000
1000
1000
1000
1000
1000
,
0001
0000
0001
0001
0001
0001
0001
0001
,
2000
0000
0000
0000
3100
0000
0001
0000
0001
0000
1000
0100
1000
0000
0010
0000
,
0020
0000
0000
0000
0031
0000
0010
0000
1000
0000
1000
0100
1000
0000
0010
0000
,
0020
0000
0000
0000
1030
0000
0100
0000
0010
0000
0001
0010
0001
0000
1000
0000
,
0020
0000
0000
0000
1030
0000
0100
0000
0010
0100
0010
0100
0010
0000
0001
0000
,
1000
0001
1000
0001
0010
1000
0100
0001
,
0010
0100
0010
0100
0010
0001
1000
0010
,
1000
0000
0100
0000
0001
0000
0010
0000
1000
0100
1000
0100
0001
0000
0001
0000
,
0000
0001
0100
1001
0010
0010
1000
0001
,
0100
0000
1001
0000
0100
0010
0100
0010
0001
0000
0001
0000
1000
0010
1000
0010
,
0001
0100
0001
1000
0110
0000
1100
0000
,
0011
0101
0110
1010
,
1010
0001
1010
0100
1010
0101
2002
0000
,
3103
0000
0100
0010
0001
0000
0001
0000
0010
0000
0010
0100
1000
0000
1000
0000
,
1000
0000
1000
0100
1000
0000
1000
0000
0001
0000
0001
0010
0001
0000
0001
0000
,
1000
0000
0100
0010
0001
0000
0001
0000
0001
0000
0001
0010
0100
0000
1000
0000
,
1000
0000
1000
0100
1000
0000
0100
0000
0001
0000
0001
0010
0001
0000
0010
0000
,
1000
0100
0010
0001
1000
0000
0100
0000
0001
0000
0100
0000
0001
0000
0010
0000
,
1000
2000
0001
3002
1000
1003
0001
0001
,
1001
0000
0000
1001
0000
0000
1001
0000
0110
0000
0000
0110
0000
0000
0110
0000
,
1100
0000
0000
1100
0000
0000
1100
0000
0011
0000
0000
0011
0000
0000
0011
0000
,
1100
0100
0011
0010
0110
0110
1001
0000
,
1000
0100
1000
0100
0001
0010
0001
0010
,
0100
0100
0010
0010
1000
1000
0001
0001
,
1100
1000
1000
1000
0011
0001
0001
0001
,
1000
0000
0100
0000
1000
0000
0100
0000
0001
0010
0001
0010
0001
0000
0010
0000
,
0001
0000
0010
0000
0001
0000
0010
0000
1000
0100
1000
0100
1000
0000
0100
0000
,
1000
0100
1000
0100
0001
0010
0001
0010
0100
0000
0010
0000
0001
0000
0100
0000
,
1000
0010
0001
0001
0100
0010
0100
0010
,
1000
0100
1000
0100
0001
0010
0001
0010
,
1000
0100
0010
0001
1000
0100
0010
0001
,
1000
1000
0001
0001
1000
1000
0001
0001
,
0100
0100
0010
0010
0100
0100
0010
0010
,
2000
0000
0000
0000
0000
0000
3000
1000
,
0100
0000
0000
0100
0000
0000
0200
0000
0000
0000
0000
0000
0000
0000
0300
0000
,
0002
0000
0000
0000
0000
0003
0000
0000
,
1000
0000
0000
1000
0000
0000
1000
0000
0001
0000
0000
0001
0000
0000
0001
0000
,
2000
0000
0000
0000
0000
0000
0000
0100
,
0010
0000
0000
0010
0000
0000
0010
0000
0000
0000
0000
0000
0000
0000
3000
0000
,
0002
0000
0000
0000
,
0010
0000
0000
0010
0000
0000
0010
0000
0100
0000
0000
0100
0000
0000
0103
0000
,
1000
0100
1000
0100
1000
0100
1000
0100
,
1000
0100
1000
0010
1000
0010
1000
0010
,
1000
0010
0001
0010
0001
0010
0001
0010
,
0001
0010
0001
0100
0001
0100
0001
0100
,
0001
0010
0001
0100
0001
1000
0001
0100
,
1000
0100
1000
0010
1000
0001
1000
0010
,
1000
0100
0010
0001
1000
0100
0010
0001
,
0001
0010
0100
1000
0001
0010
0100
1000
,
1000
1000
0001
0001
1000
1000
0001
0001
,
1000
0010
1000
0010
0001
0100
0001
0100
,
1100
0110
0011
0110
,
1100
0011
1010
0101
,
1000
0001
0100
0010
1000
0001
0100
0010
,
0001
1000
0010
0100
0001
1000
0010
0100
,
1000
0100
1000
0100
0001
0010
0001
0010
,
1001
1001
1001
1001
,
1000
1000
0001
0001
1000
0001
1000
0001
,
1000
0100
0010
0001
1000
0100
0010
0001
,
0001
0010
0100
1000
0001
0010
0100
1000
,
0001
0001
0010
0010
0100
1000
0100
1000
,
0001
0001
1000
1000
0010
0100
0010
0100
,
1000
0000
1000
0000
0001
0000
0001
0000
0100
0010
0100
0000
0100
0000
0010
0000
,
1000
1000
0001
0001
1000
1001
1000
0001
,
0001
0001
1000
1000
0001
1001
0001
1000
,
1001
1000
0100
0010
1001
0001
0010
0100
,
1100
1000
0010
1000
0011
0001
0100
0001
,
1000
0100
0010
0001
1000
0100
0010
0001
,
0001
0010
0100
1000
0001
0010
0100
1000
,
1001
0000
1000
0010
0001
0100
1001
0001
,
0110
1000
0100
0001
0010
1000
0100
0010
,
0100
0010
1000
0010
0100
0010
1000
0000
,
0011
0011
0011
0011
,
2002
0000
0000
0000
0000
0000
0000
3003
0000
0000
0000
0000
0000
0000
0000
0000
;
