#TITLE:サイコグラム;
#SUBTITLE:;
#ARTIST:DECO*27;
#TITLETRANSLIT:;
#SUBTITLETRANSLIT:;
#ARTISTTRANSLIT:;
#GENRE:;
#CREDIT:PWG;
#MUSIC:Psychogram.ogg;
#BANNER:Psychogram-bn.png;
#BACKGROUND:Psychogram-bg.png;
#CDTITLE:;
#SAMPLESTART:30.058;
#SAMPLELENGTH:15.000;
#SELECTABLE:YES;
#OFFSET:-0.058;
#BPMS:0.000=128.000;
#STOPS:;
#BGCHANGES:;
#FGCHANGES:;

//--------------- dance-single - PWG ----------------
#NOTES:
     dance-single:
     PWG:
     Beginner:
     4:
     0,0,0,0,0:
0000
0000
0000
0000
,
0000
0000
0000
0000
,
1000
0001
2000
0000
,
3000
0001
1001
0000
,
0001
1000
0002
0000
,
0003
1000
0110
0000
,
0010
0100
0020
0000
,
0030
0110
1001
0000
,
0001
0001
1000
0000
,
1000
1000
0010
0000
,
0010
0010
0100
0000
,
0100
0100
0001
0000
,
1001
1000
0100
1000
,
0110
0100
0001
0000
,
0001
0100
0010
1000
,
0100
1000
0010
0000
,
1001
0000
0000
0001
2000
0000
0000
0000
,
3000
1000
0010
0000
,
0100
0000
0001
0000
,
1000
0000
0010
0000
,
1001
0000
0000
1000
0002
0000
0000
0000
,
0003
0100
0001
0000
,
0010
0000
0100
0000
,
0001
1000
0010
0000
,
1000
0100
0010
0000
,
0001
0000
0001
0000
,
0001
0010
0100
0000
,
1000
0000
1000
0000
,
1000
0010
0100
0000
,
0001
0000
0001
0000
,
0001
0010
1000
0000
,
0100
0010
0100
0000
,
0001
0000
0000
1000
0010
0000
0000
0000
,
0001
0000
0000
0001
0100
0000
0010
0000
,
0100
0100
0010
0010
,
1000
0001
2000
0000
,
3001
0000
0000
0100
0010
0000
0000
1000
,
0001
1000
0010
0000
,
0001
0000
0020
0000
,
0031
0000
0010
0000
,
1000
1000
0010
0000
,
1000
0000
0100
0000
,
0001
0001
0010
0000
,
0001
0000
1000
0000
,
0010
0000
0100
0000
,
1001
1000
1001
0001
,
1000
0001
0200
0000
,
0300
0001
1000
0000
,
1000
0001
0020
0000
,
0030
1000
0010
0000
;

//--------------- dance-single - PWG ----------------
#NOTES:
     dance-single:
     PWG:
     Easy:
     6:
     0,0,0,0,0:
0000
0000
0000
0000
,
0000
0000
0000
0000
,
0001
0100
0010
0000
,
0000
0000
0010
0000
0000
0010
0000
0000
1000
0000
0000
0000
0000
0000
0000
0000
,
1000
0001
0100
0000
,
0000
0000
0001
0000
0000
0001
0000
0000
1000
0000
0000
0000
0000
0000
0000
0000
,
0010
0100
0001
0000
,
0000
0000
1001
0000
0000
1001
0000
0000
2002
0000
0000
0000
0000
0000
3003
0000
,
0100
0000
0010
0000
1000
0001
1000
0000
,
0010
0000
0100
0000
0010
0100
0010
0000
,
1000
0000
0001
0000
1000
0100
1000
0000
,
0010
0100
0001
0000
,
0001
0000
1000
0000
0001
0010
0001
0000
,
0100
0010
1000
0000
,
0001
0000
0000
0001
1000
0000
0000
1000
,
0010
0100
0002
0003
,
1001
0000
0110
0000
0001
0100
0010
0000
,
1000
0000
0001
0000
0100
0010
1000
0000
,
0001
0000
0000
0001
0100
0000
0010
0000
,
1000
0000
0001
0000
1000
0000
1000
0001
,
0100
0000
0001
0000
0000
0001
1000
0000
,
0010
1000
0100
0010
0000
0010
1000
0000
,
0100
0000
0010
0001
0000
0001
0100
0000
,
1000
0010
0001
1000
,
0010
0010
0200
0300
,
0001
0001
2000
3000
,
0100
0010
0002
0003
,
0010
0000
0100
0000
2000
3000
0002
1003
,
0010
0010
1000
0000
,
0001
0100
0010
0000
1000
0000
0000
0000
,
0001
0000
0000
0010
0100
0000
0000
0100
,
1000
0010
0100
0000
,
1000
0010
1000
0100
,
1000
0010
0110
0110
,
0001
1000
0100
0010
,
0100
0010
1001
1001
,
0001
0000
0000
0000
0000
0000
0001
0000
0200
0000
0000
0000
0000
0300
1000
0000
,
0020
0000
0000
0030
1000
0000
0000
0000
0100
0000
0000
0000
1000
0000
0000
0000
,
0010
0010
0100
0100
,
1001
0000
0000
0001
0100
0000
0000
1000
,
0100
0000
0000
1000
0010
0000
0000
0000
,
1001
0000
0110
0000
,
0010
0100
0001
0000
,
0001
0100
0010
0000
,
1000
0010
0100
0000
,
0001
0001
1000
1000
,
1001
0110
1001
0010
,
0000
0000
0100
0000
0000
0100
0000
0000
0001
0000
0000
0000
0000
0000
0000
0000
,
0110
1001
0110
0001
,
0000
0000
1000
0000
0000
0010
0000
0000
0100
0000
0001
0000
0100
0000
0000
0000
;

//--------------- dance-single - PWG ----------------
#NOTES:
     dance-single:
     PWG:
     Medium:
     10:
     0,0,0,0,0:
0000
0000
0000
0000
,
0000
0000
0000
0000
,
0011
1100
0001
1000
,
0000
0000
0010
0000
0000
0001
0000
0000
0010
0000
0001
0000
1000
0000
0000
0000
,
1010
0101
0001
0100
,
0000
0000
0010
0000
0000
1000
0000
0000
0001
0000
1000
0000
0010
0000
0000
0000
,
0100
1000
0001
1000
,
0010
0000
1000
0000
0000
0001
0000
0000
0001
0000
0100
0000
0100
0000
0001
0000
,
1000
0100
0010
0000
0100
0001
1000
0000
,
0010
0000
1000
0000
0001
0000
0100
0000
0010
0000
0000
1000
0100
0000
0000
0000
,
1000
0010
0100
0000
0001
0100
0010
0000
,
1000
0000
0100
0000
1000
0000
0010
0000
0100
0000
0000
0100
0010
0000
0000
0000
,
0001
1000
0010
0000
1000
0100
1000
0000
,
1000
1000
0100
0100
0001
0100
0010
0000
,
1000
0001
1000
0000
0010
0100
0001
0000
,
0001
0000
1000
0000
0010
0000
1000
0000
0100
0000
0000
0000
0000
0000
0200
0300
,
0002
0003
0020
0030
0200
0300
0002
0003
0200
0300
0020
0030
2000
3000
0200
0300
,
2000
3000
0020
0030
2000
3000
0002
0003
0200
0300
0020
0030
0200
0300
0002
0003
,
2000
3000
0000
0000
0000
0000
0020
0030
0002
0003
0000
0000
1000
0000
0010
0000
,
0000
0000
0001
0000
1000
0000
0010
0000
1000
0000
0000
0000
0000
0000
0200
0300
,
0020
0030
0200
0300
0002
0003
2000
3000
0020
0030
2000
3000
0200
0300
2000
3000
,
0020
0030
0200
0300
0002
0003
0200
0300
0020
0030
2000
0000
3002
0003
0200
0300
,
0002
0003
0000
0000
0000
0000
0020
0030
2000
3000
0000
0000
1000
0000
0001
0000
,
0000
1000
0001
0010
1000
0000
0000
0000
,
0010
1000
0100
1000
0010
0100
0001
1100
,
0000
0100
0001
1000
0010
0000
1000
0000
,
0001
0010
1000
0010
0001
1000
0100
1000
,
0000
1000
0100
1000
0011
0000
1001
0000
,
0001
0100
0010
1000
0001
1000
0010
0100
,
0001
0100
0010
1000
0100
1000
0010
0000
,
0001
0010
0001
0010
,
0100
1000
0010
0100
0001
0001
1001
0000
,
0010
1000
0000
0010
0100
0001
0000
0100
,
0010
1000
0100
0010
1000
0001
0100
0000
,
0001
0100
1000
0100
0001
0010
0100
1000
,
0001
1000
0001
0010
1000
0010
0001
0000
,
1001
0100
0010
0100
0001
0000
0010
0000
,
0100
1000
0010
0100
0001
0000
0001
0000
,
1001
0100
1010
0000
1001
0010
0101
1000
,
0001
0000
0100
0001
1000
0000
0010
1000
,
0001
0010
0100
0001
1000
0000
0010
0000
,
1000
0100
0010
0100
0001
0000
1000
0010
,
1000
0000
0000
0001
0000
0000
1000
0000
0010
0000
0000
0000
0100
0000
0000
0000
,
0001
1000
0010
0000
1000
0001
0100
0000
,
0001
0000
0000
0001
0000
0000
0010
0000
0100
0000
0001
0000
1000
0000
0000
0000
,
0110
0110
1001
1001
,
0010
0010
0100
0001
,
0010
0000
0001
0000
0000
0001
0000
0000
0100
0000
0000
0000
0010
0000
0000
0000
,
1000
0001
0100
0010
,
1000
0000
0001
0000
0000
0001
0000
0001
1000
0000
0010
0000
1000
0000
0000
0000
;

//--------------- dance-single - PWG ----------------
#NOTES:
     dance-single:
     PWG:
     Hard:
     13:
     0,0,0,0,0:
0000
0000
0000
0000
,
0000
0000
0000
0000
,
0000
0000
0000
0000
,
0000
0000
0000
0000
0000
0000
0000
0000
0000
0000
0000
0000
0000
0000
0000
0001
,
1000
0000
0000
0010
1000
0000
0000
0001
1000
0000
0000
0000
0010
0000
0000
0000
,
1000
0000
0100
0000
0000
0100
0000
0000
1000
0000
0010
0000
1000
0000
0000
1000
,
0001
0000
0000
0100
0001
0000
0000
1000
0001
0000
0000
0000
0001
0000
0000
0000
,
1000
0000
0010
0000
0000
0010
0000
0000
0100
0000
0001
0000
1000
0000
0000
0000
,
0001
0000
0100
0000
0010
0000
1000
0001
0000
0001
1000
0000
0100
0000
0010
0000
,
1000
0000
0001
0000
0100
0000
0010
1000
0100
0000
0000
0000
0001
0000
0000
0000
,
1000
0000
0010
0000
0100
0000
0100
0001
0000
0010
1000
0000
0010
0000
1000
0000
,
0100
1000
0010
0000
1000
0100
0001
0000
0100
0000
0000
0000
0010
0000
0000
0000
,
0100
0001
1000
0000
0010
1000
0100
0001
,
0010
1000
0001
0000
0100
1000
0010
0000
0100
0000
1000
0000
0001
0000
0000
0000
,
1000
0000
0010
0000
0100
0000
0100
0001
0000
0100
0010
1000
0001
0000
1000
0000
,
0010
0000
0101
0000
1010
0000
0100
2000
,
3020
0032
0203
0320
0230
2300
3002
0203
,
0320
0000
0032
0000
0203
0000
2300
0000
3020
0000
2030
0000
3002
0000
0200
0303
,
0020
0030
0000
0000
0000
0000
1000
0000
0010
0000
0000
0000
1000
0100
0001
0000
,
0100
0000
0010
0000
1000
0000
0001
1000
0000
1000
0010
1000
0010
0000
0200
0000
,
0302
2003
3020
0032
0203
2300
3002
0203
,
0320
0000
0230
0000
0302
0000
2003
0000
3020
0000
2030
0000
3002
0000
0020
0030
,
0203
0300
0000
0000
0000
0000
0010
0000
0100
0000
0000
0000
0000
0000
0001
1000
,
0010
0000
1000
0000
0001
0000
0100
0010
0000
0100
0001
1000
0010
0000
1000
0000
,
0100
0100
1000
0010
0100
0001
0100
0000
,
0001
0000
0001
0000
0010
0000
0001
0000
0100
0000
0010
1000
0100
0000
0000
0000
,
0010
0010
0100
0010
1000
0010
0001
0000
,
0001
0000
0100
0000
0010
0000
0010
1000
0001
0000
0010
0000
1000
0000
0100
1000
,
0010
0000
1000
0000
0001
0000
0100
0000
0010
0000
0010
0100
0000
0100
0001
0000
,
1000
0000
0010
0000
1000
0000
0100
1000
0010
0000
1000
0000
0001
0000
0010
0000
,
0100
0001
0100
0000
0010
1000
0100
0000
0010
0000
0100
0000
0001
0000
0010
0000
,
0101
0000
0010
0000
1100
0000
0010
1000
0001
0000
0000
0000
0110
0000
0000
0000
,
0001
1000
0010
1000
0200
0000
0320
0000
,
1030
0001
0100
0010
0200
0000
2300
0000
,
3001
0100
1000
0100
0001
0010
1000
0010
,
0001
1000
0010
0100
0010
0000
0010
0000
,
1000
0010
0100
0010
1000
0000
0010
0000
,
0001
0100
0010
0100
0001
0000
1000
0000
,
0010
0000
0010
1000
0000
0001
1000
0000
0010
0000
0100
0001
0000
0100
0010
0000
,
1000
0001
1000
0000
0010
0100
0001
0000
0100
0000
0010
0000
1000
0000
0001
0000
,
1000
0010
1000
0000
0100
1000
0010
0000
1000
0000
0101
0000
0110
0000
0001
0000
,
1000
0010
1000
0000
0100
1000
0010
0000
1000
0000
0001
0000
1000
0000
0010
0000
,
1000
0000
1000
0001
0000
0001
0100
0000
0010
0000
1100
0000
0101
0000
0001
0000
,
1000
0000
1000
0100
0010
0000
0001
0000
0100
0000
0010
0100
0001
0000
0100
0000
,
1010
0000
0001
0000
0110
0000
0001
0000
0100
0000
1000
0010
0001
0000
1000
0000
,
0010
0000
0010
1000
0000
1000
0001
0000
0100
0000
0010
0000
0100
0000
0000
0001
,
1000
0000
0000
0010
1000
0000
0000
0001
1000
0000
0010
0000
0100
0000
0001
0000
,
1000
0000
0010
0000
0000
0010
0000
0000
0100
0000
0001
0000
1000
0000
0000
1000
,
0001
0000
0000
1000
0010
0000
0000
1000
0001
0000
0000
0000
0010
0000
0100
0000
,
0001
0000
1000
0000
0010
1000
0000
1000
0100
1000
0010
0100
0001
0000
0100
0000
;
