#TITLE:Onion+;
#SUBTITLE:;
#ARTIST:PinnochioP;
#TITLETRANSLIT:;
#SUBTITLETRANSLIT:;
#ARTISTTRANSLIT:;
#GENRE:;
#CREDIT:PWG;
#MUSIC:Onion+.ogg;
#BANNER:Onion+-bn.png;
#BACKGROUND:Onion+-bg.png;
#CDTITLE:;
#SAMPLESTART:54.017;
#SAMPLELENGTH:14.800;
#SELECTABLE:YES;
#OFFSET:-0.017;
#BPMS:0.000=150.000
,233.000=75.000
,247.000=150.000
;
#STOPS:200.500=0.300
,200.750=0.100
,201.000=0.400
,216.000=0.200
,216.250=0.200
,247.000=0.100
,247.250=1.500
;
#BGCHANGES:;
#FGCHANGES:;

//--------------- dance-single - PWG ----------------
#NOTES:
     dance-single:
     PWG:
     Beginner:
     4:
     0,0,0,0,0:
0000
0000
0000
0000
,
0000
0000
0000
0000
,
0000
0000
0000
0000
,
0000
0000
0000
0000
,
0000
0000
0000
0000
,
0000
0000
0000
0000
,
1000
0001
0100
0000
,
0100
0000
0010
0010
1000
0000
0000
0000
,
0100
0001
1000
0010
,
0200
0000
0320
0000
,
1030
0000
0000
0001
,
0100
0000
0010
0000
,
1000
0000
0000
0100
,
0010
0000
0010
0010
,
0200
0000
0301
0000
,
2000
0000
3100
0000
,
0020
0000
0000
0130
,
2000
0000
0000
3000
0002
0000
0023
0000
,
0130
0000
0010
0000
,
1000
0100
0010
0001
,
0100
0000
0010
0000
,
0001
0010
0100
1000
,
0020
0000
0130
0000
,
2000
3200
0302
0203
,
1300
0000
0010
0000
,
2000
3020
0032
0023
,
1030
0000
0100
0000
,
0010
0000
0000
0010
,
0100
0000
0001
0000
,
1000
0000
1000
0000
,
1000
0000
0010
0000
,
0001
0000
0100
0000
,
0001
0001
0100
0000
,
1000
0000
0000
0000
0010
0000
0010
1000
,
0100
0000
0100
0001
,
0010
0000
0001
0000
,
0010
0100
0020
0000
,
1030
0010
0001
0010
,
0200
0000
0302
0000
,
2003
3020
2030
3000
,
0002
0000
0203
0000
,
0320
0000
0230
0300
,
1001
0000
0010
0000
,
0100
0000
0010
0000
,
0001
0000
0000
0000
,
0100
0000
0010
0000
,
1000
0000
0000
0000
,
0110
0000
0001
0000
,
1000
0000
0000
0000
,
1001
0000
0110
0000
,
0001
1000
0000
0000
0010
0000
0000
0000
,
0001
0000
0100
0000
,
1000
0000
0100
0000
,
0010
0000
0001
1000
,
0002
0003
0010
0000
0100
0000
0100
0000
,
0000
0001
1000
1000
,
0000
1000
0010
0010
,
0000
0100
0000
0001
,
0000
2002
3003
0000
,
0010
0200
0300
0000
,
1000
1000
0020
0000
0030
0000
0001
0000
,
0000
0000
0200
0300
0200
0300
0002
0003
,
0000
0000
0000
0010
,
0000
0001
0000
0110
,
0000
1001
0000
0100
,
0000
1000
0000
1001
,
0000
0110
0000
0002
,
0000
2003
0000
3200
,
0000
2300
0000
3020
,
0030
0000
0001
0010
,
0000
0100
0000
0001
,
0000
0100
0000
0010
,
0000
1000
0000
0001
,
0000
1000
0000
0100
,
0000
0000
0000
0001
,
0000
0010
0000
0100
,
0000
0001
0000
1002
,
0000
0000
0000
0000
0000
0003
0210
0000
,
0000
0000
0000
0000
0000
0300
2000
0000
,
0000
3000
0002
0000
0000
0003
1000
0000
,
0000
0001
0000
0000
;

//--------------- dance-single - PWG ----------------
#NOTES:
     dance-single:
     PWG:
     Easy:
     7:
     0,0,0,0,0:
0000
0000
0000
0000
,
0000
0000
0000
0000
,
0020
0000
0130
0000
,
0001
0001
1000
0000
,
2000
0000
3010
0000
,
0100
0001
1000
0000
0010
0000
0000
0000
,
1000
0000
0001
0000
0001
0000
0100
0010
,
0100
0000
0001
0000
1000
0000
0010
1000
,
0200
0000
0300
0100
0020
0000
0030
0001
,
0010
0001
1000
0000
,
0010
0000
0000
0010
0100
0000
0001
0000
,
1000
0010
1000
0000
0100
0000
0010
0000
,
0100
0000
0001
0010
0000
0000
0001
0000
,
0100
0010
1000
0001
0000
0000
1000
0000
,
0200
0320
2030
3002
,
0103
0000
0010
1000
0001
0000
0010
0100
,
1000
0000
0010
0001
0100
0000
1000
0010
,
0002
2003
3110
1001
,
1000
0000
0010
0100
0000
0000
0100
0000
,
0001
0000
0100
0010
0000
0000
0010
0000
,
1000
0100
1000
0000
2000
0000
0000
0000
,
3001
0010
0001
0000
0002
0000
0003
0000
,
0100
0000
0010
1000
0000
0000
0010
0000
,
0100
0000
0001
0010
0000
0000
0001
0000
,
1000
0000
0000
1000
0001
0000
0000
0001
,
0100
0010
1000
0000
,
1100
0100
0001
0000
,
0101
0100
1000
0000
,
0101
0010
1100
0010
,
0001
0000
0000
0100
0000
0000
0010
0000
0000
0000
0000
0000
0100
0000
0000
0000
,
0010
0000
0000
0001
1000
0000
0010
0000
,
1000
0000
0000
1000
0100
0000
0010
0000
,
0200
0000
0000
0000
0002
0000
0000
0300
,
1003
0000
1000
0010
0100
0000
0001
0000
,
0001
0000
0100
0010
0000
0000
0000
0000
,
1000
0000
0010
0100
0000
0000
0001
0000
,
1000
0000
0001
0100
0000
0000
0000
0000
,
0010
0000
1000
0100
0000
0000
1000
0000
,
0010
0010
0001
0000
,
0100
0100
1000
0000
,
0010
0010
0100
0100
,
0001
1000
0010
0000
0100
0000
0000
0000
,
0001
0001
0100
1000
,
0010
0000
1000
0010
,
1000
0000
0001
0100
,
0010
0000
0000
0010
0001
0000
0001
0000
,
0100
0000
0000
0100
1000
0000
0010
0000
,
0001
0001
0100
0000
,
0010
0010
1000
0000
,
1000
0001
0100
0010
,
0100
0002
0003
0000
0100
0000
0010
0000
,
1000
0000
0000
1000
0010
0000
0100
0000
,
0001
0000
0001
0100
,
0001
0000
0000
0001
1000
0000
0010
0000
,
2000
3000
0010
0000
0100
0000
0010
0000
,
0000
0010
0100
0000
0001
0000
1000
0000
,
0000
0010
0000
0001
,
0000
1010
0010
0101
,
0000
0001
0000
0100
,
0010
1000
0000
0100
,
0000
0001
0010
0100
,
0000
0000
1000
0000
0010
0100
0002
0003
,
0000
0000
0000
0010
,
0100
0001
0000
0000
0001
0000
0100
0000
,
0010
1000
0000
1000
0010
0000
0100
0000
,
0010
1000
0000
0000
0000
0000
0010
0000
,
1000
0001
0000
0001
0010
0000
0001
0000
,
0000
0010
1000
0100
,
0000
1000
0010
0100
,
0100
0001
0001
0100
,
0010
1000
0001
0000
0000
0000
0010
0000
,
0000
0010
0100
0000
0001
0000
1000
0000
,
0000
1000
0001
0000
0100
0000
0010
0000
,
0000
1000
0000
0011
,
1000
1100
0001
0010
,
0100
0001
1000
0010
,
0100
1001
0010
0110
,
0000
0100
0000
1000
,
0000
0001
0000
1010
,
0000
0101
0000
1001
,
0000
0110
0000
1001
;

//--------------- dance-single - PWG ----------------
#NOTES:
     dance-single:
     PWG:
     Medium:
     12:
     0,0,0,0,0:
0000
0000
0000
0000
,
0000
0000
0000
0000
,
0000
0000
0000
0000
,
0000
0000
0000
0000
,
0000
0000
0000
0000
,
0000
0000
0000
0000
,
1000
0100
0010
0001
1000
0010
0100
0001
,
1000
0100
0010
0001
1000
0010
0100
0000
,
1000
0010
1000
0010
0001
0100
0001
0100
,
1001
0000
0100
0000
0010
1000
0001
0000
,
0010
0100
0001
1000
0010
0000
0010
0000
,
1000
0100
1000
0000
0001
0010
0001
0000
,
0100
0010
1000
0001
1000
0010
1000
0000
,
0100
0000
0010
0000
0001
0000
0010
0100
,
0001
0000
1000
0000
0010
0000
1000
0010
,
0100
0010
1000
0001
,
1100
0100
0011
0010
,
0001
0100
0010
1000
0100
0000
0100
0010
,
0002
0000
0000
1003
0010
0100
0000
0001
,
1000
1000
0100
0100
0010
0010
0001
0000
,
1000
0100
0010
1000
0001
1000
0010
0000
,
0100
0001
0100
0010
1000
0000
0001
0000
,
0100
0010
1000
0000
0001
0000
0100
0000
,
0001
0100
0010
1000
0001
0000
1000
0000
,
0010
1000
0100
0000
1000
0000
0010
0000
,
1000
0100
0010
0001
0010
0000
0100
0000
,
0001
0100
1000
0100
0001
0000
0001
0000
,
1000
0100
0001
0100
1000
0000
1000
0000
,
1000
0010
0100
0010
0001
0100
0010
0100
,
0001
0000
0000
1000
0000
0000
0010
0000
0000
0000
0000
0000
0010
0000
0100
0000
,
0002
0000
0000
1003
0001
1000
0000
0100
,
0010
0000
0000
1000
0000
0000
0100
0000
0001
0000
0000
0010
0000
0000
0100
0000
,
1000
0100
0010
0100
,
0010
1000
0001
1000
0010
0000
1000
0001
,
1000
0000
0000
1000
0000
0000
0010
0000
0100
0000
0001
0000
0100
0000
0000
0000
,
1000
0000
0000
0001
0000
0000
0010
0000
0001
0000
0100
0000
0010
0000
1000
0000
,
0000
0010
1000
0001
0100
0000
0100
0010
,
0000
0010
0100
0001
1000
0000
0100
0010
,
1000
0100
0000
0010
0100
0001
0000
0010
,
0100
1000
0010
0100
0001
0000
0100
0000
,
0010
1000
0001
0000
0001
1000
0100
0000
,
0010
1000
0100
1000
0001
0010
0001
0000
,
0010
0100
0001
0000
1000
0010
0100
0000
,
0100
0010
0000
1000
0001
1000
0010
0000
,
0100
0001
0000
0001
0100
0010
1000
0000
,
0100
1000
0010
0000
0100
0001
0010
0000
,
0001
0010
0100
0000
1000
0010
0100
0000
,
0001
1000
0010
0000
1000
0000
0001
0000
,
1000
0001
0010
0000
0001
0000
0100
0000
,
1000
1000
0010
0010
,
1000
0000
1001
0110
0110
0000
0000
0000
2000
0000
0000
0000
0000
0000
0000
0000
,
3001
0000
0000
0000
0000
0000
0000
0000
0010
0000
0000
0100
0000
0000
1000
0000
,
0200
0000
0302
0000
,
0023
0000
0000
0000
1030
0000
1000
0001
,
0100
0010
0100
0000
1000
0000
0000
0000
0010
0000
0100
0000
0001
0000
0000
0000
,
0001
0000
1000
0000
1000
0100
1000
0000
,
1000
0000
0010
0100
0001
0000
1000
0010
,
0100
1001
1001
1001
,
0010
0000
0100
0000
0002
0000
0000
1003
0100
0000
0000
0000
1000
0000
1000
0000
,
0010
0000
0000
0000
0020
0000
0000
1030
0100
0000
0001
0100
0010
0000
0010
0000
,
1000
0000
0002
0000
0203
0010
2300
0010
,
3100
0000
0010
0000
0001
0000
0100
0000
0010
0000
1000
0000
1000
0001
0000
0000
,
0000
0000
0000
0000
0000
0000
0000
0000
0010
0000
0100
0000
0001
0000
0000
0001
,
0000
0000
1000
0000
0010
0000
1000
0000
0100
0000
1000
0000
1000
0000
0000
1000
,
0000
0000
0010
0000
0100
0000
0001
0000
0100
0000
0010
0000
0100
0000
0000
0100
,
0000
0000
0010
0000
1000
0000
0001
0000
1000
0000
0010
0000
1000
0000
0000
0010
,
0000
0000
0010
0000
0100
0000
0001
0000
0100
0000
0010
0000
1000
0000
0000
0001
,
1000
0000
0010
0000
1000
0000
0000
0000
0001
0000
0000
0000
1000
0000
0000
1000
,
0010
0100
0001
0000
0100
0000
0000
0100
,
0010
0000
0000
0100
0010
0000
0100
0000
,
1000
0100
0001
0110
,
0110
0000
1000
0010
1000
0000
1001
0000
,
1001
0000
0100
0001
0010
0000
1000
0000
,
0100
0000
0010
1000
0001
0000
0001
0000
,
0100
0000
0001
0100
0010
0000
1000
1000
,
0001
0000
0001
0001
1000
0000
0010
0100
,
0001
0100
1000
0000
0001
0000
0010
0000
,
1000
0100
1000
0000
0010
0000
0100
0000
,
0001
0000
0010
0000
0001
0000
0000
0000
0100
0000
0000
0000
0010
0000
0000
0010
,
0100
0000
0001
0000
1000
0000
0000
1000
0010
0000
1000
0000
0100
0000
1000
0000
,
0010
0100
0001
0000
0100
0000
0000
0000
;

//--------------- dance-single - PWG ----------------
#NOTES:
     dance-single:
     PWG:
     Hard:
     15:
     0,0,0,0,0:
0000
0000
0000
0000
,
0000
0000
0000
0000
,
0000
0000
0000
0000
,
0000
0000
0000
0000
,
0000
0000
0000
0000
,
0000
0000
0000
0000
,
0001
1000
0010
0000
0001
1000
0010
0000
0100
1000
0010
0000
0100
1000
0010
0000
,
0001
0100
0010
0000
0001
0100
0010
0000
0001
1000
0010
0000
0001
1000
0010
0000
,
0001
0100
0010
0000
0001
0100
0010
0000
0001
1000
0010
0000
0001
1000
0010
0000
,
0001
0100
0010
0100
0001
1000
0100
1000
0001
0000
0010
0000
0001
0000
0010
0000
,
0001
0000
0000
1000
0010
0000
1000
0000
0001
0100
0010
0000
0100
0000
0001
0000
,
0100
0000
0000
0010
1000
0000
0100
0000
1000
0100
0010
0000
1000
0000
0001
0000
,
0100
0000
0000
0100
0010
0000
0100
0000
0001
1000
0010
0000
1000
0000
0100
0000
,
1000
0000
1000
0010
1000
0000
0001
0000
0100
0000
0010
0100
0001
0000
0100
0000
,
0010
0000
0001
0000
1000
0000
1000
0000
0001
0000
1000
0010
0000
0010
1000
0000
,
0100
0000
1000
0000
0010
0000
1000
0001
0100
0000
0010
0100
0000
1000
0001
0000
,
0001
1000
0010
1010
0001
1000
0100
0011
,
0100
0001
0100
0010
0100
0001
1000
0010
1000
0000
0110
0000
1000
0000
0010
0000
,
1000
0000
1000
0100
0000
1000
0010
0100
0001
0000
1010
0000
0101
0000
0010
0000
,
0001
0000
1000
0010
0000
1000
0100
0010
0001
0000
0101
0000
0110
0000
0001
0000
,
1000
0000
0010
1000
0000
0100
1000
0010
0001
0000
1010
0000
0011
0000
0100
0000
,
1000
0000
0001
0100
0000
0010
1000
0010
0001
0000
1010
0000
0101
0000
0000
0000
,
0010
0000
0100
0001
0000
1000
0010
1000
0001
0000
0010
0000
0100
0000
0010
0000
,
0100
0000
0001
1000
0000
1000
0001
0010
0100
0000
0010
0000
0100
0000
0001
0000
,
0100
0010
1000
0000
0010
0100
0001
0000
0001
0010
0100
0000
1000
0010
0100
0000
,
1000
0100
1000
0010
0001
1010
0101
0000
,
0000
0000
0010
0000
1000
0000
0001
0000
0100
0000
0100
0010
0000
1000
0001
0000
,
0000
0000
0010
0000
1000
0000
0001
0000
0100
0000
0100
0010
0000
0100
0001
0000
,
1000
0010
1000
0100
0001
0100
0001
0010
,
0100
0000
0010
0000
0100
0000
0001
0100
0010
0000
0101
0000
1000
0000
0010
0000
,
1000
0000
0100
0000
1000
0000
0010
0000
1000
0000
1000
0001
0000
0100
0001
0000
,
0100
0000
0010
0000
0100
0000
0001
0000
1000
0000
0010
1000
0000
0100
1000
0000
,
0010
0000
0100
0000
0001
0000
0100
0010
0100
0000
0001
0000
0010
0000
0100
1000
,
0001
0000
0000
0000
0010
0000
0000
0000
0100
0000
0000
0000
0001
0000
0000
0000
1000
0000
0000
0000
0100
0000
0000
0000
2002
0000
0000
0000
0000
0000
3003
0000
0000
0000
0000
0000
0010
0000
0000
0100
0000
0000
0010
0000
0000
0100
0000
0000
,
1000
0000
0100
0010
0000
0001
0100
0000
0010
0000
1000
0000
0001
0000
0100
0000
,
0010
0000
0010
1000
0000
1000
0100
0000
1000
0000
0010
0000
0100
0001
0100
0000
,
0010
0000
0100
0001
0000
0001
0010
0000
0001
0000
0100
0000
0010
0000
1000
0000
,
0100
0000
1000
0010
0000
0010
1000
0000
1000
0000
0001
0000
0100
1000
0010
0000
,
0100
0000
0001
0100
0000
0010
0000
0100
0001
0000
1000
0000
0010
0000
1000
0000
,
0100
0000
0001
0100
0000
0010
0000
1000
0001
0000
0010
0000
0100
0000
0001
0000
,
1000
0010
1000
0000
0001
0010
0001
0000
1000
0100
1000
0000
0001
0100
0001
0000
,
0100
0010
0100
0001
0010
1000
0100
1000
0001
0000
0010
0000
1000
0000
1010
0000
,
0202
0303
0100
0000
2020
3030
0010
0000
0202
0303
0100
0000
1000
0000
0010
0000
,
0002
0000
2003
0100
3020
0001
0230
1000
,
0320
0001
0230
1000
0320
0100
2030
0000
,
3001
0000
0010
0000
1000
0100
1000
0000
1000
0000
0100
0000
0001
0010
0001
0000
,
1000
0100
0010
0000
0001
0010
0100
0000
1000
0000
0010
0000
0001
0000
0100
1000
,
0010
0000
0100
0000
0001
0000
1000
0010
0000
1000
0001
0000
1000
0000
0010
0000
,
0100
0000
0001
0000
0100
0000
0010
0100
0000
0001
1000
0000
0010
0000
1000
0000
,
0100
0000
1000
0010
1000
0000
0001
0100
0010
0000
0100
0000
0001
0000
0100
0000
,
0010
0000
1100
0011
0110
0000
0000
0000
0100
0010
1000
0001
1000
0000
0010
0000
,
0100
0001
0100
0000
0010
1000
0001
0000
1000
0100
0010
1000
0001
0000
0100
0000
,
0010
0001
0100
0000
0010
1000
0010
0000
0001
0000
1000
0010
0000
1000
0001
0000
,
0100
0010
0100
0000
0001
1000
0010
0000
1000
0000
0100
1000
0000
0010
1000
0000
,
1001
0110
1001
0000
1000
0000
0000
0000
0001
0000
0100
0000
1000
0000
0010
0000
,
1001
0000
0010
0100
0001
0000
0000
0000
1000
0000
0001
0000
1000
0000
0100
0000
,
1010
0000
0001
0100
0010
0000
0001
0000
0011
0000
0001
1000
0010
0000
1000
0000
,
0001
0000
1000
0000
0011
0000
0000
1100
0000
0000
1001
0000
0110
0000
0001
0000
,
0011
0000
0010
0100
0001
0000
0000
0010
1000
0000
0001
0000
1000
0000
0010
0000
,
0002
0000
0203
0010
0302
0000
0203
0010
,
1300
0000
1000
0100
0001
0000
0001
0000
1000
0000
0100
0010
0001
0100
0010
1000
,
0200
0000
1000
0000
0301
0000
0000
0000
0010
0000
0000
0000
1000
0001
0000
0000
,
0000
0000
0000
0000
0000
0000
0000
0000
1000
0000
0100
0000
0010
0000
0001
0100
,
0000
0010
0100
0000
0001
0000
1000
0000
0010
0000
1000
0000
0001
0000
1000
0100
,
0000
0001
0100
0000
1000
0000
0010
0000
0100
0001
0100
0000
0010
0000
1000
0001
,
0000
1000
0010
0000
1000
0000
0100
1000
0000
0010
1000
0000
0001
0000
0100
0000
,
0010
0100
0001
0000
0100
0010
1000
0000
0010
0000
1000
0000
0100
0000
1000
0010
,
0000
0100
0001
0000
0100
0000
0010
0000
0100
0000
0001
0000
1000
0000
0010
1000
,
0000
0100
1000
0000
0010
0100
0001
0000
0100
0010
1000
0000
0001
0000
1000
0000
,
0010
0000
1000
0000
0100
0000
1000
0000
0010
0000
0100
0000
0001
0100
0010
1000
,
0100
0010
0001
1000
0001
0000
1000
0000
0010
0000
0100
0000
0101
0000
0010
0000
,
1000
0000
0001
1000
0000
1000
0010
0000
0100
0000
0001
0000
1010
0000
0100
0000
,
1000
0000
0010
1000
0000
0100
0001
0000
0100
0000
0010
0000
1100
0000
0001
0000
,
0010
0000
0100
0000
0001
1000
0010
0000
1000
0000
0100
0000
0011
0000
0001
0000
,
0100
0000
0010
0000
1000
0001
1000
0000
0010
0000
1000
0000
0100
0000
1000
0000
,
0010
0100
0001
0000
0001
0100
0010
1000
,
0100
1000
0010
0000
1001
0000
1000
1000
,
0001
0001
1000
1000
0001
0001
0100
0100
,
0010
0010
0100
0100
0010
0010
0001
0001
,
1000
1000
0001
0001
1000
1000
0010
0010
,
0100
0100
0010
0010
0100
0100
0000
0000
;
