#TITLE:Learn To Lose;
#SUBTITLE:;
#ARTIST:Bakermat ft. Alex Clare;
#TITLETRANSLIT:;
#SUBTITLETRANSLIT:;
#ARTISTTRANSLIT:;
#GENRE:;
#CREDIT:;
#MUSIC:Learn To Lose.ogg;
#BANNER:Learn To Lose-banner.png;
#BACKGROUND:Learn To Lose-bg.png;
#CDTITLE:;
#SAMPLESTART:55.184;
#SAMPLELENGTH:17.000;
#SELECTABLE:YES;
#OFFSET:-0.184;
#BPMS:0.000=120.000;
#STOPS:;
#BGCHANGES:;
#FGCHANGES:;

//--------------- dance-single - PWG ----------------
#NOTES:
     dance-single:
     PWG:
     Beginner:
     3:
     0,0,0,0,0:
0000
0000
0000
0000
,
0000
0000
0000
0000
,
0000
0000
0000
0000
,
0000
0000
0000
0000
,
1000
0000
0010
0000
,
0001
0000
0000
0000
,
0001
0000
0100
0000
,
1000
0000
0000
0000
,
1000
0000
0000
0000
,
0001
0000
0000
0000
,
1000
0000
0000
0000
,
0001
0000
0000
0000
,
0100
0100
0000
0000
,
0010
0010
0000
0000
,
0100
0010
0000
0000
,
0100
0010
0000
0000
,
1000
0000
0001
0000
,
0100
0000
0010
0000
,
0200
0000
0000
0000
,
0300
0000
0000
0001
,
0100
0000
0100
0000
,
0100
0000
0000
1000
,
0010
0000
0010
0000
,
0010
0000
0000
0001
,
0010
0000
0000
1000
,
0010
0000
0000
0000
,
0220
0000
0330
0000
,
0220
0000
0330
0000
,
1001
1000
0000
0000
,
0010
0100
0001
0000
,
1001
0001
0000
0000
,
0010
0001
1000
0000
,
1000
1000
0000
1000
,
0001
0001
0000
0001
,
1000
0010
0000
0010
,
0100
0001
0100
0000
,
0010
0000
0100
0000
,
1000
0000
0010
0000
,
0100
0000
0010
0000
,
0100
0000
0001
0000
,
1000
0000
0000
0000
,
0001
0000
0000
0000
,
0100
0000
0010
0000
,
0100
0000
0000
0000
,
2000
0000
0000
0000
,
3002
0000
0000
0000
,
0203
0000
0000
0000
,
0320
0000
0000
0000
,
0130
0000
1000
0000
,
0001
0000
0100
0000
,
0002
0000
0000
0000
,
0003
0000
0000
0000
,
0010
0000
0100
0000
,
0010
0000
0000
0000
,
0100
0000
0010
0000
,
0100
0000
0000
0000
,
1000
0000
0100
0000
,
0010
0000
0001
0000
,
1000
0000
0100
0000
,
0010
0100
0001
0000
,
1000
0000
0010
0000
,
0100
0000
0001
0100
,
0010
0000
1000
0000
,
0100
0000
0001
1000
,
0200
0000
0000
0300
,
0020
0000
0000
0030
,
0200
0000
0000
0300
,
0001
1000
0010
0000
,
0020
0000
0000
0000
,
0130
0000
0000
0000
,
0200
0000
0000
0000
,
0310
0000
0000
0000
,
1000
0000
0000
0000
,
0001
0000
0000
0000
,
1000
0000
0001
0000
,
1000
0000
0001
1000
,
1001
0010
0100
0000
,
1001
0100
0010
0000
,
2000
3000
0020
0030
,
0002
0003
0200
0300
,
0001
0000
0000
0000
,
1000
0000
0000
0000
,
0010
0000
0000
0000
,
0100
0000
0010
0000
,
1000
0000
0000
0000
,
0001
0000
0000
0000
,
1000
0000
0000
0000
,
0010
0000
0000
0000
,
0100
0000
0010
0000
,
0100
0000
0000
0000
,
1000
0100
0010
0001
,
0100
0010
0100
0000
,
2002
3003
0000
0000
;

//--------------- dance-single - PWG ----------------
#NOTES:
     dance-single:
     PWG:
     Easy:
     5:
     0,0,0,0,0:
0000
0000
0000
0000
,
0000
0000
0000
0000
,
0000
0000
0000
0000
,
0000
0000
0000
0000
,
0001
0100
0010
0000
,
1000
0010
0100
0000
,
0001
1000
0010
0000
,
1000
0001
0010
0000
,
0001
0001
2000
3000
,
1000
1000
0002
0003
,
1000
0000
1000
0100
0000
0000
0000
0000
,
0001
0000
0001
0100
0000
0000
0000
0000
,
0010
0100
0010
0100
,
0001
1000
0002
0003
,
1000
0001
1000
0001
,
0100
0010
0200
0300
,
2000
0000
0001
0000
,
3002
0000
1000
0000
,
1003
0100
0000
0000
0001
0010
0000
0000
,
0010
0001
0000
0100
1000
0000
0100
0000
,
0020
0030
0010
0000
0200
0300
0100
0000
,
0020
0030
0010
0000
0200
0300
0100
0000
,
2000
3000
0002
0003
2000
3000
0002
0003
,
1000
0001
1000
0001
,
1000
1000
0010
0000
,
0001
0001
0100
0000
,
0010
0000
0200
0000
0000
0000
0300
0010
,
0100
0010
0100
0010
,
2000
3000
0020
0030
,
0001
0100
0001
0000
,
0002
0003
0020
0030
,
1000
0100
1000
0000
,
0010
0100
0001
1000
,
0010
1000
0100
0000
,
0010
0000
1000
0000
,
0001
0001
1000
1000
,
0010
0000
0100
0010
,
1000
0000
0001
0100
,
0010
0000
0100
0001
,
1000
0000
0100
1000
,
0001
0010
0000
0010
,
0100
0001
0000
0100
,
0010
0000
1000
0000
,
0010
0100
0001
0000
,
1000
0010
0200
0300
,
0001
0010
0200
0300
,
0001
0100
0020
0030
,
1000
0100
0020
0030
,
1000
0100
1000
0100
,
0001
0010
0001
0010
,
0220
0000
0330
0000
,
2002
0000
3003
0010
,
0100
0100
0001
0010
,
1000
0100
1000
0000
,
1000
0100
0100
1000
,
0001
0010
0001
0000
,
0100
0010
0200
0300
,
0001
1000
0002
0003
,
1000
0100
1000
0000
0000
0000
0000
0000
,
0001
0100
0001
0000
0010
0000
0000
0000
,
1000
0010
0100
0001
,
0100
0010
1000
0000
,
0001
0100
0010
1000
,
0100
1000
0010
0000
,
0002
0000
2003
0000
,
3010
0100
0010
0000
,
0100
0100
0001
0000
,
0010
0010
1000
0000
,
2002
0000
3003
0000
,
0220
0000
0330
0000
,
2002
0000
3003
0000
,
0220
0000
0330
0000
,
1000
0100
0001
0100
,
0001
0010
1000
0010
,
0100
0010
0000
0000
0010
0100
0000
0000
,
1000
0001
0000
0000
0001
1000
0000
0000
,
1000
0001
1000
0001
,
0100
0010
0100
0000
,
0010
0100
0010
0100
,
0001
0000
1000
0000
0001
0000
0010
0100
,
0000
0100
0010
0000
1000
0000
0010
0100
,
0000
0100
0010
0000
0001
0000
0000
0000
,
1000
0010
0000
0000
,
0001
0100
0010
0000
,
1000
0002
0003
0001
,
0100
0020
0030
0010
,
0001
2000
3000
1000
,
0100
0010
0010
0100
,
0010
0100
0000
0100
,
0001
1000
0000
1000
,
0020
0000
0000
0000
,
0230
0000
0000
0300
1000
0000
0100
0000
,
0002
0003
0000
0000
;

//--------------- dance-single - PWG ----------------
#NOTES:
     dance-single:
     PWG:
     Medium:
     9:
     0,0,0,0,0:
0000
0000
0000
0000
,
0000
0000
0000
0000
,
0000
0000
0000
0000
,
0000
0000
0000
0000
,
0010
0100
0001
0000
1000
0000
0010
0000
,
1000
0010
0100
0000
0010
0000
0100
0000
,
0001
1000
0010
0000
1000
0010
0100
0000
,
0010
0100
0001
1000
,
0010
1000
0001
0000
0100
0000
0010
0000
,
0100
0001
1000
0000
0010
0000
0100
0000
,
0001
0010
0001
0000
1000
0100
1000
0000
,
1000
0010
1000
0000
0001
0010
0001
0000
,
0100
0000
0000
0000
0010
0000
0000
0000
0100
0000
0000
0100
0010
0000
0100
0000
,
0001
0000
0000
0000
1000
0000
0000
0000
0001
0000
0000
0001
1000
0000
0010
0000
,
0100
0000
0000
0000
0010
0000
0000
0000
0100
0000
0000
0001
1000
0000
0010
0000
,
1000
0000
0000
0000
0001
0000
0000
0000
0100
0000
0000
0010
0100
0000
0001
0000
,
1000
0010
2000
0000
3002
0000
0103
0000
,
0010
0100
0002
0000
2003
0000
3010
0000
,
2000
0000
3002
0000
,
0103
0010
0100
0000
,
2002
3003
1000
0000
,
2002
3003
0001
0000
,
0110
0000
0100
0000
,
0110
0000
0010
0000
,
1010
0000
1010
0000
,
0011
0000
0022
0000
,
1033
0010
0001
0010
1000
0010
0001
0010
,
1000
1000
2000
0000
,
3010
0100
0001
0100
0010
1000
0001
1000
,
0010
0100
0001
0100
,
0010
1000
0001
1000
0010
0100
0001
0100
,
0010
0000
0000
0010
0100
0000
0000
0100
0001
0000
1000
0000
0010
0000
1000
0000
,
0001
0100
0010
0100
0001
1000
0010
1000
,
0001
0000
0100
0000
0010
0100
0001
0000
,
1000
0000
0000
1000
0010
0000
0100
0000
0001
0000
0000
0001
0100
0000
0010
0000
,
0100
0001
1000
0000
0020
0000
0000
0000
,
1030
0000
0000
0000
0010
0000
0100
0001
,
0010
0000
0000
0000
0100
0000
0001
1000
,
0010
0100
0010
0100
,
0010
1000
0001
0000
1000
0010
0100
0000
,
0010
0000
0100
0000
0001
0000
1000
0010
,
0100
0000
0001
0000
0100
0000
0001
0100
,
0010
1000
0010
0010
,
0100
0000
0001
0000
1000
0000
0100
0010
,
0002
0000
0100
0000
0013
0000
1000
0010
,
0200
0000
0010
0000
1300
0000
0010
0100
,
1000
0000
0010
0000
0100
0000
1000
0010
,
0100
0000
0001
0000
0100
0000
0001
0010
,
0100
1000
0010
0000
0100
0000
1000
0100
,
0010
0000
0001
0000
0100
0000
0000
0000
0010
0000
0000
0000
0010
0000
0000
0010
,
0100
0001
1000
0000
0010
1000
0001
0000
,
0100
0000
0010
0000
0100
0000
0001
1000
,
1000
0000
0000
1000
0010
0000
0000
0010
0100
0000
0000
0100
0001
0000
0000
0001
,
0100
0000
0000
0100
0010
0000
0100
0000
0001
0000
0000
0000
0000
0000
0000
0000
,
1000
0000
0000
1000
0010
0000
0000
0010
0100
0000
0000
0100
0001
0000
0000
0001
,
0100
0000
0000
0100
0010
0000
0000
0010
1000
0000
0001
0000
1000
0000
0000
0000
,
1000
0100
1000
0000
1000
0000
0000
0000
,
0001
0100
0001
0000
0001
0000
0000
0000
,
1000
0100
0010
0001
1000
0100
0010
0000
,
0001
0010
0100
1000
0001
0010
0100
0000
,
1002
1003
0010
0100
,
0210
0301
1000
0010
,
2100
3001
0100
0010
,
0012
0013
0100
1000
,
1000
0100
0010
0000
0001
0010
0100
0000
,
1000
0100
0010
0001
0010
0100
1000
0000
,
1000
0100
1000
0100
,
0010
0001
0010
0001
0010
0000
0100
0000
,
0010
0010
0100
0100
,
0010
0100
0020
0000
,
1030
1000
0001
0001
,
1000
0001
2000
0000
,
3001
0000
1000
0000
,
0010
0000
0100
0000
,
0001
0000
1000
0000
0010
0000
0000
0010
0100
0000
0001
0000
0100
0000
0000
0100
,
0010
0000
1000
0000
0001
0000
1000
0010
1000
0000
0000
0000
0001
0000
0000
0000
,
0100
0000
0000
0100
0010
0000
0000
0010
0100
0000
0001
0000
0100
0000
0000
0000
,
0010
0000
0000
1000
0010
0000
0000
0010
1000
0000
0001
0000
0100
0000
0000
0000
,
0010
0000
0000
0010
0100
0000
0000
0100
0001
0000
0100
0000
0010
0000
1000
0000
,
0010
0001
0100
1000
0001
1000
0010
0000
,
0100
0000
0000
0100
0001
0000
1000
0000
0010
0000
0000
0000
0000
0000
0000
0000
,
0001
0000
0000
0001
0100
0000
0010
0000
0100
0000
0000
0000
0001
0000
0000
0000
,
1010
1000
0001
0000
0010
0000
0000
0000
,
0101
0010
0100
0000
0001
1000
0010
0000
,
0100
0000
0001
0000
0100
0000
0010
1000
,
0100
0000
1000
0000
0010
0000
1000
0001
,
0100
0000
0010
0000
0100
0000
0001
0100
,
0010
0000
0000
0000
1000
0000
0000
0000
1000
0000
0000
1000
0010
0000
0000
0010
,
0001
0100
0010
0000
0100
0001
1000
0000
,
0010
1000
0100
0000
1000
0010
0100
0000
,
0002
0000
1003
0000
,
1000
0010
0001
0100
,
2002
3003
0000
0000
;

//--------------- dance-single - PWG ----------------
#NOTES:
     dance-single:
     PWG:
     Hard:
     13:
     0,0,0,0,0:
0000
0000
0000
0000
,
0000
0000
0000
0000
,
0000
0000
0000
0000
,
0000
0000
0000
0000
0000
0000
0000
0001
,
0020
0000
0000
0000
0000
0000
0000
0000
0130
0000
0000
0000
0000
0000
0000
0010
,
0100
0001
1000
0010
1000
0001
0100
0010
,
0200
0000
0000
0000
0000
0000
0000
0000
1300
0000
0010
0000
0100
0000
0000
0001
,
1000
0000
0010
0000
0100
0000
0001
0000
0100
0000
0010
0100
0001
0000
1000
0000
,
0010
0000
0100
0000
0001
0000
1000
0010
1000
0000
0001
0000
0100
0000
0010
0000
,
0100
0001
0100
0000
1000
0000
0001
1000
0100
0000
1000
0000
0010
0000
0100
0000
,
0001
0000
0100
0010
0100
0000
0001
0000
1000
0000
0100
1000
0100
0000
1000
0000
,
0010
0000
0001
0010
0001
0000
0010
0000
0010
0000
0001
0000
0100
0000
1000
0001
,
1000
0000
0010
0000
0100
0000
1000
0100
0010
0000
0001
0000
0010
0000
0100
0001
,
0100
0000
0010
0000
0001
0000
1000
0010
1000
0000
0100
0000
0010
0000
1000
0001
,
0100
0000
0010
0000
0001
0000
0100
0010
0100
0000
0001
0000
0010
0000
1000
0001
,
1000
0000
0010
0000
0001
0000
0100
0010
0100
0000
0001
0000
0010
0000
1000
0001
,
1000
0000
0010
0000
0001
0000
0100
0010
1000
0000
0100
0000
0010
0000
1000
0001
,
0100
0000
0010
0000
0001
0000
0100
0010
1000
0001
1000
0010
1000
0000
0001
0000
,
0100
0010
0100
0001
1000
0010
0100
0001
,
1000
0000
0010
0000
1000
0000
0001
0000
2000
0000
0000
0000
3002
0000
0000
0003
,
1001
0100
0010
0100
,
0110
0010
0100
0010
,
1100
0100
1000
0100
,
0101
0001
0100
0001
,
1010
1000
0010
1000
,
0011
0001
0010
0001
,
0110
0001
0100
0010
1000
0001
1000
0010
,
0100
0000
1000
0000
0100
0001
0011
1100
,
0000
0000
0010
0100
0010
0000
0100
0000
0000
0000
0001
1000
0001
0000
1000
0000
,
0000
0000
0010
1000
0001
0000
0010
0000
0100
0000
0001
0000
0010
0000
0100
0000
,
0000
0000
0010
1000
0100
0000
1000
0000
0000
0000
0010
0100
0001
0000
0100
0000
,
0010
0000
0001
0000
0010
0000
1000
0000
0100
0000
0010
1000
0100
0000
1000
0000
,
0000
0000
0010
0100
0001
0000
0100
0000
0000
0000
0100
0010
0100
0000
1000
0000
,
0000
0000
0010
1000
0100
1000
0010
0000
1000
0000
0001
0100
0010
0000
0100
0000
,
0000
0000
0001
0100
0010
0000
0100
0000
0000
0000
0010
1000
0100
0000
1000
0000
,
0010
1000
0001
0000
1000
0010
1000
0000
0001
0000
0100
0000
0010
0000
0000
0000
,
0100
0000
0010
0000
0001
1000
0010
0000
,
0010
0000
0100
0000
1000
0010
0100
0000
,
0001
0000
0000
0001
1000
0000
0000
1000
0010
0000
0000
0010
1000
0010
0000
0100
,
0010
0000
0001
0100
0010
0000
0100
0000
0001
0000
1000
0010
1000
0000
0100
0000
,
0010
0000
0100
0000
0001
0000
0100
0010
0000
1000
0010
1000
0010
0000
1000
0000
,
0001
0000
0100
0000
0010
0000
0100
0001
0000
0100
0001
0010
0001
0000
0100
0000
,
0010
0001
1000
0010
0100
1000
0010
0100
,
0001
0000
0100
0010
0000
0100
0001
1000
0010
0000
1000
0100
0000
1000
0010
0100
,
0001
0000
0100
0000
0010
0000
0100
0000
0001
0000
1000
0010
1000
0000
0001
0000
,
0100
0000
0010
0000
0100
0000
0001
0000
0100
0000
0010
0100
0001
0000
0100
0000
,
0010
0000
0100
0000
0001
0000
1000
0000
0010
0000
1000
0001
1000
0000
0010
0000
,
0100
0001
0100
0010
0100
0000
0010
0000
,
0010
0000
0000
0010
1000
0000
0010
0000
1000
0000
0000
1000
0010
0000
1000
0000
,
0001
0000
0000
0001
0100
0000
0100
0000
0001
0000
0000
0100
0001
0000
0001
0000
,
0100
0001
0100
0010
,
1000
1000
0010
0010
0100
0100
0001
0001
,
1000
0000
0000
0000
0010
0000
0000
0010
0100
0000
0000
0100
0001
0000
0001
0000
,
0100
0010
1000
0001
1000
0000
0010
0010
,
0100
0000
0000
0100
0001
0000
0000
0001
0100
0000
0000
0100
0010
0000
0001
0000
,
1000
0000
0100
0000
1000
0000
0010
0000
1000
0001
1000
0000
0010
0000
0100
0000
,
0001
1000
0010
0100
0010
1000
0001
0100
,
0010
0100
0001
0100
0010
1000
0001
1000
,
0100
0100
1000
1000
0010
0010
0100
0100
,
0001
0001
0010
0010
1001
0000
1001
0000
,
0010
0100
0101
0010
1000
0001
1010
1000
,
0001
0100
0110
0001
1000
1010
1000
0010
,
0100
0001
0010
0100
0001
1000
1000
0100
,
1000
1000
0010
0010
0100
0001
0100
0000
,
0010
0000
0100
0001
0100
0000
0010
0000
1000
0000
0001
0000
0010
0000
1000
0000
,
0100
0000
0010
1000
0001
0000
0100
0000
0010
0000
0110
0000
0011
0000
1010
0000
,
0010
0100
0001
0100
0010
1000
0001
0000
,
1000
0100
0000
0010
0100
0000
1001
0000
,
0010
0000
1000
0000
0000
0001
0000
0000
0010
0000
0100
0000
0010
0000
0000
0000
,
0001
0000
0100
0000
0000
0010
0000
0000
1000
0000
0010
0000
0100
0000
0000
0000
,
0100
0000
0010
0000
0000
0100
0000
0000
0001
0000
0100
0000
0010
0000
0000
0000
,
0100
0010
1000
0000
0010
1000
0100
0000
,
0001
0100
0010
0100
0010
0100
0001
1000
,
0010
1000
0001
1000
0010
0100
0001
0000
,
2002
3003
2002
3003
2002
0000
0000
3003
,
1000
0100
0010
0001
1000
0100
0010
0001
,
0110
0000
0001
1000
0010
0000
1000
0000
,
1001
0000
0010
1000
0001
0000
0100
0000
,
1001
0000
0110
0000
1001
0000
1000
0100
,
1000
0000
0001
0010
0001
0010
0001
0000
,
0100
0001
0100
0000
0100
1000
0100
0000
,
0010
0000
0100
0000
0010
0000
0000
0000
0100
0000
0010
0000
0100
0000
0000
1000
,
0100
0000
0010
0000
0100
0000
0010
0000
0000
0000
0000
0000
0000
0000
0000
0001
,
0010
0100
0010
0100
0001
0000
1000
0000
,
0010
0000
0000
0010
0100
0000
0001
0000
0100
0000
0000
0100
0010
0000
1000
0000
,
0100
0000
0000
1000
0010
0000
1000
0000
0001
0100
0010
0000
0100
0000
0001
0000
,
0100
0000
0000
0001
0100
0000
0010
0000
1000
0000
0000
0010
1000
0000
0100
0000
,
1000
0000
0000
1000
0010
0000
1000
0000
0001
0100
0010
0000
0100
0000
0001
0000
,
0100
0000
0000
0001
0010
0000
0001
0000
0100
0000
0000
0010
1000
0000
0001
0000
,
1000
0000
0000
0010
1000
0000
0001
0000
0100
0010
0100
0000
0001
0000
1000
0000
,
0010
1000
0001
0100
,
0010
0000
0100
1000
,
0001
0000
0000
0000
;

//--------------- dance-double - PWG ----------------
#NOTES:
     dance-double:
     PWG:
     Hard:
     13:
     0,0,0,0,0:
00000000
00000000
00000000
00000000
,
00000000
00000000
00000000
00000000
,
00000000
00000000
00000000
00000000
,
00000000
00000000
00000000
00000000
,
00100000
01000000
00010000
00000000
10000000
00000000
00100000
00000000
,
10000000
00100000
01000000
00000000
00100000
00000000
00010000
00000000
,
00001000
00010000
00000100
00000000
00001000
00000000
00000010
00000000
,
00000100
00000001
00000100
00000000
00000010
00000000
00000100
00000000
,
00001000
00010000
00001000
00000000
00100000
00000000
00010000
00000000
,
01000000
00100000
01000000
00000000
00010000
00000000
00100000
00000000
,
00001000
00010000
00000200
00000000
00020300
00000000
00031000
00000000
,
00100000
00010000
00200000
00000000
00302000
00000000
00013000
00000000
,
10000000
00000000
00000000
10000000
01000000
00000000
10000000
00000000
01000000
00000000
00000000
10000000
01000000
00000000
10000000
00000000
,
00100000
00000000
00000000
00100000
01000000
00000000
01000000
00000000
00100000
00000000
00000000
01000000
00100000
00000000
01000000
00000000
,
00010000
00000000
00000000
00010000
00100000
00000000
00100000
00000000
00010000
00000000
00000000
00100000
00010000
00000000
00100000
00000000
,
00001000
00000000
00000000
00010000
00001000
00000000
00010000
00000000
00001000
00000000
00000000
00001000
00010000
00000000
00010000
00000000
,
00000100
00000000
00000000
00001000
00000100
00000000
00001000
00000000
00000100
00000000
00000000
00000100
00001000
00000000
00001000
00000000
,
00000010
00000000
00000000
00000100
00000010
00000000
00000100
00000000
00000010
00000000
00000000
00000010
00000100
00000000
00000100
00000000
,
00000001
00000000
00000010
00000000
00000001
00000000
00000000
00000001
00000010
00000000
00000010
00000000
00000001
00000000
00000000
00000000
,
00000001
00000010
00000100
00001000
00010000
00100000
01000000
10000000
,
11000000
00000000
00000000
10000000
01000000
00000000
00000000
01000000
10000000
00000000
00000000
10000000
01000000
00000000
00000000
00000000
,
00100000
01000000
00020000
00000000
00230000
00000000
00320000
01030000
,
00100000
00000000
00000000
00100000
01000000
00000000
00000000
00010000
10000000
00000000
00000000
01000000
00100000
00000000
01000000
00000000
,
10000000
00010000
10000000
00100000
02000000
00000000
03020000
01030000
,
00100000
01000000
00010000
00000000
01000000
00000000
00100000
10000000
,
00010000
10000000
00100000
00000000
01000000
00000000
10000000
00000000
,
00100000
00000000
10000000
00010000
10000000
00000000
00100000
00000000
01000000
00000000
00000000
00000000
00010000
00000000
01000000
00000000
,
00100000
00000000
01000000
00010000
01000000
00000000
00100000
00000000
10000000
00010000
10000000
00000000
00100000
00000000
10000000
00000000
,
00010000
00000000
10000000
01000000
10000000
00000000
00100000
00000000
10000000
00000000
00010000
00100000
00010000
00000000
00100000
00000000
,
00010000
01000000
00100000
01000000
00010000
00000000
10000000
00000000
00200000
00000000
00000000
00000000
20300000
00000000
00000000
00000000
,
30100000
00000000
10000000
00010000
01000000
00000000
00100000
00000000
01000000
00000000
00100000
10000000
01000000
00000000
10000000
00000000
,
00100000
10000000
00020000
00000000
02030000
00000000
03100000
00000000
,
01000000
00000000
00000000
01000000
00100000
00000000
01000000
00000000
00010000
00000000
00000000
00010000
10000000
00000000
00100000
00000000
,
10000000
00000000
01000000
10000000
00100000
00000000
10000000
00000000
00010000
00000000
00000000
00000000
01000000
00000000
00000000
00000000
,
00100000
00000000
00000000
01000000
00010000
00000000
01000000
00000000
00100000
00000000
00000000
00000000
10000000
00000000
00000000
00000000
,
00010000
00100000
00001000
00010000
,
00000100
00000000
00000000
00001000
00000100
00000000
00001000
00000000
00000010
00000000
00000001
00000100
00000010
00000000
00000100
00000000
,
00000001
00000000
00000000
00000010
00001000
00000000
00000001
00000000
00001000
00000000
00000010
00001000
00000100
00000000
00001000
00000000
,
00000010
00000100
00000001
00000100
00000010
00001000
00000001
00001000
,
00000100
00000000
00000000
00000000
00001000
00000000
00000000
00000000
00000010
00000000
00001000
00000000
00000001
00000000
00000100
00000010
,
00000100
00000000
00000000
00001000
00000001
00000000
00000010
00000000
00001000
00000000
00000000
00000000
00000100
00000000
00000000
00000000
,
00001000
00000000
00000000
00001000
00000010
00000000
00001000
00000000
00000001
00000000
00000100
00000000
00000010
00000000
00000100
00000000
,
00000010
00000000
00000100
00000010
00000100
00000000
00000001
00000000
00001000
00000000
00000000
00000000
00000001
00000000
00000000
00000000
,
00001000
00000000
00000001
00001000
00000001
00000000
00001000
00000000
00000010
00000000
00001000
00000000
00000001
00000000
00000100
00000000
,
00000010
00000000
00000000
00000100
00000001
00000000
00000000
00000100
00000010
00000000
00001000
00000000
00000001
00000000
00001000
00000000
,
00000100
00000000
00000000
00001000
00000010
00000000
00000000
00001000
00000001
00000000
00000100
00000000
00000010
00000000
00000100
00000000
,
00000001
00000000
00000000
00001000
00000010
00000000
00001000
00000000
00000100
00000000
00001000
00000000
00000010
00000000
00000100
00000000
,
00000001
00000000
00000000
00000010
00001000
00000000
00000001
00000000
00000100
00000000
00001000
00000000
00100000
00000000
00001000
00000000
,
00010000
00000000
00001000
00000000
00010000
00000000
00000000
00001000
00010000
00000000
00000000
00001000
00010000
00000000
00001000
00000000
,
00010000
00000000
00000000
00001000
00010000
00000000
00000000
00001000
00010000
00000000
00001000
00000000
00010000
00000000
00001000
00010000
,
00000100
00000000
00100000
00000000
00110000
00000000
00000000
01000000
00100000
00000000
10000000
00000000
01000000
00000000
00000000
00000000
,
11000000
00000000
01100000
00000000
00110000
00000000
00100000
01000000
,
00010000
00000000
01000000
00100000
10000000
00000000
00010000
00000000
10000000
00000000
00100000
10000000
01000000
00000000
10000000
00000000
,
00100000
00000000
01000000
00010000
01000000
00000000
00100000
00000000
01000000
00000000
00010000
00000000
01000000
00000000
00000000
00000000
,
00010000
00000000
00100000
00001000
00100000
00000000
00010000
00000000
00100000
00000000
00001000
00000000
00100000
00000000
00010000
00000000
,
01000000
00100000
00001000
00100000
00010000
00000000
00100000
00000000
00001000
00010000
00000100
00010000
00001000
00000000
00010000
00000000
,
00000100
00001000
00000010
00001000
00000100
00001000
00000010
00001000
,
00000100
00010000
00001000
00010000
00000100
00010000
00001000
00100000
,
00010000
00100000
00001000
00100000
00010000
00100000
00001000
00010000
,
00000100
00000000
00010000
00000000
00001000
00000000
00010000
00000000
00000100
00000000
00010000
00001000
00010000
00000000
00001000
00000000
,
00010000
00011000
00110000
00011000
,
00001100
00001000
00010000
00001000
00010000
00000100
00100000
00000000
,
00011000
01010000
00011000
00001010
,
00001000
00010000
00000100
00010000
00010000
00100000
00100000
00000000
,
10000000
00000000
01000000
10000000
00100000
00000000
10000000
00000000
00010000
00000000
01000000
00100000
01000000
00000000
00010000
00000000
,
01000000
00100000
11000000
10000000
00100000
10000000
00010000
00000000
,
00010000
00100000
00001000
00010000
00000110
00001000
00000010
00000000
,
00000100
00000000
00001000
00000000
00000010
00000000
00001000
00000100
00001000
00000000
00000100
00000000
00010000
00000000
00000000
00000000
,
00001000
00100000
00010000
00010000
,
00001000
00000100
00001000
00000000
,
00001000
00010000
00010000
00100000
,
00001000
00000000
00010000
00001000
00000000
00000000
00000000
00000000
,
00001000
00001000
00000100
00010000
,
00001000
00010000
00010000
00000000
,
00010000
00100000
00010000
00000000
00001000
00010000
00001000
00000000
,
00000100
00001000
00000100
00000000
00022000
00000000
00000000
00033000
,
00010000
00000000
00100000
00010000
00100000
00000000
00100000
00000000
01000000
00000000
00100000
01000000
00100000
00000000
01000000
00000000
,
01000000
00000000
01000000
10000000
01000000
00000000
10000000
00000000
01000000
00000000
00100000
01000000
00100000
00000000
01000000
00000000
,
00010000
00000000
00010000
00100000
00010000
00000000
00100000
00000000
00001000
00000000
00001000
00010000
00001000
00000000
00010000
00000000
,
00000100
00000000
00000100
00001000
00000100
00000000
00001000
00000000
00000010
00000000
00000010
00000100
00000010
00000000
00000010
00000000
,
00000001
00000000
00000001
00000010
00000001
00000000
00000010
00000000
00000010
00000000
00000010
00000100
00000010
00000000
00000100
00000000
,
00000100
00000000
00000100
00001000
00000100
00000000
00001000
00000000
00001000
00000000
00001000
00010000
00001000
00000000
00010000
00000000
,
00001000
00010000
00001000
00010000
00001000
00010000
00001000
00010000
,
00001000
00000000
00010000
00010000
00001000
00000000
00001000
00000000
,
00010000
00000000
00100000
00000000
00110000
00000000
00010000
00000000
01000000
00000000
00100000
01000000
00100000
00000000
01000000
00000000
,
01000000
10000000
00100000
10000000
00010000
01000000
00100000
00000000
,
01000000
00000000
00100000
01000000
00100000
00000000
01000000
00000000
00010000
00000000
00100000
00010000
00100000
00000000
00010000
00000000
,
01000000
00000000
00100000
00000000
10000000
01000000
00100000
00010000
,
00001000
00000000
00000100
00001000
00000010
00000000
00001000
00000000
00000001
00000000
00000100
00000010
00000100
00000000
00000001
00000000
,
00000100
00000010
00001000
00000100
00001000
00000010
00001000
00000000
,
00000100
00001000
00010000
00100000
,
00010000
00001000
00000100
00000000
,
00022000
00033000
00000000
00000000
;
