#TITLE:I Can't Get Enough;
#SUBTITLE:;
#ARTIST:;
#TITLETRANSLIT:;
#SUBTITLETRANSLIT:;
#ARTISTTRANSLIT:;
#GENRE:;
#CREDIT:PWG;
#MUSIC:I Can't Get Enough.ogg;
#BANNER:;
#BACKGROUND:I Can't Get Enough-bg.png;
#CDTITLE:;
#SAMPLESTART:25.943;
#SAMPLELENGTH:11.684;
#SELECTABLE:YES;
#OFFSET:-2.259;
#BPMS:0.000=95.000;
#STOPS:;
#BGCHANGES:;
#FGCHANGES:;

//--------------- dance-single - ----------------
#NOTES:
     dance-single:
     :
     Beginner:
     2:
     0,0,0,0,0:
0000
0000
0000
0000
,
0000
0000
0000
0000
,
1000
0000
0000
0000
,
0001
0000
0000
0000
,
0100
0000
0000
0000
,
0010
0000
0000
0000
,
1000
0000
0100
0000
,
1000
0000
0000
0000
,
0001
0000
0010
0000
,
0001
0000
0000
0000
,
0010
0000
0100
0000
,
1000
0000
0001
0000
,
0001
0000
1000
0000
,
0010
0000
0100
0000
,
1000
0000
0000
0010
,
0001
0000
0000
0000
,
1001
0000
0000
0100
,
1000
0000
0000
0000
,
1000
0000
0000
0010
,
0001
0000
0000
0100
,
1000
0000
0000
0010
,
0100
0000
0010
0000
,
1000
0000
0000
0000
,
0001
0000
0000
0000
,
0100
0000
0010
0000
,
1000
0000
0000
0000
,
0001
0000
0100
0000
,
0001
0000
0000
0000
,
1000
0000
0100
0000
,
1000
0000
0000
0000
,
1000
0000
0010
0000
,
0001
0000
0010
0000
,
1000
0000
0100
0000
,
0001
0000
0100
0000
,
1000
0000
0000
1000
,
0001
0000
0000
0001
,
0010
0000
0100
0000
,
0100
0000
0010
0000
,
1001
0000
1000
0000
,
0000
0000
0001
0000
,
0010
0000
0100
0000
,
0001
0000
1000
0000
,
0010
0000
0000
0000
,
0100
0000
0010
0000
,
1000
0000
0001
0000
,
1000
0100
0000
0001
,
2002
0000
0000
0000
0000
0000
0000
0000
0000
0000
0000
0000
0000
0000
0000
0000
0000
0000
0000
0000
0000
0000
0000
0000
0000
0000
0000
0000
0000
0000
0000
0000
0000
0000
0000
0000
0000
0000
0000
0000
0000
0000
0000
0000
0000
0000
0000
0000
0000
0000
0000
0000
0000
0000
0000
0000
0000
0000
0000
0000
0000
0000
0000
0000
0000
0000
0000
0000
0000
0000
0000
0000
0000
0000
0000
0000
0000
0000
0000
0000
0000
0000
0000
0000
0000
0000
0000
0000
0000
0000
0000
0000
0000
0000
0000
0000
0000
0000
0000
0000
0000
0000
0000
0000
0000
0000
0000
0000
0000
0000
0000
0000
0000
0000
0000
0000
0000
0000
0000
0000
0000
0000
0000
0000
0000
0000
0000
0000
0000
0000
0000
0000
0000
0000
0000
0000
0000
0000
0000
0000
0000
0000
0000
0000
0000
0000
0000
0000
0000
0000
0000
0000
0000
0000
0000
0000
0000
0000
0000
0000
0000
0000
0000
0000
0000
0000
0000
0000
0000
0000
0000
0000
0000
3003
0000
0000
0000
0000
0000
0000
0000
0000
0000
0000
0000
0000
0000
0000
0000
0000
0000
0000
,
0200
0000
0320
0000
,
1030
0000
0000
0000
,
0010
0000
0000
0000
,
0001
0000
0000
0000
,
0100
0000
0000
0000
,
1000
0000
0010
0000
,
0100
0000
0001
0000
,
0001
0000
0100
0000
,
0010
0000
1000
0000
,
1000
0000
0001
0000
,
0010
0000
0100
0000
,
1000
0000
0000
1000
,
0100
0000
0000
0000
,
0001
0000
0000
0001
,
0100
0000
0000
0000
,
0010
0000
0000
0000
;

//--------------- dance-single - ----------------
#NOTES:
     dance-single:
     :
     Easy:
     5:
     0,0,0,0,0:
0000
0000
0000
0000
,
0000
0000
0000
0000
,
1000
0010
0100
0000
,
0001
1000
0010
0000
,
1000
1000
0001
0001
,
0010
0000
0100
0000
,
0100
0100
1000
0000
,
0100
0100
0001
0000
,
0010
0010
0001
0000
,
0010
0010
1000
0000
,
1000
0000
0100
0010
,
0001
0000
0010
0100
,
1000
0000
0001
1000
,
0010
0000
0010
0000
,
1001
0000
0110
0000
,
1000
0100
0010
0001
,
0010
0000
0100
0000
,
0110
0000
0000
0000
,
1000
0000
0010
0100
0010
0000
0000
0000
,
0001
0000
0010
0100
0010
0000
0000
0000
,
1000
0000
0001
0000
,
1000
0010
0100
0001
,
0100
0000
0010
1000
,
0010
0000
0010
0001
,
0010
0000
1000
0010
,
1000
0001
0100
0001
,
0010
0000
1000
0000
,
0001
0000
0100
0000
,
0010
0000
1000
0000
,
0100
0000
0001
0000
,
1000
0010
0100
0001
,
0001
0100
0010
1000
,
1000
0000
0010
0001
,
0100
0000
1000
0010
,
0100
0000
1001
0000
,
1000
0000
0110
0000
,
0001
0000
0010
0000
,
1000
0010
0100
0001
,
0100
0000
0000
0000
0000
0000
0010
1000
,
0000
0000
0010
0001
0000
0000
0100
0000
,
0010
1000
0000
0010
,
0100
0001
0000
0010
,
1000
0001
0100
0010
,
0100
0010
1000
0001
,
0001
1000
0001
1000
,
1000
0000
0010
0000
,
0002
0000
0000
0000
,
1003
0000
1000
0000
,
2000
0000
0000
0000
,
3001
0000
0001
0000
,
0010
0100
0001
0001
,
1000
0010
1000
1000
,
0010
0000
0100
0000
,
1001
0000
0110
0000
,
0010
1000
0001
0010
,
0001
0000
1000
0000
,
0010
0100
0001
1000
,
0010
1000
0100
0000
,
0010
0100
0001
1000
,
1000
0001
0100
0010
,
1000
0000
0010
0000
,
0001
0000
0100
0000
,
1001
0000
0000
0000
;

//--------------- dance-single - PWG ----------------
#NOTES:
     dance-single:
     PWG:
     Medium:
     9:
     0,0,0,0,0:
0000
0000
0000
0000
,
0000
0000
0000
0000
,
1000
0000
0100
0000
0001
1000
0010
0000
,
0100
0001
0010
0000
0001
1000
0010
1000
,
0100
0000
0010
0100
0001
0000
0010
0001
,
0100
0010
1000
0001
,
1000
0100
0010
0000
0001
0010
0100
0000
,
1000
0010
0100
0001
0010
0001
0100
0000
,
0010
1000
0000
0001
0100
0010
0000
1000
,
0010
1000
0001
0100
0001
0000
0010
0000
,
1001
0000
0010
1000
1010
0000
0010
1000
,
0011
0000
0001
0100
0110
0000
0001
0000
,
1000
0010
0100
0000
0001
0100
0010
0000
,
0001
1000
0010
0100
0001
0010
0100
0000
,
0010
1000
0001
0000
0001
1000
0010
0000
,
0100
0010
0001
1000
,
0010
1000
0001
0010
0100
0000
0001
1000
,
0010
1000
0001
0100
0001
0010
1000
0000
,
1001
0010
1000
0000
0001
0100
0010
0000
,
0001
0010
0100
1000
1000
0100
0010
0001
,
1000
0010
1000
0001
0100
0001
0010
0001
,
0100
0000
0010
1000
0001
0000
0100
0000
,
0001
1000
0010
1000
0001
0010
0001
0100
,
0010
1000
0001
1000
,
0010
1000
0001
0000
0010
0001
1000
0000
,
0001
1000
0010
1000
0001
0000
0010
0000
,
0001
1000
0010
1000
0001
0000
0000
0001
,
0010
0001
0010
0001
0100
0000
0000
0010
,
1000
0001
0100
0010
1000
0000
0000
0001
,
0010
0001
0100
0000
0010
1000
0001
1000
,
1010
0001
0100
0010
0011
0001
0100
0010
,
0110
0001
1000
0010
1001
0001
1000
0010
,
0100
0001
1000
0000
0010
1000
0001
0000
,
0100
0010
1000
0001
1000
0010
0100
0001
,
1000
0010
1000
0000
0001
0010
0001
0000
,
0010
0100
0010
0100
0001
1000
0001
1000
,
1000
0001
1000
0001
0100
0010
0100
0010
,
1000
0100
0010
1000
0010
0100
0001
0010
,
0001
0100
0010
0000
1000
0010
0100
0000
,
0001
0100
0010
0000
0001
1000
0010
0100
,
0001
1000
0010
0100
0001
0100
0010
1000
,
0010
1000
0100
0000
0010
0100
0001
0000
,
0001
1000
0010
1000
0001
0000
0010
0100
,
0001
1000
0010
1000
0001
0000
0000
0001
,
0100
0010
1000
0001
1000
0000
0000
1000
,
0010
0100
0001
0100
0010
0000
1000
0000
,
0010
1000
0001
0000
0010
0001
1000
0000
,
0010
1000
0010
0000
0010
0001
0010
0000
,
0010
1000
0001
0100
,
1000
0010
0100
0000
0001
0100
0010
0000
,
1000
0000
0010
0000
1000
0001
0100
0000
,
0001
1000
0010
0000
0010
0000
0100
0000
,
0001
1000
0010
0100
,
0001
1000
0010
0000
1001
0000
1001
0000
,
0010
1000
0100
0010
0001
0000
0000
0001
,
0010
0001
0010
0100
0010
0000
0000
0010
,
1000
0001
0100
0010
1000
0000
0000
0010
,
0100
0001
0010
0001
1000
0000
0010
0000
,
1000
0100
0010
0001
1000
0000
0000
0001
,
0001
0010
0100
1000
0001
0000
0000
0010
,
1000
0010
0100
0001
0010
0000
0000
0100
,
0001
1000
1001
1010
,
0011
0000
0000
0000
;

//--------------- dance-single - PWG ----------------
#NOTES:
     dance-single:
     PWG:
     Hard:
     13:
     0,0,0,0,0:
0000
0000
0000
0000
,
0000
0000
0000
0000
,
1000
0001
0000
0000
0010
0100
0001
0000
,
1000
0100
0010
0100
0010
0000
1000
0000
,
1000
0000
0000
0001
0100
0000
0010
0000
0100
0000
0000
0100
0010
0000
1000
0000
,
0100
0010
0001
0100
0010
1000
0010
0100
,
0010
0000
0000
0001
0100
0000
0010
0000
1000
0000
0000
0100
1000
0000
0010
0000
,
1000
0000
0100
0000
1000
0010
1000
0100
0010
0000
0001
0000
0001
0100
0001
0010
,
0001
0000
0000
1000
0100
0000
1000
0000
0010
0100
0010
0001
0100
0000
1000
0000
,
1000
0000
0000
0001
0100
0000
0010
0000
0011
0000
0000
0000
1100
0000
0000
0000
,
1010
0000
1000
0010
1000
0000
1010
0000
0011
0000
0001
0010
0001
0000
0011
0000
,
0110
0000
0010
0100
0010
0000
0110
0000
1001
0000
0001
1000
0001
0000
1001
0000
,
1100
0000
1000
0100
1000
0000
1100
0000
0101
0000
0001
0100
0001
0000
0101
0000
,
1000
0100
0010
0001
1000
0000
1000
0000
0001
0010
0100
1000
0001
0000
0001
0000
,
1000
0100
0010
0001
0000
0001
0001
0010
0100
1000
0000
0000
,
0100
0000
0000
0010
0001
0000
0100
0001
0100
0000
0000
1000
0010
0000
0100
0010
,
2100
0010
0001
0010
,
3012
0000
0100
0100
1000
1000
0100
0100
,
1003
0000
0000
0000
0100
0001
0010
0100
0010
1000
0100
1000
0010
0000
0100
0000
,
0001
0000
0000
0010
0001
0010
0001
0100
1000
0000
1000
0100
1000
0000
0010
0100
,
0010
0001
0100
0010
1000
0100
1000
0010
0100
0001
0010
0001
1000
0000
0010
0100
,
0010
1000
0100
1000
0100
0010
0100
0010
0001
0000
0010
1000
0100
0000
0010
0100
,
0010
0000
0010
0000
0100
0000
0100
0000
1000
0100
0010
0000
0001
0010
0100
0000
,
1000
0010
0100
0001
0010
1000
0001
0100
,
1000
0000
0100
0010
0100
0000
0001
0000
0010
0000
0001
0100
0010
0000
0011
0000
,
1100
0000
0000
0000
0000
0000
0000
1000
,
0110
0000
0100
0000
0100
1000
0100
0000
0110
0000
0010
0000
0010
0001
0010
0000
,
0010
0100
0010
0010
0100
0010
0100
0100
,
1000
0000
0100
0000
0010
0001
0000
0000
0001
0000
0010
0000
0100
1000
0000
0000
,
1000
0100
0010
0000
1000
0100
0010
0000
0001
0010
0100
0000
0001
0010
0100
0000
,
1000
0000
0000
1000
0100
0000
0100
0000
0001
0000
0000
0001
0010
0000
0010
0000
,
1010
0000
0010
1000
0010
0000
0010
0000
0101
0000
0100
0001
0100
0000
0100
0000
,
1000
0100
1000
0010
0001
0010
0001
0100
,
1000
0000
0100
0000
1000
0000
0010
0000
0001
0100
0001
0010
0001
1000
0100
1000
,
0010
0000
0010
0000
0100
0000
0100
0000
0000
0100
0000
0000
0001
0000
0010
0000
0100
0000
0010
0000
0000
0010
0000
0000
,
1000
0100
1000
0100
0010
1000
0100
0010
,
0002
0010
0100
0010
2003
0100
0010
0100
,
3001
0010
1000
0010
0100
1100
0000
1100
,
0010
0100
0001
0000
1000
0000
0100
0000
1000
0000
0000
0100
0010
0000
0010
0000
,
0000
0000
0000
0001
0010
0000
0010
0000
0000
0000
1000
0100
1000
0100
1000
0000
,
0100
0000
0010
0000
0100
0000
0010
0000
0001
0100
0010
0000
0100
0010
1000
0000
,
0010
0000
0100
0000
0010
0000
0000
0000
0100
0001
1000
0000
0010
0000
1000
0000
,
0001
0100
0010
0100
0001
1000
0010
1000
,
0001
0010
0100
0010
0001
0000
0100
0000
1000
0100
0010
0100
1000
0000
0010
0000
,
0001
0000
0000
0100
0001
0000
0010
0000
0001
0000
0000
1000
0100
0000
1000
0000
,
0010
0100
0001
0100
0010
0100
0001
1000
0010
0000
1000
0100
1000
0000
0010
0000
,
1000
1000
0100
0100
0010
0010
0001
0001
,
0001
0001
0010
0010
0100
0100
1000
1000
,
1100
0100
0110
0010
0011
0001
1001
1001
,
1000
0010
0001
0100
0010
0001
0100
0010
,
1000
0001
1000
0100
1000
0010
0100
0001
,
0100
1000
0010
0001
0100
0001
1000
0010
,
1000
0001
0100
0001
0010
0001
0100
0010
,
1000
0001
0100
0010
0100
0010
1000
0001
1000
0000
0010
0000
0100
0000
0000
0000
,
1001
0000
0000
1000
0010
0000
0100
0000
0001
0000
0000
0100
0010
0000
1000
0000
,
0100
0000
0000
1000
0010
0000
0100
0001
0010
0000
0001
0000
0100
0000
0010
0000
,
1000
0000
0000
1000
0010
0000
0100
0000
0001
0000
0000
0001
0010
0000
0100
0000
,
0001
1000
0010
1000
0001
0100
0010
1000
0100
0000
0010
1000
0001
0000
0100
0000
,
1000
0000
0100
0000
0010
0000
0100
0000
0000
0000
0100
0000
0001
0000
0010
0000
0100
0000
0010
0000
0000
1000
0000
0000
,
0100
0010
1000
0001
,
1000
0100
1000
0010
0001
0010
0001
0100
,
1000
0100
1000
0010
0001
0010
0001
0100
0010
0100
0010
0100
1000
0001
1000
0000
,
2002
3003
0000
0000
;
