#TITLE:Hoohah;
#SUBTITLE:;
#ARTIST:Fox Stevenson & Curbi;
#TITLETRANSLIT:;
#SUBTITLETRANSLIT:;
#ARTISTTRANSLIT:;
#GENRE:;
#CREDIT:PWG;
#MUSIC:Hoohah.ogg;
#BANNER:Hoohah.png;
#BACKGROUND:Hoohah-bg.png;
#CDTITLE:;
#SAMPLESTART:44.953;
#SAMPLELENGTH:15.952;
#SELECTABLE:YES;
#OFFSET:-0.072;
#BPMS:0.000=126.000;
#STOPS:;
#BGCHANGES:;
#FGCHANGES:;

//--------------- dance-single - PWG ----------------
#NOTES:
     dance-single:
     PWG:
     Beginner:
     3:
     0,0,0,0,0:
0000
0000
0000
0000
,
0000
0000
0000
0000
,
1000
0000
0000
0000
,
0001
0000
0000
0000
,
1000
0000
0000
0000
,
0010
0000
0000
0000
,
0001
0000
0000
0000
,
0010
0000
0000
0000
,
1000
0000
0000
0000
,
0010
0000
0000
0000
,
0001
0000
0000
0000
,
0010
0000
0000
0000
,
1000
0000
0000
0000
,
1000
0000
0000
0000
,
0001
0000
0000
0000
,
0001
0000
0000
0000
,
1000
0000
0100
0000
,
0010
0000
0001
0000
,
0001
0000
0010
0000
,
0100
0000
1000
0000
,
1000
0000
0000
0000
,
0100
0000
0000
0000
,
0001
0000
0000
0000
,
0010
0000
0000
0000
,
1001
0000
0000
0000
,
1000
0000
0010
0000
,
0100
0000
0000
0000
,
0001
0000
0100
0000
,
0010
0000
0000
0000
,
1000
0000
0000
0000
,
0001
0000
0000
0000
,
0010
0000
0010
0000
,
0001
0000
0000
0000
,
0100
0000
0100
0000
,
1000
0000
0000
0000
,
0001
0000
0000
0000
,
0100
0000
0000
0000
,
1000
0000
0000
0000
,
0100
0000
0000
0000
,
0001
1000
0100
0010
,
0001
0000
0000
0000
,
1000
0000
0000
0000
,
0001
0000
0000
0000
,
0100
0000
0000
0000
,
0010
0000
0000
0000
,
1000
0000
0000
0000
,
0100
0000
0000
0000
,
0010
0000
0000
0000
,
2000
0000
0000
0000
,
0000
0000
0000
0000
0000
0000
0000
0000
0000
0000
0000
0000
0000
0000
0000
0000
0000
0000
0000
0000
0000
0000
0000
0000
0000
0000
0000
0000
0000
0000
0000
0000
0000
0000
0000
0000
0000
0000
0000
0000
0000
0000
0000
0000
0000
0000
0000
0000
0000
0000
0000
0000
0000
0000
0000
0000
0000
0000
0000
0000
0000
0000
0000
0000
0000
0000
0000
0000
0000
0000
0000
0000
0000
0000
0000
0000
0000
0000
0000
0000
0000
0000
0000
0000
0000
0000
0000
0000
0000
0000
0000
3000
0000
0000
0000
0000
,
0002
0000
0000
0000
,
0000
0000
0000
0000
0000
0000
0000
0000
0000
0000
0000
0000
0000
0000
0000
0000
0000
0000
0000
0000
0000
0000
0000
0000
0000
0000
0000
0000
0000
0000
0000
0000
0000
0000
0000
0000
0000
0000
0000
0000
0000
0000
0000
0000
0000
0000
0000
0000
0000
0000
0000
0000
0000
0000
0000
0000
0000
0000
0000
0000
0000
0000
0000
0000
0000
0000
0000
0000
0000
0000
0000
0000
0000
0000
0000
0000
0000
0000
0000
0000
0000
0000
0000
0000
0000
0000
0000
0000
0000
0000
0000
0000
0000
0000
0000
0000
0000
0000
0000
0000
0000
0000
0000
0000
0000
0000
0000
0000
0000
0000
0000
0000
0000
0000
0000
0000
0000
0000
0000
0000
0000
0000
0000
0000
0000
0000
0000
0000
0000
0000
0000
0000
0000
0000
0000
0000
0000
0000
0000
0000
0000
0000
0000
0000
0000
0000
0000
0000
0000
0000
0000
0000
0000
0000
0000
0000
0000
0000
0000
0000
0000
0000
0000
0000
0000
0000
0000
0000
0000
0000
0000
0000
0000
0000
0000
0000
0000
0000
0000
0003
0000
0000
0000
0000
0000
0000
0000
0000
0000
0000
0000
0000
,
0200
0000
0000
0000
,
0000
0000
0000
0000
0000
0000
0000
0300
,
0020
0000
0000
0000
,
0000
0000
0000
0000
0000
0000
0000
0000
0000
0000
0000
0000
0000
0000
0000
0000
0000
0000
0000
0000
0000
0000
0000
0000
0000
0000
0000
0000
0000
0000
0000
0000
0000
0000
0000
0000
0000
0000
0000
0000
0000
0000
0000
0000
0000
0000
0000
0000
0000
0000
0000
0000
0000
0000
0000
0000
0000
0000
0000
0000
0000
0000
0000
0000
0000
0000
0000
0000
0000
0000
0000
0000
0000
0000
0000
0000
0000
0000
0000
0000
0000
0000
0000
0000
0000
0000
0000
0000
0000
0000
0000
0000
0000
0000
0000
0000
0000
0000
0000
0000
0000
0000
0000
0000
0000
0000
0000
0000
0000
0000
0000
0000
0000
0000
0000
0000
0000
0000
0000
0000
0000
0000
0000
0000
0000
0000
0000
0000
0000
0000
0000
0000
0000
0000
0000
0000
0000
0000
0000
0000
0000
0000
0000
0000
0000
0000
0000
0000
0000
0000
0000
0000
0000
0000
0000
0000
0000
0000
0000
0000
0000
0000
0000
0000
0000
0000
0000
0000
0000
0000
0000
0000
0000
0000
0000
0000
0000
0000
0000
0030
0000
0000
0000
0000
0000
0000
0000
0000
0000
0000
0000
0000
,
1000
0000
0000
0000
,
0001
0000
0000
0000
,
0010
0000
0000
0000
,
0100
0000
0000
0000
,
0010
0000
0000
0000
,
1000
0000
0000
0000
,
0001
0000
0000
0000
,
0100
0000
0000
0000
,
1001
0000
0000
0000
,
1000
0000
0010
0000
,
0001
0000
0000
0000
,
0001
0000
0010
0000
,
1000
0000
0000
0000
,
1000
0000
0100
0000
,
1000
0000
0000
0000
,
0001
0000
0010
0000
,
0001
0000
0000
0000
,
1000
0000
0000
0000
,
0001
0000
0000
0000
,
0000
0000
0000
0000
,
0110
0000
0000
0000
,
0000
0000
0000
0000
,
1001
0000
0000
0000
,
1000
0100
0010
0001
,
0000
0000
0000
0000
,
1000
0000
0000
0000
,
0001
0000
0000
0000
,
0100
0000
0000
0000
,
0010
0000
0000
0000
,
0010
0000
0000
0000
,
0100
0000
0000
0000
,
0001
0000
0000
0000
,
1000
0000
0000
0000
,
0110
0000
0000
0000
,
1000
0000
0000
0000
,
0001
0000
0010
0000
,
1001
0000
0000
0000
,
0100
0000
0000
0000
,
1000
0000
0000
0000
,
0001
0000
0000
0000
,
0010
0000
0000
0000
,
0100
0000
0000
0000
;

//--------------- dance-single - PWG ----------------
#NOTES:
     dance-single:
     PWG:
     Easy:
     6:
     0,0,0,0,0:
1000
0000
0000
0000
,
0001
0000
0010
0100
,
0001
0000
0000
0000
,
1000
0000
1000
0010
,
0100
0000
0001
1000
,
0010
0000
1000
0001
,
0010
0000
0001
1000
,
0010
1000
0001
0010
,
0001
0000
1000
0010
,
0100
0000
0001
0010
,
0100
0000
0010
1000
,
0001
0010
0001
1000
,
1000
0100
0001
0000
,
0001
0010
1000
0000
,
1000
0010
0100
0000
,
0001
0010
0100
0000
,
0100
0010
0010
0100
,
0001
1000
1000
0001
,
0010
0100
0100
0010
,
0001
1000
1000
0001
,
1000
0000
0010
0100
0010
0000
0001
0000
,
0010
0000
0001
0100
0010
0000
1000
0000
,
0100
0010
0001
1000
,
0001
0010
0100
1001
,
1000
0100
0010
0001
,
0001
0010
0100
1000
,
1000
0100
1000
0000
1000
0000
1000
0000
,
0001
0010
0001
0000
0001
0000
0001
0000
,
0010
0010
0100
0100
,
0001
1000
0010
1000
,
0001
0010
0001
1000
,
0010
1000
0001
0010
,
0001
0010
1000
0001
,
1000
0010
0100
0001
,
1000
0000
0000
1000
0010
0000
0000
0000
,
0001
0000
0000
0001
0100
0000
0000
0000
,
0001
0000
1000
0000
,
0001
0000
1000
0000
,
1000
0000
0100
0000
,
0010
0000
0001
0000
,
1000
0000
0000
0000
0010
0000
0001
0100
,
0010
0000
0000
0000
1000
0000
0001
0100
,
0010
0000
1000
0000
,
0010
0010
0001
0001
,
0100
0100
0010
0000
,
1000
0000
0001
0000
,
0001
0000
0010
0000
,
1000
0010
0100
0000
,
0220
0000
0000
0000
0000
0000
0000
0330
,
2200
0000
0000
0000
0000
0000
0000
3300
,
0202
0000
0000
0000
0000
0000
0000
0303
,
2002
0000
0000
0000
0000
0000
0000
3003
,
2000
0000
0000
0000
,
3002
0000
0000
0000
,
0203
0000
0000
0000
,
0320
0000
0000
0000
,
1030
1000
1000
1000
,
0001
0001
0001
0001
,
1000
0000
0001
0000
,
1000
0000
0001
0000
,
0010
0100
0010
1000
,
0010
0001
0010
0100
,
0110
0000
1001
0000
,
0010
0000
0100
0000
0010
0100
0010
0000
,
0001
1000
0010
0000
,
0001
0100
0010
0000
,
1000
1000
0010
0000
,
0001
0001
0010
0000
,
1000
0000
0000
0000
,
0001
0000
0000
0000
,
1010
0000
0000
0000
,
0011
0000
0000
0000
,
1000
0000
0100
0000
,
0001
0000
0100
0000
,
1000
0000
0010
0000
,
0001
0000
0010
0000
,
0100
0000
0100
0000
,
0001
0000
0000
0000
,
0100
0000
0100
0000
,
1000
0000
0000
0000
,
1000
0000
0010
0001
,
0100
0000
0001
0100
,
0010
1000
0010
0001
,
0100
0000
0100
0010
,
1000
0000
0000
0010
,
0100
0000
0000
1000
,
0001
0000
0000
0001
,
0100
0000
0000
0000
,
1001
0000
1000
0010
,
0100
0000
0001
1000
,
0010
0000
0001
0010
,
0100
0000
1000
0100
,
0010
0000
1000
0000
,
0001
0000
1000
0000
,
0010
0000
0001
0000
,
0010
0000
1001
0000
,
0001
0000
0000
0000
,
0000
0001
0000
1000
0000
0000
0000
0000
0000
0000
0000
0000
0000
0000
0000
0000
;

//--------------- dance-single - PWG ----------------
#NOTES:
     dance-single:
     PWG:
     Medium:
     10:
     0,0,0,0,0:
1000
1000
0001
0001
,
0010
1000
0001
0100
,
0010
0100
0001
1000
,
0010
0000
1000
0000
0001
0100
0001
0000
,
0010
0000
1000
0000
0001
0000
1000
0010
,
1000
0001
1000
0010
,
0100
0000
0001
0000
1000
0000
0010
1000
,
0001
0000
0010
0000
0100
0001
0100
0010
,
1000
0000
0001
0000
1000
0000
0010
1000
,
0001
0000
0010
0000
0100
0000
0010
1000
,
0001
0001
1000
1000
,
0010
0000
0100
0000
0001
1000
0010
0100
,
0001
0000
0001
0010
0100
1000
0001
1000
,
0010
1000
0100
0010
0001
0000
0001
0000
,
1000
1000
0010
0001
,
0100
0001
0100
0010
1000
0000
0001
0000
,
2000
3010
0002
0103
,
0020
0130
0002
1003
,
0020
0031
2000
3100
,
2000
3001
0020
0031
,
0100
0010
1000
0001
,
0010
1000
0100
0010
,
1000
0010
0100
0001
,
0010
0001
1000
1001
,
0010
0000
0001
1000
0010
0000
0001
0100
,
0010
0001
1000
0010
,
0100
0000
0001
1000
0010
0000
1000
0001
,
0010
0001
1000
0010
,
0101
0000
1010
0000
1000
0000
0001
0100
,
0010
0000
0001
0100
0010
1000
0100
0000
,
0010
0001
1000
0010
,
0100
0001
1000
0000
0010
0000
0100
0000
,
0001
1000
0010
1000
,
0001
0010
0001
1000
,
1100
0101
0010
1000
,
0001
0100
0011
1010
,
0001
1000
0010
0100
,
0001
0100
0010
1000
,
0010
0001
1000
0100
,
0100
1000
0001
0010
,
0001
0000
1000
0000
,
0001
0010
0001
0000
1000
0010
1000
0000
,
0010
0000
0100
0000
,
0001
0010
0001
0000
1000
0010
1000
0000
,
2000
3010
0002
0103
,
0001
1000
0010
1000
0001
0100
0001
0010
,
0001
0000
0020
0000
2030
0000
3002
0003
,
1001
0010
0100
0110
,
2200
0000
0000
0000
0000
0000
0000
3300
,
0202
0000
0000
0000
0000
0000
0000
0303
,
0220
0000
0000
0000
0000
0000
0000
0330
,
2002
0000
0000
0000
0000
0000
0000
3003
,
1000
0000
0100
0000
,
0010
0000
0001
0000
,
0010
0000
0001
0000
,
0100
0000
1000
0000
,
0010
0010
0100
0100
,
0001
0001
1000
1000
,
0010
0100
0001
1000
,
0010
1000
0001
0100
,
0010
0100
0001
1000
,
0010
1000
0001
0100
,
0001
0010
0001
0000
1000
0010
1000
0000
,
0010
1000
0010
0000
,
1001
0000
0010
0100
0001
0000
0000
0000
,
1000
0010
0100
0001
0100
0000
0010
0000
,
1000
0000
0000
1000
0010
0000
0001
0000
,
0100
0010
0100
0000
0001
0000
0000
0000
,
0010
0000
0000
0010
1000
0000
0001
0000
,
0100
0010
0100
0000
0001
0000
0000
0000
,
0010
0000
0000
1000
0001
1000
0010
0100
,
0001
0100
0010
0000
1010
0000
0011
0000
,
0010
0000
0001
1000
0010
0000
1000
0010
,
0100
0001
0100
0010
1000
0000
0100
0000
,
0010
0000
0001
0000
0100
0010
1000
0000
,
0010
0100
0001
0100
,
0010
0000
1000
0010
1000
0000
0010
0001
,
0010
0000
0001
1000
0010
0100
0001
0100
,
0010
1000
0010
0001
,
0100
0000
1001
0000
,
0010
0000
0001
0100
0010
0000
1000
0000
,
0010
0000
1000
0010
0100
0000
0001
0000
,
1000
0000
0010
0000
,
0001
0010
0100
1000
1000
0100
0010
0001
,
1000
0000
0010
0000
1000
0100
1000
0000
,
0001
0000
0010
0000
0001
0010
0001
0000
,
1000
0010
0001
0010
,
1000
0100
0001
0100
,
0010
0010
0100
0100
,
1000
1000
0001
0001
,
0001
0000
1000
0010
1000
0000
0001
0010
,
0001
1000
0010
1000
,
0010
0100
0001
0010
,
0001
1000
0010
1000
,
0001
0000
1000
0000
0010
0100
0010
1000
,
0001
0010
0001
1000
0100
1000
0010
0000
,
1000
0000
0000
0000
,
0000
0001
0000
0100
0000
0000
0000
0000
0000
0000
0000
0000
0000
0000
0000
0000
;

//--------------- dance-single - PWG ----------------
#NOTES:
     dance-single:
     PWG:
     Hard:
     13:
     0,0,0,0,0:
1000
0100
0010
0001
,
1000
0001
0100
0010
,
1000
0001
0100
0010
,
0100
1000
0001
0010
,
1001
0000
1000
1000
0010
0001
0000
0000
,
0100
0000
1000
0001
0100
0010
0000
0000
,
0001
0000
0010
1000
0100
1000
0000
0000
,
0010
0000
0001
0100
0010
1000
0000
0000
,
0010
0000
0001
1000
0010
1000
1001
0000
,
1010
0000
0001
0000
0110
0100
0011
0000
,
1010
0000
0001
1000
0010
1000
0101
0000
,
1100
0000
0010
1000
0001
0000
1001
0000
,
0000
0000
0001
1000
0001
0100
0010
1000
,
0010
1000
0001
0100
0010
1000
0001
0000
,
0000
0000
0010
1000
0001
0100
0010
0100
,
0001
0100
1000
0010
1000
1000
0001
0000
,
0000
0000
0001
1000
0010
1000
0001
1000
,
0010
0100
0001
0100
0010
1000
0001
0100
,
0010
0100
0001
1000
0100
1000
0010
1000
,
0001
1000
0001
0100
0010
0100
0001
1000
,
0010
1000
0001
1000
0010
0100
0001
0100
,
0010
1000
0001
1000
0100
1000
0010
0100
,
0001
0010
0001
0100
0010
1000
0001
1000
,
1001
0000
0110
0000
0101
0000
0000
0010
,
1100
0100
0011
0010
0001
1000
0010
1000
,
0001
0000
0100
0000
0010
0000
0100
0000
0001
0100
1000
0000
1000
0000
0001
0000
,
1000
0000
0000
0000
0001
0000
1000
0000
0010
0000
1000
0001
1000
0000
0010
0000
,
1000
0000
0001
1000
0010
0000
0001
0000
,
1001
0000
0010
1000
0001
0100
0001
0000
,
0010
0000
1000
0000
0001
0000
1000
0100
1000
0000
0000
0000
0001
0000
0000
0000
,
0100
0000
0000
0000
0010
0000
1000
0000
0001
0000
1000
0100
0010
0000
0100
0000
,
0001
0100
0001
0000
1001
0000
1001
0000
,
0010
1000
0001
0000
0010
0000
0011
0000
,
1010
0000
0001
1000
0010
1000
0101
0000
,
1100
0000
0010
1000
0001
1000
1001
0000
,
1010
0000
0001
0000
0101
0010
0001
0100
,
0010
1000
0001
0010
0100
0001
0100
0010
,
1000
0001
0100
0010
0100
1000
0010
0000
,
0001
1000
0010
0000
0001
0100
0010
0000
,
0010
1000
0001
0100
0010
0000
0010
0000
,
1001
0000
0010
0100
0001
0000
0010
0000
,
1000
0100
1000
0010
0001
0100
0010
0000
,
0001
0000
0001
0010
0100
1000
0100
0000
,
0010
1000
0001
1000
0100
0010
0001
0010
,
0100
0000
0001
1000
0010
0000
0010
1000
,
0100
0010
0001
0100
0001
1000
0010
1000
,
0100
0000
0010
1000
0001
0000
0010
0000
,
0100
0001
0010
0100
1000
0000
1001
0000
,
0020
0000
0000
0001
,
2030
0000
0000
0001
,
3200
0000
0010
0001
,
1300
0000
0000
0000
0100
1000
0001
1000
,
0010
0000
0010
1000
0001
0000
0010
0100
,
0001
0000
0010
1000
0001
1000
0010
0100
,
0001
0000
1001
0000
0010
1000
1001
0000
,
0010
1000
0001
0100
0010
1000
0001
0000
,
0001
0000
0010
1000
0001
0000
1000
0010
,
0100
0001
0100
0010
1000
0001
1000
0000
,
0100
1000
0010
0000
0001
0100
0010
0000
,
0001
0100
0010
1000
0100
1000
0010
0000
,
0001
0001
1000
1000
0010
0010
0100
0100
,
0001
0010
0001
0000
1000
0000
1000
0000
0010
0100
0010
0000
0100
0000
0100
0000
,
0001
1000
0010
0100
0001
0100
0010
1000
,
1001
1010
0011
0110
,
1001
0000
0010
1000
0001
0000
0001
0100
,
0010
0000
0010
1000
0001
1000
0100
1000
,
0010
0000
0001
0010
0100
0000
0001
0010
,
1000
0000
0100
0010
1000
0000
0001
0000
0100
0000
0010
0000
0100
0000
0010
0000
,
1000
0000
0100
1000
0010
0000
0001
0010
,
0100
0000
0000
0000
0010
0000
0100
0000
0010
0000
0010
0100
1000
0000
1000
0000
,
0100
0000
0010
0100
0100
0000
0100
0001
,
0010
0000
0010
0000
0100
0000
0010
0000
0100
0000
0001
0000
1000
0100
0010
0001
,
0010
0000
0010
0010
1000
1000
0100
0100
,
0001
0001
1000
0010
1000
0001
0100
0000
,
0001
0000
0001
0010
0100
1000
0010
1000
,
0001
0000
0010
0001
0100
0010
0100
0001
,
1000
0000
1010
0000
0011
0000
0010
1000
,
0001
1000
0010
1000
0100
0010
0001
1000
,
0001
0000
0001
1000
0001
0010
0001
1000
,
0100
1000
0010
1000
0001
1000
0010
0000
,
0001
0010
0001
0010
1000
0100
1000
0100
,
0010
0100
0010
0100
0100
0010
0100
0010
,
0100
0001
1000
0010
1000
0100
1000
0010
,
0100
0001
0100
0010
1000
0000
1001
0010
,
0010
1000
0001
1000
0010
1000
0001
0100
,
0010
0100
0001
0100
0010
1000
0001
0100
,
1001
0000
1001
0000
0010
0001
0100
0010
,
0100
0001
1000
0010
1000
0001
1000
0000
,
0010
1000
0001
1000
0010
0100
0001
0100
,
0001
0010
0001
1000
0010
1000
0001
1000
,
0010
0100
0001
0100
0010
1000
0010
1000
,
0001
0100
0010
1000
0001
1000
0100
1000
,
0010
0100
0001
0010
0001
0100
0010
0100
,
0010
1000
0001
1000
0100
1000
0010
0100
,
0001
1000
0010
0100
0001
0100
1000
0001
,
0110
1000
0100
1000
0010
0100
0001
0000
,
1001
0000
0000
0000
,
0000
0010
0000
1001
0000
0000
0000
0000
0000
0000
0000
0000
0000
0000
0000
0000
;
