#TITLE:Flamingo;
#SUBTITLE:;
#ARTIST:Kenshi Yonezu;
#TITLETRANSLIT:;
#SUBTITLETRANSLIT:;
#ARTISTTRANSLIT:;
#GENRE:;
#CREDIT:PWG;
#MUSIC:Flamingo.ogg;
#BANNER:Flamingo-banner.png;
#BACKGROUND:Flamingo-bg.png;
#CDTITLE:;
#SAMPLESTART:79.579;
#SAMPLELENGTH:25.263;
#SELECTABLE:YES;
#OFFSET:-8.000;
#BPMS:0.000=114.000;
#STOPS:;
#BGCHANGES:;
#FGCHANGES:;

//--------------- dance-single - PWG ----------------
#NOTES:
     dance-single:
     PWG:
     Beginner:
     5:
     0,0,0,0,0:
0000
0000
0000
0000
,
0000
0000
0000
0000
,
0000
0000
0000
0000
,
0000
0000
0000
0000
,
1000
0000
0000
0000
,
0001
0000
0000
0000
,
0010
0000
0100
0000
,
1000
0000
0000
0000
,
0001
0000
0000
0000
,
0100
0000
0000
0000
,
0010
0000
0100
0000
,
1000
0000
0000
0000
,
1000
0000
0010
0000
,
0001
0000
0010
0000
,
1000
0000
0100
0000
,
0001
0000
0100
0000
,
1000
0000
0000
1000
,
0001
0000
0000
0001
,
0010
0000
0100
0000
,
0100
0000
0010
0000
,
1000
1000
0010
0010
,
0001
0001
0100
0100
,
0100
0100
0001
0000
,
0100
0100
1000
0000
,
1000
0100
0010
0000
,
0001
0010
0100
0000
,
1000
0100
0000
0000
0000
0000
0000
0000
,
0001
0100
0000
0000
0000
0000
0000
0000
,
1000
0000
0000
0000
,
0001
0000
0000
0000
,
0010
0000
0000
0000
,
0100
0000
0000
0000
,
1000
0000
0000
0000
,
0010
0000
0000
0000
,
1000
0000
0100
0000
,
0001
0000
0100
0000
,
1000
0000
0010
0000
,
0001
0000
0010
0000
,
1000
0000
0000
0100
,
0010
0000
0000
0001
,
0100
0000
0010
0000
,
1000
0000
0000
0000
,
0010
0000
0001
0000
,
0001
0000
0010
0000
,
1000
0000
0010
0000
,
0010
1000
0010
1000
,
0100
0000
0001
0000
,
0010
0000
0100
0000
,
0010
0000
1000
0000
,
0001
0000
0000
0000
,
1000
1000
0010
0010
,
0001
0001
0100
0100
,
1000
0010
0000
0010
,
0001
0010
0000
0010
,
1000
0100
0000
0100
,
0001
0100
0000
0100
,
1000
0000
0010
0000
,
0001
0000
0010
0000
,
1000
0000
0000
0000
,
0010
0000
0100
0000
,
0001
0000
0000
0000
,
1000
0000
0001
0000
,
0100
0000
0000
0000
,
1000
0000
0100
0000
,
1000
0000
0000
0000
,
0010
0000
0100
0000
,
1001
0000
0000
0000
,
1001
0000
0000
0000
,
0110
0000
0000
0000
,
0110
0000
0000
0000
,
1000
0000
0000
0000
,
0001
0000
0000
0000
,
0100
0000
0000
0000
,
0010
0000
0000
0000
,
0001
0000
0000
0000
,
1000
0000
0000
0000
,
0010
0000
0000
0000
,
0100
0000
0000
0000
,
1000
1000
0001
0001
,
0100
0100
0010
0010
,
0001
0001
1000
1000
,
0010
0010
0100
0100
,
1000
0000
0010
0010
,
0001
0000
0100
0100
,
0100
0000
0010
0000
,
0001
0000
1000
0000
,
1001
0000
0010
0000
,
1001
0000
0100
0000
,
0110
0000
1000
0000
,
0110
0000
0001
0000
,
1000
0000
0000
0000
,
0010
0000
1001
0000
;

//--------------- dance-single - PWG ----------------
#NOTES:
     dance-single:
     PWG:
     Easy:
     7:
     0,0,0,0,0:
0000
0000
0000
0000
,
0000
0000
0000
0000
,
0000
0000
0000
0000
,
0000
0000
0000
0000
,
1000
0100
0010
0000
,
0001
0100
0010
0000
,
0001
0010
0100
0000
,
1000
0010
0100
0000
,
1000
0010
0100
0001
,
0010
0001
0100
1000
,
2000
0000
3010
0000
,
0002
0000
0103
0100
,
1000
0000
1000
0000
,
0001
0000
0001
0000
,
1001
0000
0000
0000
,
0110
0000
0000
0000
,
1000
0100
0000
0000
0000
0000
0000
0000
,
0001
0010
0000
0000
0000
0000
0000
0000
,
0100
0100
0010
0010
,
1000
0001
0100
0000
,
1000
0000
0100
0000
0010
0000
0001
0100
,
0000
0001
0000
0000
0000
0000
0000
0000
,
1000
0000
0010
0000
0100
0000
0001
0100
,
0000
0010
0000
0000
0000
0000
0000
0000
,
1000
0000
0100
0000
0001
0000
0100
0010
,
0000
1000
0000
0000
0000
0000
0000
0000
,
1000
0000
0010
0000
,
0001
0000
0010
0000
,
1000
0100
1000
0000
,
0001
0100
0001
0000
,
1000
0000
0100
0100
,
1000
0000
0100
0100
,
0001
0000
0010
0010
,
0001
0000
0010
0010
,
0001
0000
0100
0100
,
1000
0000
0100
0100
,
0110
0000
1001
0000
,
1010
0000
0101
0000
,
1000
0100
0000
0000
0000
0000
0001
0000
,
0001
0010
0000
0000
0000
0000
0000
0100
,
0100
1000
0100
0000
0010
0000
0000
0000
,
0001
0000
0000
0001
0100
0000
0010
0000
,
1000
0000
0010
0000
,
0001
0000
0010
0000
,
1000
0000
0100
0000
,
0001
0000
0001
0100
,
0010
0100
0001
1000
,
1000
0001
0100
0010
,
1000
0000
0001
0000
,
0010
0000
0100
0000
,
1100
0000
0000
0000
,
0101
0000
0000
0000
,
0011
0000
0000
0000
,
1010
0000
1010
1010
,
1000
0000
0100
0000
0010
0000
0001
0010
,
0000
0001
0010
0000
1000
0100
0000
0010
,
0100
0001
1000
1000
,
0010
0100
0001
0000
,
0010
1000
0100
0000
,
0001
0100
0010
0001
,
1000
1000
0000
0000
0010
0010
0000
0000
,
0001
0001
0000
0000
0100
0100
0000
0000
,
1000
0000
0100
0000
,
0010
0000
0001
0000
,
0001
0000
0010
0000
,
0100
0000
1000
0000
,
1000
0010
0001
0010
,
1000
0100
0001
0100
,
1000
0000
0010
0010
,
0001
0000
0010
0010
,
1000
0000
0100
0100
,
0001
0000
0100
0100
,
1000
0000
0100
0000
,
0010
0000
0001
0000
,
0010
0000
0100
0000
,
1000
0000
0000
0000
,
1010
0000
0000
0000
,
0011
0000
0000
0000
,
1000
0000
1000
0000
0010
0000
0100
0001
,
0010
0000
0001
1000
0010
0000
0100
0000
,
0010
0000
1000
0000
0001
0000
0100
0010
,
0100
0000
0001
1000
0010
0000
1000
0000
,
0100
0000
0010
0000
1000
0000
0001
0100
,
0010
0000
0001
0010
0100
0000
1000
0000
,
0010
1000
0010
0100
,
0001
0000
0010
0000
0001
1000
0010
0000
,
1000
0000
0100
0010
0100
0000
0001
1000
,
0010
1000
0100
0000
0001
0000
0010
0000
,
0001
0100
1000
0100
,
0010
0100
0001
1000
,
1000
0100
1000
0000
0001
0100
0001
0000
,
0100
0010
1000
0001
1000
0010
0100
0000
;

//--------------- dance-single - PWG ----------------
#NOTES:
     dance-single:
     PWG:
     Medium:
     13:
     0,0,0,0,0:
0000
0000
0000
0000
,
0000
0000
0000
0000
,
0000
0000
0000
0000
,
0000
0000
0000
0000
,
1000
0100
0001
0010
0000
0001
0010
0000
,
0001
0010
1000
0100
0000
1000
0100
0000
,
1000
0100
0010
0001
0010
0001
0010
0100
,
0001
0000
0100
0000
0010
0000
0100
0000
0001
0010
0100
0000
1000
0000
0100
0000
,
0010
0000
0001
0100
0000
0010
1000
0000
,
1000
0000
1000
0100
0000
0001
0010
0000
,
0001
0100
0010
0000
1000
0010
0100
0000
,
0100
0010
0100
0010
0100
0010
0100
0000
,
0001
0100
1000
0100
,
0001
0010
1000
0010
,
1000
0100
0001
0100
,
1000
0010
0001
0010
,
1000
0010
0100
0001
0100
0010
1000
0001
,
1000
0010
0100
0001
0100
0010
1000
0001
,
1000
1000
0001
0001
,
0110
1001
1100
0011
,
1000
0000
1000
0000
0001
0000
0001
0010
,
0000
0100
1000
0000
0010
0000
0001
0000
,
1000
0000
0010
0000
0100
0000
1000
0100
,
0000
0100
0010
0000
0001
0100
0010
0100
,
0001
0000
1000
0010
0000
0001
0010
0000
,
0100
0000
1000
0100
0000
0001
0100
0000
,
0001
0100
0010
0100
0001
0100
0010
0100
,
1000
0010
0100
0010
1000
0010
0100
0010
,
1000
0000
0001
0000
0010
0100
0001
0000
,
0010
0000
1000
0000
0001
0000
1000
0000
1000
0100
1000
0000
0001
0010
0001
0000
,
2000
0000
0010
0001
0000
0010
0001
0000
,
3002
0000
0010
1000
0000
0010
1000
0000
,
1003
0100
1000
0000
0001
0100
0001
0000
,
0100
0010
0100
0010
0100
0000
0010
0100
,
0010
0000
0010
0000
1000
0000
0001
0100
,
0010
0000
0100
0000
1000
0010
1000
0100
,
0010
0000
0100
0000
0001
0000
1000
0010
,
0101
0000
0100
0010
0100
0000
1010
0000
,
0001
0000
1000
0010
0000
0001
0010
0000
,
0100
0000
1000
0100
0000
0001
0010
0001
,
0100
0001
1000
0010
1000
0001
0100
0010
,
1000
0000
1000
0010
0001
0000
0001
0010
,
1000
0000
0001
1000
0010
0000
0001
1000
,
0010
0000
0001
1000
0010
0000
0001
1000
,
0010
0000
0001
0100
0010
0000
0001
0100
,
0010
0000
0001
0100
0010
0000
0001
0100
,
1000
0000
0001
1000
0100
0000
0001
1000
,
0100
0000
0001
1000
0100
0000
0001
0100
,
1000
0000
1000
0100
0001
0000
1000
0100
,
0010
0000
1000
0010
0001
0000
1001
0000
,
1200
0000
0010
0000
0001
0000
0001
0010
,
0000
0001
0310
0000
0011
0000
1100
0000
,
0201
0000
0010
0000
1000
0000
0010
1000
,
0300
0010
1000
1000
0100
0000
0100
0000
,
0001
0010
0001
1000
0100
1000
0100
0000
,
0010
0000
0000
0000
1000
0000
0000
0000
1000
0010
0100
0000
0001
0000
0100
0000
,
0010
0010
0100
0100
0001
0001
0100
0010
,
1000
1000
0100
0010
0100
0000
0001
0000
,
1000
0100
0010
0000
0001
0100
0010
0000
,
0001
0010
0100
0000
1000
0010
0100
0000
,
0010
0000
0100
0010
0000
0100
0010
0000
,
0001
0000
1000
0001
0000
1000
0001
0000
,
1000
0000
1000
0001
0000
0001
1000
0000
,
0001
1000
0001
1000
0010
0100
0000
0100
,
0001
0000
0010
1000
0001
1000
0000
1000
,
0010
0000
0001
0100
0010
0101
0000
1000
,
0010
1000
0001
1100
0001
0010
0000
0001
,
0000
0100
0010
0000
1000
0001
0000
1000
,
0000
0010
0001
0000
1000
0100
0000
0100
,
1000
0000
0010
0001
0010
0000
0100
0000
,
1000
0100
0010
0000
1000
0100
0010
0000
,
0001
0100
0010
0000
0001
0100
0010
0000
,
0001
0010
0100
0000
0001
0010
0100
0000
,
1000
0010
0100
0000
1000
0010
0100
0000
,
0110
0000
1001
0000
,
1100
0000
0011
0000
,
1000
0010
0000
0001
,
0100
0000
0010
0000
,
2100
0000
0001
0000
0010
0000
0001
0010
,
3000
0001
0010
0010
0100
0001
0100
0010
,
1000
0000
1000
0010
0100
0000
0001
0010
,
0001
0000
1000
0000
0100
0000
1000
0100
0010
0100
1000
0100
0010
0000
0100
0000
,
0010
0000
0010
0001
1000
0000
1000
0010
,
0100
0000
0001
0100
0010
0000
0010
0100
,
0001
1000
0000
0010
1000
0001
0000
0100
,
0010
0100
0000
0001
1000
0010
0000
1000
,
0001
0000
0100
0010
0100
0001
0000
1000
,
0010
0100
0000
0001
0100
0010
0100
0001
,
1000
1000
0100
0100
0010
0010
0001
0001
,
0001
0001
0010
0010
0100
0100
1000
1000
,
1010
0000
0011
0000
,
0101
0000
1100
0000
;

//--------------- dance-single - PWG ----------------
#NOTES:
     dance-single:
     PWG:
     Hard:
     17:
     0,0,0,0,0:
0000
0000
0000
0000
,
0000
0000
0000
0000
,
0000
0000
0000
0000
,
0000
0000
0000
0000
,
1000
0100
0000
0000
1000
0010
0100
0000
0000
0000
0000
0000
1001
0000
0000
0000
,
0001
0100
0000
0000
0010
1000
0001
0000
0000
0000
0000
0000
0110
0000
0000
0000
,
1000
0100
0000
0000
1000
0010
0100
0000
0001
0010
0000
0000
0001
0100
0010
0000
,
1000
0001
0000
1000
0010
1000
0001
0100
0010
0100
0001
0000
1000
0000
0010
1000
,
0001
1000
0000
0010
0100
0001
0100
0000
0010
0000
1000
0001
1000
0000
0010
0000
,
1000
0000
0001
0000
0100
0010
0100
0000
0001
1000
0010
1000
0001
0000
1000
0010
,
1000
0000
0100
0000
1000
0010
0100
0000
0001
0000
0100
0000
0001
0010
0001
0000
,
0100
0010
0000
0000
1000
0001
2000
0000
0000
0000
0000
0000
3000
0000
0000
0000
,
0010
0000
0100
0001
1000
0000
1100
0000
,
1000
0000
0010
0100
0010
0000
0011
0000
,
1000
0010
0100
0001
0100
0000
0010
1000
,
0001
0000
0000
0000
1000
0000
0010
0000
0100
0001
0100
0010
1000
0000
0100
0000
,
1000
0010
0100
0000
0001
1000
0010
0000
,
0001
0000
1000
0010
1000
0000
0001
0000
0100
0000
0010
0100
0001
0000
0010
0000
,
0001
0000
0000
1000
0010
0000
0000
1000
0001
0000
0000
0100
0001
0000
0010
0000
,
0001
0000
1000
0000
0010
1000
0000
0001
0000
0000
0100
0000
1000
0000
0010
0000
,
0021
0000
0000
0030
1020
0000
0000
0030
1200
0000
0000
0300
0201
0000
0000
0301
,
0000
0000
0100
0000
0000
0000
0010
0000
0100
0000
0001
0000
1000
0100
0010
0000
,
2002
0000
0000
3003
0220
0000
0000
0330
2200
0000
0000
3300
0022
0000
0000
1033
,
0000
0000
0100
0000
0000
0000
1000
0000
0001
1000
0010
0100
0001
0000
0100
0000
,
0020
0000
1000
0000
0001
0100
1000
0100
,
0031
0000
1000
0010
0000
1000
0001
1000
0010
0000
0100
0000
0001
0000
0100
0000
,
0001
0000
1000
0001
0000
1000
0010
1000
0001
0000
0000
0000
0010
0000
0100
0000
,
0001
0000
0000
0000
0100
0000
0010
0000
1000
0000
0001
1000
0010
1000
0100
0000
,
0001
0000
0100
0010
0100
0000
0001
0010
0001
0100
0001
0000
0100
0000
0010
1000
,
0001
1000
0010
1000
0001
1000
0010
1000
0100
0000
1000
0010
0100
0000
0001
0000
,
0010
0000
0011
0000
0001
0100
0010
0100
0001
1000
0010
1000
0001
0100
0010
0000
,
0001
0000
1100
0000
0010
0000
1000
0001
1000
0000
0010
0000
0100
0000
0001
0000
,
1000
0100
1000
0000
0001
0010
0001
0000
0100
0000
0001
0100
0010
0000
0100
0000
,
0010
0100
0010
0100
0001
1000
0001
1000
0100
1000
0100
1000
0001
0010
0001
0010
,
1000
0000
0100
0100
0000
0010
0001
0000
,
0010
0000
0000
0000
0100
0000
0010
0000
0100
0000
0001
1000
0010
0000
0000
0000
,
0001
0000
1000
0000
0010
1000
0001
0000
0100
0000
0010
0000
0100
0001
0010
0000
,
0001
1000
0000
0000
0010
1000
0001
0000
0000
0000
0000
0000
0000
0000
0000
0000
,
0010
0100
0000
0000
0001
1000
0010
0000
0000
0000
0000
1000
0000
0000
0100
0000
,
0010
0100
0000
0000
0001
0010
0001
0000
0000
0100
0000
0000
0010
0000
0000
0000
,
0001
1000
0000
0000
0010
1000
0001
0000
1000
0010
0000
0000
0100
0001
0010
0000
,
0001
0000
0100
0010
0100
0000
0001
1000
0010
1000
0001
1000
0010
1000
0100
1000
,
0010
0000
0100
0000
0001
0100
0001
0010
0001
0100
0001
1000
0001
0000
1000
0000
,
0010
0100
0001
0000
0100
0000
0010
0000
1000
0000
1000
0001
0000
0100
0010
0000
,
0100
0000
0001
0000
1000
0010
1000
0000
0001
0100
0010
0000
0100
0001
0010
0000
,
0001
0010
0001
0100
0010
1000
0001
1000
0010
1000
0100
1000
0010
0100
0001
0100
,
0010
1000
0001
0100
0010
0000
0000
0001
0000
0010
1000
0000
0001
1000
0010
0100
,
0000
0100
0001
0100
0010
0100
0001
0000
1000
0010
0000
1000
0001
0000
0100
0000
,
0010
0100
0000
0001
0100
0000
0010
1000
0000
0001
1000
0000
0010
1000
0001
0000
,
0100
0010
0100
0001
1000
0010
1000
0001
1000
0000
0000
0000
0110
0000
0000
0000
,
1001
0000
0000
0000
1100
0000
0000
0000
0011
0000
0000
0000
0110
0000
0000
1001
,
0000
1100
0000
0010
0100
0001
0010
0000
,
1010
0000
0000
0000
0011
0000
0000
0000
0110
0000
0000
0000
1001
0000
0000
1100
,
0000
0000
0011
0000
0000
0000
0010
0000
0100
0001
0100
0010
1000
0000
0001
0000
,
2000
0000
0010
0000
0001
0000
0000
0010
,
0100
0000
0000
0100
0000
0000
0100
0001
,
3010
0000
0100
0001
0010
1000
0001
0000
,
1000
0000
0010
0000
0100
0001
0100
0010
1000
0001
1000
0010
1000
0000
0100
0000
,
1000
0000
0000
0010
1000
0000
0001
0000
0100
0000
0010
0000
0100
0000
0001
0000
,
0100
0000
0000
0100
0010
0000
0100
0000
0001
0000
0000
0000
0010
0000
0000
0000
,
2100
0000
0100
0010
0100
0000
0010
0000
,
3012
0000
0100
0010
0100
0100
0013
0000
,
1100
0000
0011
0000
0100
0010
0100
0000
,
1010
0000
0101
0000
0100
0010
0001
0100
,
1000
0100
0010
0001
1000
0100
1000
0010
,
0001
0010
0100
1000
0001
0010
0001
0100
,
1001
0000
1000
0100
1000
0100
1000
0000
1001
0001
0100
0100
0010
1000
0001
0000
,
1100
0000
0100
0010
0100
0001
1000
0000
0110
0010
0001
0100
0001
1000
0100
0000
,
1000
1000
0010
0010
,
0100
0000
0100
0001
0001
0000
0001
0000
,
0010
1000
0001
0000
1000
0000
0010
0000
0100
0001
0100
0000
0010
0000
1000
0001
,
1000
0000
0010
0000
1000
0100
1000
0000
0010
0100
0001
0100
0010
0000
1000
0000
,
0001
1000
0100
1000
0010
0100
0001
0010
,
0001
1000
0010
1000
0001
1000
0100
1000
0010
0100
0010
0100
0001
0000
0100
0000
,
0010
0100
1000
0100
1010
0010
0100
0010
,
0011
0010
0100
1000
1001
0000
0110
0000
,
1000
0010
0100
0000
0001
0100
0010
0000
,
1001
0000
0000
0000
,
0020
0000
0000
0000
1000
0000
0000
0000
0100
0000
0000
0000
0001
0000
0000
1030
,
0000
0010
0001
0000
0000
0000
0010
0000
0100
0001
0100
0000
0010
0000
1000
0000
,
0200
0000
0000
0000
1000
0000
0000
0000
0010
0000
0000
0000
1000
0000
0000
0301
,
0000
1000
0100
0000
0000
0000
0010
0100
0001
1000
0010
1000
0100
1000
0010
0100
,
0001
0000
0100
0010
0100
0000
1001
0000
0010
0000
1000
0100
1000
0000
0010
1000
,
0001
0100
0110
1001
1010
0101
1010
0101
,
0010
0100
0001
0100
0010
1000
0001
1000
0100
1000
0010
0100
0001
0100
0010
0100
,
0001
0000
1000
0000
0010
1000
0001
0000
0100
0001
0010
0000
0001
0100
0010
0000
,
0100
0001
1000
0010
1000
1000
0001
0010
1000
0100
0001
0001
0010
0010
0100
0100
,
0001
0010
0001
0100
0010
0000
1000
0001
1000
0000
0100
0000
1000
0000
0010
0000
,
1000
0100
0010
0001
1000
0100
0010
0001
0001
0010
0100
1000
0001
0010
0100
1000
,
0001
0000
1000
0000
0010
0000
1000
0000
0001
0100
0010
0100
0001
0000
1000
0000
,
0010
1000
0100
1000
0010
0100
0001
0010
,
0001
0100
0010
0000
0100
0001
1000
0000
0010
1000
0001
1000
0101
0000
1010
0000
;
