#TITLE:Bellyache;
#SUBTITLE:;
#ARTIST:Billie Eilish;
#TITLETRANSLIT:;
#SUBTITLETRANSLIT:;
#ARTISTTRANSLIT:;
#GENRE:;
#CREDIT:PWG;
#MUSIC:Bellyache.ogg;
#BANNER:Bellyache.png;
#BACKGROUND:Bellyache-bg.png;
#CDTITLE:;
#SAMPLESTART:0.000;
#SAMPLELENGTH:0.000;
#SELECTABLE:YES;
#OFFSET:-0.040;
#BPMS:0.000=100.000;
#STOPS:;
#DISPLAYBPM:100.000;
#BGCHANGES:;
#FGCHANGES:;

//--------------- dance-single - PWG ----------------
#NOTES:
     dance-single:
     PWG:
     Beginner:
     4:
     0,0,0,0,0:
1000
0000
0000
0000
,
0001
0000
0000
0000
,
1000
0000
0000
0000
,
0001
0000
0000
0000
,
1000
0010
1000
0000
,
0001
0100
0001
0000
,
1000
0000
0001
0000
,
0000
0000
0000
0000
,
2002
0000
3003
0000
,
0220
0000
0330
0000
,
0001
0100
0000
0000
,
1000
0010
0000
0000
,
0002
0000
1000
0000
,
2003
0000
3001
0010
,
0100
0000
0000
0000
,
1000
0000
0000
0020
,
0001
0001
0001
0001
,
0031
0000
0000
0020
,
1000
1000
1000
1000
,
1030
0000
0000
0000
,
1001
0010
0100
0000
,
1001
0100
0010
0000
,
1000
0000
0000
0000
,
0001
0000
0000
0000
,
2000
0000
3010
1000
,
0002
0000
0103
0010
,
1000
0000
0001
0000
,
0200
0000
0000
0000
,
0310
0100
0010
0100
,
0010
0000
0000
0000
,
1000
0001
1000
0001
,
1000
0000
0000
0000
,
1000
0000
0001
0000
,
1000
0000
0001
0000
,
2002
0000
0000
0000
,
3003
0000
0000
0000
,
1001
0000
0010
0000
,
1001
0000
0100
0000
,
1000
0000
0010
0000
,
0001
0000
0010
0000
,
2000
0000
3200
0000
,
0320
0000
0032
0000
,
1003
0010
0100
0000
,
0001
0100
0010
0000
,
1000
0000
1000
0000
,
0001
0000
0001
0000
,
1000
0200
0000
0000
,
0000
0000
0000
0000
0000
0000
0000
0300
,
0001
0000
0100
0000
,
0010
0000
1000
0000
,
0001
0200
0000
0000
,
0000
0000
0000
0310
,
0100
0000
0000
0000
,
0000
0000
0000
1000
,
0001
0000
0000
0000
,
0000
0000
0000
1000
,
0100
0000
0001
0000
,
0100
0000
0001
0000
,
1000
0010
0000
0000
,
0001
0100
1001
0000
,
0010
1000
0000
0000
,
0010
0001
0000
0000
,
0010
0100
0110
0000
,
0100
0010
0110
0000
,
0001
0000
1000
0000
,
0001
0000
1000
0000
,
0001
0000
0000
0000
,
1000
0000
0000
0000
,
1000
0100
0010
0001
,
0000
0000
0000
0000
,
0001
0010
0100
1000
,
0000
0000
0000
0000
,
2000
0000
0000
3000
1000
0000
0000
0000
,
0002
0000
0000
0003
0001
0000
0000
0000
;

//--------------- dance-single - PWG ----------------
#NOTES:
     dance-single:
     PWG:
     Easy:
     6:
     0,0,0,0,0:
1000
0000
0001
0000
,
1000
0100
1000
0001
,
0001
0000
1000
0000
,
0001
0010
0001
0100
,
1000
0000
0001
0000
,
0010
0000
0100
0000
,
0001
0000
1000
0000
,
1000
0100
0010
0000
,
0010
1000
0100
0001
,
0100
0010
1000
0001
,
1000
0010
0001
1000
,
0001
0010
1000
1001
,
2000
0000
0000
3000
0020
0000
0000
0030
,
0002
0003
0200
0300
0010
0000
0000
0000
,
0002
0000
0000
0003
2000
0000
0000
3000
,
1000
0010
0100
0000
,
1100
0010
0001
0000
,
0011
0001
0100
0000
,
2000
3000
0200
0300
,
0020
0030
0002
0003
,
0001
0000
0001
0010
,
1000
0000
1000
0100
,
0001
0000
0001
0000
,
0001
1000
1000
1000
,
0010
0100
0001
1000
,
0010
0100
0001
1000
,
1000
0010
0100
0001
,
1000
0000
0100
1000
0010
1000
0001
0000
,
0010
0001
0010
0001
,
0100
0000
0000
0000
,
0001
0100
0010
1000
,
0002
0000
0000
0000
0000
0000
0000
0003
,
0001
0000
0001
0000
,
2000
0000
0000
3000
,
0001
0010
0100
0000
0000
0000
0000
0000
,
1000
1000
1001
1001
,
0020
0031
0200
1300
,
0110
0001
1000
0020
,
0100
0000
0000
0030
0200
0000
0000
0000
,
0010
0000
0000
0300
0010
0000
0000
0000
,
0002
2003
3000
0000
,
0020
0230
0300
0000
,
0001
0000
1000
0000
,
0100
0000
0001
0000
,
0010
1000
0001
0100
,
0001
1000
0010
0100
,
0001
0001
1000
1000
,
0100
0010
0001
1000
,
0010
0000
0001
0000
,
1000
0010
0001
0100
,
2002
0000
0000
0000
,
3003
0000
0000
0000
0000
1000
0100
1000
,
0020
0000
0000
0000
,
0000
0030
0000
0000
0000
0000
0001
0010
,
0001
0200
1300
0010
,
0001
0000
0000
0000
,
1000
0000
0001
0000
,
1000
0100
0010
0001
,
2000
0000
0000
3000
1000
0000
0000
0000
,
0020
0031
0100
0001
,
2010
3000
1000
0000
0102
0003
0001
0000
,
2000
3000
0020
0030
0002
0003
0200
0300
,
0001
0000
1000
0000
,
0001
1000
0100
0001
,
0010
0000
0001
1000
,
0010
0000
0001
1000
,
0001
0000
0020
0000
,
0230
0000
0301
1000
,
1010
0001
0101
1000
,
0010
1000
0001
0010
,
0001
1000
0010
0100
,
1001
0001
0110
1000
,
1000
0100
0001
1000
,
0010
0000
0000
0000
1000
0010
0001
0100
;

//--------------- dance-single - PWG ----------------
#NOTES:
     dance-single:
     PWG:
     Medium:
     9:
     0,0,0,0,0:
1000
0100
0010
0001
,
1100
0000
0000
0000
,
0001
0010
0100
1000
,
0011
0000
0000
0000
,
1000
0000
0010
0001
1000
0010
1000
0000
,
0001
0000
0100
1000
0001
0100
0001
0000
,
1000
0010
0001
0000
0001
0000
0010
0000
,
1001
0000
0100
0000
0010
1000
0001
0000
,
0001
0000
1000
0010
0100
0000
0001
0000
,
1000
0000
0001
0100
0010
0000
0001
1000
,
0010
0001
0100
0010
,
1000
0001
0100
0010
1000
0000
0001
0000
,
0001
0000
0001
0100
0010
1000
0100
0000
,
0100
1000
0100
0000
0010
0000
0001
1000
,
0010
0000
0100
0000
0001
1000
1000
0000
,
0010
0000
0001
0100
0010
0000
1000
0000
,
0001
0000
0001
0001
1000
0000
1000
1000
,
0010
0100
0001
1000
0100
0000
0010
0000
,
0001
0000
1000
0010
0100
0000
0100
0010
,
1000
0000
0001
1000
0010
0000
0001
1000
,
0010
1010
0100
0011
,
1000
0000
1000
0001
0010
0000
0010
0100
,
0001
0000
0001
0100
0010
0000
0010
0100
,
0001
0000
0001
1000
0010
0000
1001
0000
,
0010
0000
0001
1000
0010
0000
0001
0100
,
0001
0010
0001
1000
,
0010
0100
0001
0000
1000
0000
0010
0000
,
0200
0000
0000
0000
0000
0301
1000
0010
,
2000
0000
0002
3000
1000
0000
0013
0000
,
0100
0000
0000
0000
0000
0000
0001
0100
,
0020
2030
3002
0203
,
0320
0000
0030
0000
0000
0000
0001
1000
,
0010
0001
0100
0010
,
2000
0000
0010
3010
,
1000
0001
1000
0001
,
0100
0010
1000
0001
1000
0000
0001
0000
,
2020
0000
3031
0100
0202
0303
0001
1000
,
0010
0100
0001
1000
0020
0000
1030
0000
,
0001
0000
0100
0010
2000
0000
3001
0000
,
0100
0000
0001
0100
0020
0000
1030
0000
,
0002
1003
0010
0200
,
0301
1000
0010
0000
0100
0000
0001
0000
,
1000
0010
1000
0000
0001
0100
0001
0000
,
0010
0010
0100
0100
,
0002
0000
1000
0000
0013
0000
1000
0020
,
0001
0000
0100
0000
0031
0000
1000
0010
,
0200
0000
0010
0000
0301
0000
0100
0010
,
2000
0000
0100
0000
3010
1000
0001
0100
,
0010
1000
0001
0100
,
0001
1000
0001
0000
1000
0000
0010
1000
,
0001
2000
0000
0000
0000
0000
0000
0000
,
0000
0000
0000
0000
3000
1000
0100
0010
,
0002
0203
0302
2003
,
3020
0000
0030
0000
0000
0000
1000
0100
,
0010
0001
0010
0001
,
1000
0000
0000
0000
0000
0000
0010
0100
,
0001
1000
0010
1000
,
0100
0000
0000
0001
0000
0100
0000
0000
,
0010
0000
0000
0000
,
0001
1000
0001
1000
0010
0000
0010
0000
,
0010
0100
0001
0000
0001
1000
0010
0000
,
0010
0100
0001
1000
0010
0000
0100
0000
,
0001
0000
1000
0010
0100
0000
0001
0000
,
0100
0001
1000
0000
0010
0000
0010
0000
,
0100
0001
1000
0000
,
0001
0010
0100
0000
,
0010
0000
1000
0000
,
0001
0000
0100
0000
,
1001
0000
0110
0000
0001
1000
0001
0000
,
1010
0000
0101
0000
0010
0100
0010
0000
,
0001
1000
0010
0000
,
0010
1000
0001
0001
,
0001
0000
0100
0010
0100
0000
0000
0000
,
0001
0000
1000
0100
0010
0000
0010
0000
;

//--------------- dance-single - PWG ----------------
#NOTES:
     dance-single:
     PWG:
     Hard:
     13:
     0,0,0,0,0:
2000
3200
0320
0032
,
1003
0100
1000
0100
0001
0010
0001
0010
,
2000
3200
0302
0023
,
0031
0010
0001
0010
1000
0100
1000
0100
,
1000
0000
0000
1000
0000
0000
1000
0000
0000
1000
0000
0000
0100
0000
0010
0000
,
0001
0000
0000
0001
0000
0000
0001
0000
0000
0001
0000
0000
0001
0000
0010
0000
,
1000
0010
0001
0010
0001
0100
1000
0100
,
0010
0010
0100
0100
1000
0001
1000
0001
,
1000
0001
0010
1000
0010
0001
0010
0100
,
1000
0100
1000
0010
0001
0100
0010
1000
,
1000
0000
0100
0000
1000
0100
0010
0001
,
0001
0000
0010
0000
0001
0010
0100
1000
,
1000
0000
0000
0100
0000
0000
1000
0000
0000
0000
0000
0000
0110
0000
0000
0000
,
0001
0000
0000
0010
0000
0000
0001
0000
0000
0000
0000
0000
0110
0000
0000
0000
,
2000
0100
0010
3001
,
0001
0010
0001
0010
1000
0100
1000
0100
,
0010
1000
0100
0001
1000
0010
0001
0000
,
0010
1000
0100
0001
0010
0100
1000
0000
,
1000
0100
1000
0100
0100
0010
0100
0000
,
0001
0010
0001
0010
0100
0010
0100
0000
,
1000
0000
0000
0100
1000
0000
0100
0000
0001
0000
0000
0010
0001
0000
0010
0000
,
1000
0100
0010
0100
0001
0010
0100
0010
,
1000
1000
0001
0001
1000
0010
0001
0100
,
1000
0000
0010
0010
0001
1000
0100
0000
,
1000
0100
1000
1000
0010
0100
0010
0000
,
0001
0010
0001
0001
0100
0010
0100
0000
,
1000
0100
0010
0001
0000
0000
0000
0000
,
2002
0000
0000
0000
0000
3000
1003
0001
,
2200
3301
0022
1033
,
1001
0000
0000
0000
0000
0000
1000
0100
,
2000
0000
0100
0000
0010
0001
0010
0000
,
3100
0000
0000
0000
0000
0000
0001
0010
,
0002
0000
0010
0000
0100
1000
0100
0000
,
0013
0000
1000
0000
0100
0000
0010
0001
,
0010
0100
0010
1000
0100
0001
0100
0000
,
1010
0000
1001
0000
0101
0000
1001
0000
1000
0100
1000
0000
1000
0000
0000
0010
,
0001
0010
0000
0000
0000
0000
0000
0000
0000
0100
0001
0000
0010
0000
1000
0000
,
0100
0001
0000
0000
0000
0000
0000
0000
1000
0000
0100
0000
1000
0000
0010
0000
,
0202
0000
0000
0000
,
0000
0000
0303
1000
0100
0010
1000
0010
,
0100
0010
0000
0000
0000
0000
0000
0000
1000
0000
0010
0001
0000
0000
0100
0000
,
0010
1000
0000
0000
0000
0000
0000
0000
1000
0101
0010
1000
0001
0100
0010
0000
,
1010
0000
0000
1010
0000
0000
0101
0000
0000
0000
0000
0000
0000
0000
0000
0000
,
0101
0000
0000
0101
0000
0000
1010
0000
0000
0000
0000
0000
0000
0000
0000
0000
,
0002
1000
0010
0100
0013
0100
0001
1000
,
1000
0000
0100
0000
0010
0000
0000
0001
0100
0000
0010
0000
1000
0000
0001
1000
,
0010
0100
0100
1000
0010
0100
0001
1000
,
0010
0001
0010
0100
0001
1000
0010
0000
,
1000
0000
0010
0000
1000
0010
1000
0000
0001
0000
0100
0000
0010
0001
0010
0000
,
1000
0000
0100
0000
0010
0000
0001
0000
0001
0000
0100
0000
1000
0000
1001
0100
,
1000
0010
0000
0000
0000
0000
0000
0000
,
0000
0000
0000
0000
0000
0001
1000
0010
,
2000
0001
0010
0001
,
3100
0000
0000
0000
0000
0000
0001
0010
,
0200
0000
0000
0000
0010
0000
0000
0000
0001
0000
0000
0000
1000
0000
0000
0300
,
0010
0000
0000
0000
0000
0000
0001
0100
,
0010
0000
0000
1000
0001
0000
0010
0000
0010
0000
0000
0001
1000
0000
0100
0000
,
0100
0000
0000
1000
0001
0000
0100
0000
0010
0000
0000
0100
0001
0000
0100
0000
,
0001
0000
0000
0001
0100
0000
0010
0000
0100
0000
0000
1000
0001
0000
0100
0000
,
1010
0000
0010
0000
0101
0000
0100
0000
1000
0100
1000
0000
1000
0000
0000
0000
,
0001
0100
0010
0000
0000
0000
0000
0000
0000
1000
0001
0000
0100
0000
0010
0000
,
1000
0000
0000
0001
0000
0000
0000
0000
0000
0000
0000
0000
0000
0000
0000
0000
0000
0000
0000
0000
0000
0000
0000
0000
0001
0000
0000
0000
0100
0000
0000
0000
0000
0010
0000
0000
1000
0000
0000
0000
0000
0000
0000
0000
0000
0001
0000
0000
,
0000
0100
0010
0000
1000
0000
0100
0000
,
0010
0001
1000
0010
0100
0001
1000
0010
,
1000
0100
0000
0000
0000
0000
0000
0000
0001
0000
0010
0001
0000
0000
0100
0000
,
0010
1000
0000
0000
0000
0000
0000
0001
1000
0010
0100
0001
1000
0010
0100
0000
,
0000
1000
0000
0000
1000
0000
0000
1000
0000
0000
0000
0000
0000
0000
0000
0000
,
0001
0000
0000
0001
0000
0000
0001
0000
1000
0010
0100
0000
0010
0000
0000
0100
,
0001
1000
0000
0000
0010
0000
1000
0000
0001
0000
0000
0100
0010
0000
1000
0000
,
0001
0000
0000
0100
0010
0000
0100
0000
0010
0000
0000
1000
0100
0000
1000
0000
,
0001
0000
0000
0010
0100
0000
1000
0000
0010
0000
0000
0100
0001
0000
1000
0000
,
0100
0000
0000
0100
0010
0000
1000
0000
0001
0000
1000
0000
0010
0000
0100
0000
,
0001
0000
1000
0100
1000
0000
0100
0000
1000
0000
0001
0010
0001
0000
0010
0000
,
0010
0000
0100
0000
0001
0000
0000
0100
0010
1000
0001
0100
0010
0001
0100
0000
;
