#TITLE:Xenesis;
#SUBTITLE:;
#ARTIST:Banya Production;
#TITLETRANSLIT:;
#SUBTITLETRANSLIT:;
#ARTISTTRANSLIT:;
#GENRE:;
#CREDIT:;
#MUSIC:Xenesis.ogg;
#BANNER:Xenesis.png;
#BACKGROUND:Xenesis-BG.png;
#CDTITLE:;
#SAMPLESTART:14.219;
#SAMPLELENGTH:15.929;
#SELECTABLE:YES;
#OFFSET:-0.058;
#BPMS:0.000=152.000;
#STOPS:;
#BGCHANGES:;
#FGCHANGES:;

//--------------- dance-single - Alex ----------------
#NOTES:
     dance-single:
     Alex:
     Beginner:
     1:
     0,0,0,0,0:
0000
0000
0000
0000
,
0000
0000
0000
0000
,
0000
0000
0000
0000
,
0000
0000
0000
0000
,
0000
0000
0000
0000
,
0001
0000
0000
0000
,
1000
0000
0000
0000
,
0010
0000
0010
0000
,
0020
0000
0030
0000
,
1001
0000
0000
0000
,
0001
0000
0000
0000
,
0001
0000
0000
0000
,
1000
0000
0000
0000
,
0010
0000
0000
0000
,
1000
0000
0000
0000
,
0100
0000
0000
0000
,
0100
0000
0000
0000
,
1000
0000
1000
0000
,
1000
0000
0000
0000
,
1001
0000
0000
0000
,
0010
0000
0000
0000
,
0100
0000
0100
0000
,
0100
0000
0000
0000
,
0001
0000
0000
0000
,
1000
0000
0000
0000
,
0010
0000
0000
0000
,
0010
0000
0000
0000
,
2002
0000
0000
0000
,
3003
0000
0000
0000
,
0001
0000
0000
0000
,
0100
0000
0000
0000
,
0220
0000
0000
0000
,
0330
0000
0000
0000
,
1001
0000
0000
0000
,
0000
0000
0000
0000
,
0001
0000
0001
0000
,
0001
0000
0001
0000
,
0001
0000
0000
0000
,
0000
0000
0000
0000
,
0000
0000
0000
0000
,
0000
0000
0000
0000
,
0110
0000
0000
0000
,
1000
0000
0000
0000
,
0001
0000
0000
0000
,
0100
0000
0100
0000
,
0100
0000
0000
0000
,
0001
0000
0000
0000
,
0010
0000
0000
0000
,
0001
0000
0000
0000
,
1000
0000
0000
0000
,
1000
0000
0000
0000
,
0100
0000
0000
0000
,
0100
0000
0000
0000
,
1000
0000
0000
0000
,
0010
0000
0000
0000
,
1000
0000
0000
0000
,
0001
0000
0000
0000
,
2000
0000
3000
0000
,
0020
0000
0030
0000
,
2000
0000
3000
0000
,
0002
0000
0003
0000
,
1001
0000
0000
0000
,
1001
0000
0000
0000
,
0110
0000
0000
0000
;

//--------------- dance-single - Alex ----------------
#NOTES:
     dance-single:
     Alex:
     Easy:
     3:
     0,0,0,0,0:
0000
0000
0000
0000
,
0000
0000
0000
0000
,
0000
0000
0000
0000
,
0000
0000
0000
0000
,
0000
0000
0000
0000
,
0100
0000
0010
0000
,
1000
0000
1000
0000
,
0000
0001
0001
0001
,
0200
0000
0300
0000
,
1001
0000
0001
1000
,
0010
0000
0100
0000
,
0001
0000
1000
0100
,
1000
1000
2000
3000
,
0010
0000
1000
0000
,
0001
0001
0001
0000
,
0100
0010
0100
0000
,
0001
1000
0001
0000
,
1000
0000
1000
0000
,
0001
0000
0001
0000
,
1001
0000
1001
0000
,
0010
0010
0010
0000
,
0110
0000
0110
0000
,
0100
0000
0001
0000
,
1000
1000
1000
0000
,
1001
0000
1001
0000
,
0010
0100
0020
0030
,
1000
0100
2000
3000
,
0001
0000
0100
0000
,
0010
0010
0010
0000
,
1000
0001
2000
3000
,
0001
0010
0002
0003
,
0100
0000
0001
0000
,
0100
0100
0100
0000
,
0110
0000
0000
0000
,
0000
0000
0000
0000
,
1001
0000
1001
0000
,
0110
0000
0110
0000
,
1001
0000
0000
0000
,
0000
0000
0000
0000
,
0000
0000
0000
0000
,
0000
0000
0000
0000
,
0001
0000
1000
0000
,
0010
0010
0010
0000
,
1000
0000
0100
0000
,
1000
1000
1000
0001
,
1000
0000
0010
0000
,
0100
0100
0100
0000
,
0010
0010
0020
0030
,
1000
1000
2000
3000
,
0001
0000
1000
0000
,
0001
0000
0010
0010
,
0010
0000
0001
0000
,
1000
0000
0100
0000
,
1001
0000
1001
0000
,
0011
0000
0011
0000
,
1100
0000
1100
0000
,
1010
0000
1010
0000
,
0010
0010
0010
0000
,
1000
1000
1000
0000
,
0001
0001
0001
0000
,
0100
0100
0100
0000
,
1001
0000
1001
0000
,
0220
0000
0000
0330
,
1001
0000
0000
0000
;

//--------------- dance-single - Alex ----------------
#NOTES:
     dance-single:
     Alex:
     Medium:
     6:
     0,0,0,0,0:
0000
0000
0000
0000
,
0000
0000
0000
0000
,
0000
0000
0000
0000
,
0000
0000
0000
0000
,
0000
0000
0000
0000
,
0001
0001
1000
1000
,
0010
0010
0100
0100
,
0000
1001
1001
1001
,
0110
0110
2002
3003
,
0110
0010
1000
0001
,
0010
0001
0100
0010
,
0010
1000
0100
0010
,
0001
1001
1001
1001
,
0001
0001
1000
0100
,
1000
0010
0010
1000
,
0001
0100
0001
0100
0001
0000
1000
0000
,
0100
1000
0100
1000
0100
0000
1000
0000
,
0010
1000
0010
0000
1000
0001
1000
0000
,
0001
0100
0001
0000
0100
0010
0100
0000
,
0001
0010
0100
1000
,
0001
0101
0101
0101
,
0100
0100
0010
0010
,
1000
0100
0010
0001
,
1000
1001
1001
1001
,
0001
0100
0220
0330
,
0010
0010
1000
1000
,
0001
0001
0100
0100
,
0001
0010
0100
1000
,
0010
1010
2020
3030
,
1000
1000
0001
0001
,
0100
0100
0001
0001
,
0010
0001
0100
0010
,
0100
0101
0202
0303
,
1001
0000
0000
0000
,
0000
0000
0000
0000
,
0001
0001
1000
1000
,
0010
0010
0100
0100
,
0110
0000
0000
0000
,
2002
0000
0000
0000
,
0000
0000
0000
0000
,
3003
0000
0000
0000
,
0001
0100
0010
0100
,
0001
0001
1000
1000
,
0010
1000
0100
0010
,
0001
0101
0101
0101
,
0010
0010
1000
1000
,
0001
1000
0100
0100
,
1000
0010
1000
0010
1000
0000
0001
0000
,
0100
0001
0100
0001
0100
0000
0010
0000
,
1000
0100
1000
0000
0001
0010
0001
0000
,
0100
0010
0100
0000
0001
0000
1000
0000
,
0010
1000
0010
0000
1000
0001
1000
0000
,
0001
0010
0001
0000
0100
0010
0100
0000
,
0001
0100
0110
0110
,
0100
0001
1001
1001
,
1000
0100
1100
1100
,
1000
0001
0101
0101
,
0010
0010
0100
0100
,
0001
0010
0100
1000
,
0001
0001
1000
0010
,
1000
0001
0100
0010
,
0110
0000
1001
0000
,
0110
0000
0000
0000
0001
1000
0001
1000
,
0020
0000
0000
0000
,
0030
0000
0000
0000
;

//--------------- dance-single - Alex ----------------
#NOTES:
     dance-single:
     Alex:
     Hard:
     8:
     0,0,0,0,0:
0000
0000
0000
0000
,
0000
0000
0000
0000
,
0000
0000
0000
0000
,
0000
0000
0000
0000
,
0000
0000
0000
0000
,
1001
1001
0110
0110
,
1100
1100
0011
0011
,
0000
0101
0110
1001
,
2002
0000
3003
0000
,
0001
0000
0100
0000
0010
0100
0010
0000
,
1000
0100
0010
0100
1000
0000
0001
0000
,
0100
0000
0010
0100
0010
0000
1000
0001
,
1000
1001
1001
1001
,
0001
0000
0100
0000
0010
0100
0010
0000
,
1000
0100
0010
0001
0100
0000
0001
0000
,
0010
0100
1000
0001
0100
0000
0010
0000
,
1000
0010
1000
0001
1000
0000
0001
0000
,
0100
0001
0100
0001
0100
0010
0100
0010
,
1000
0010
1000
0100
1000
0100
1000
0000
,
0001
0100
0001
0100
0000
0000
0010
1000
0010
1000
0000
0000
,
0001
0000
1000
0001
0000
0001
0100
0000
0100
0010
0000
0000
,
1001
1001
0110
0110
,
0010
0100
0010
0100
0000
0000
0001
0010
0001
0010
0000
0000
,
0001
1000
0001
1000
0000
0010
1000
0000
1000
0001
0000
0000
,
0001
0000
0100
0000
0001
0000
0100
0000
0000
0000
0000
0000
0010
0000
0100
0000
0010
0000
0200
0000
0000
0300
0000
0000
,
0010
1000
0100
0010
0002
0003
2000
3000
,
0001
1000
0010
0100
0002
0003
0020
0030
,
0001
0100
0010
0100
0001
0010
0100
1000
,
0001
1001
0220
0330
,
0010
1000
0100
1000
0020
0030
2000
3000
,
0001
1000
0001
0100
0002
0003
0200
0300
,
0010
0100
0001
0010
0001
1000
0010
0100
,
0001
0101
2020
3030
,
2002
0000
0000
0000
,
3003
0000
0000
0000
,
0001
0100
0001
0100
0000
0000
0010
1000
0010
1000
0000
0000
,
0001
0010
0001
0010
0000
0000
0001
1000
0001
1000
0000
0000
,
2002
0000
0000
3003
,
0001
0000
0000
1000
0000
0000
0001
0000
0000
1000
0000
0000
0001
0000
0000
0100
0000
0000
0001
0000
1000
0000
0001
0000
,
1000
0000
0000
0001
0000
0000
0100
0000
0000
0010
0000
0000
0100
0000
0000
0001
0000
0000
1000
0000
0100
0000
1000
0000
,
0200
0000
0300
0000
,
1000
0000
0010
0000
1000
0010
1000
0000
,
0001
0100
0010
0100
0001
0000
1000
0000
,
0001
0000
0100
0001
0010
0000
0001
1000
,
0010
1010
1010
1010
,
1000
0000
0001
0000
1000
0100
1000
0000
,
0001
0100
0010
0100
0001
0000
1000
0000
,
0001
0010
0100
1000
0001
0000
0001
0000
,
1000
0001
1000
0001
0100
0000
0100
0000
,
0010
1000
0010
0000
1000
0100
1000
0000
,
0001
0100
0001
0000
0100
0010
0100
0001
,
0001
0010
0100
0000
1000
0100
1000
0000
,
0001
0100
0001
0000
1000
0010
1000
0001
,
1000
0010
1000
0010
1000
0010
1000
0010
,
0100
0001
0100
0001
0100
0001
0100
0001
,
0010
0100
1000
0001
0100
0010
1000
0100
,
0010
0001
0100
0010
0100
0001
1000
0010
,
1010
0000
1010
0000
1010
0000
1000
0010
,
0110
0000
0110
0000
0110
0000
0100
0001
,
0011
0000
0011
0000
0011
0000
0001
1000
,
1001
0000
1001
0000
1001
0000
0010
0100
,
0110
0000
1001
0000
,
0110
0000
0000
0100
0001
1000
0100
0010
,
0022
0000
0000
0000
,
0033
0000
0000
0000
;

//--------------- dance-single - Alex ----------------
#NOTES:
     dance-single:
     Alex:
     Challenge:
     11:
     0,0,0,0,0:
0000
0000
0000
0000
,
0000
0000
0000
0000
,
0000
0000
0000
0000
,
0000
0000
0000
0000
,
0000
0000
0000
0000
,
0002
2203
3320
0232
,
0323
2230
3302
0223
,
0330
0011
0101
0110
,
1000
0000
0100
0000
0010
0000
0001
0000
1000
0010
0100
0001
0010
0100
1000
0001
,
0100
0000
0010
0000
0100
0000
0001
0000
0010
0000
0100
0000
1000
0000
0001
1000
,
0001
0000
1000
0000
0010
0000
1000
0010
1000
0000
0001
0000
0010
0000
0001
0100
,
0010
0100
0001
0010
0100
1000
0001
0100
,
0100
0000
0010
0000
1010
0000
0010
0000
0110
0000
0100
0000
0100
0001
0100
0001
,
0100
0000
0001
0000
0010
0000
0100
0000
1000
0000
0001
0000
1000
0000
0010
1000
,
0001
0000
1000
0000
0001
0000
0100
0010
1000
0000
0001
0000
0010
0000
0001
0000
,
0100
0010
0100
0010
0100
0000
0001
0000
2000
0000
0000
3000
0200
0000
0000
0300
,
0010
0001
1000
0010
0100
0000
0001
0000
0020
0000
0000
0030
0002
0000
0000
0003
,
1000
0010
1000
0000
0001
0100
0001
0100
0001
0100
0001
0000
0100
0010
0100
0010
,
0100
0001
0100
0000
0010
1000
0001
0100
0010
1000
0001
0000
1000
0010
1000
0001
,
1000
0010
0100
0001
0010
0100
1000
0001
0100
0010
0100
0001
,
0010
0100
1000
1001
0000
0001
0101
0000
0100
0110
0000
0010
,
1010
0000
0000
0000
1000
0000
0000
0000
0100
0000
0000
0000
0010
0000
0000
0000
0001
0000
0000
0000
0100
0000
0000
0000
0010
0000
0000
0000
0100
0000
0000
0000
0001
0000
0000
0000
0010
0000
0000
0100
0000
0000
1000
0000
0000
0001
0000
0000
,
0100
0001
0100
0010
0100
0001
0010
0100
1000
0001
1000
0010
,
1000
0001
0010
0011
0000
0001
0101
0000
0100
0110
0000
0010
,
1010
1000
0100
0010
0100
1000
0001
0100
0010
0220
0000
0330
,
0001
0000
1000
0000
0010
0000
1000
0001
0100
0000
0001
0000
1000
0000
0001
0010
,
0001
0000
0100
0000
0010
0000
0100
0001
0100
0000
0001
0000
0010
0000
0100
1000
,
0100
0000
0010
0000
0001
0000
0100
0010
0100
0000
0001
0000
0010
0000
0001
0000
,
1000
0010
0100
0001
0010
0100
1000
0001
0100
0010
0100
0001
1000
0010
0100
0001
,
1000
0000
0010
0000
1000
0000
0001
1000
0001
0000
0100
0000
0010
0000
0100
0010
,
0100
0000
0001
0000
0010
0000
0001
0010
0001
0000
0100
0000
0010
0000
1000
0100
,
0010
0000
0001
0000
0100
0000
0010
0100
0001
0000
1000
0000
0001
0000
1000
0000
,
0010
1000
0001
0100
0010
1000
0001
0010
0100
1000
0001
0100
0010
1000
0001
0010
,
0022
0000
0000
0000
,
0033
0000
0000
0000
,
1000
0001
0100
0101
0000
0001
0100
0010
1000
1010
0000
0010
,
1000
0001
0010
0011
0000
0001
0100
0010
0100
0010
1000
0001
,
2002
0000
0000
3003
,
1000
0000
0000
0010
0000
0000
0100
0000
0000
0001
0000
0000
1000
0000
0000
0001
0000
0000
0100
0000
0001
0000
0010
0000
,
0100
0000
0000
1000
0000
0000
0001
0000
0000
0100
0000
0000
0010
0000
0000
1000
0000
0000
0001
0000
0010
0000
0001
0000
,
2002
0000
0000
3003
,
1001
0000
0001
0000
0100
0000
0010
0000
1000
0000
0001
0000
0010
0000
0001
0100
,
0001
0000
0100
0000
0010
0000
1000
0010
1000
0000
0001
0000
1000
0000
0100
0010
,
0001
0000
0100
0000
0010
0000
0100
0000
0001
0000
0010
0000
0100
0000
1000
0001
,
1000
0000
0001
0000
0101
0000
0100
0000
0110
0000
0010
0000
1000
0100
0010
0001
,
1000
0000
0001
0000
0100
0000
0010
0000
1000
0000
0001
0000
0010
0000
0001
0010
,
0001
0000
0100
0000
0010
0000
0100
0010
0100
0000
0001
0000
1000
0000
0100
0000
,
0010
0001
0010
0000
0001
0100
0010
0100
0002
0000
0000
0003
2000
0000
0000
3000
,
0001
0100
0010
0000
1000
0100
0010
0001
2000
0000
0000
3000
0020
0000
0000
0030
,
0100
0001
0100
0000
0001
1000
0010
0100
0001
0010
0100
0000
1000
0001
1000
0001
,
0100
0001
0100
0000
0010
1000
0001
0010
0100
0000
1000
0000
0001
0000
0100
0000
,
0010
0100
0001
0000
0100
0001
0100
0001
0010
0100
1000
0000
0001
1000
0010
0100
,
0001
0010
0100
0000
1000
0001
1000
0010
1000
0001
1000
0001
0100
0001
0010
0100
,
2000
3000
0020
0030
0200
0300
2000
3000
0200
0300
0002
0003
0020
0030
0002
0003
,
0200
0300
0020
0030
0002
0003
2000
3000
0020
0030
0002
0003
0020
0030
2000
3000
,
0200
0300
0020
0030
2000
3000
0002
0003
0200
0300
2000
3000
0020
0030
0002
0003
,
2000
3000
0002
0003
0020
0030
2000
3000
0020
0030
0002
0003
0200
0300
2000
3000
,
0001
0000
0000
0010
0000
0000
0100
0000
0000
1000
0000
0000
0001
0000
0000
0010
0000
0000
0100
0000
0000
1000
0000
0000
0001
0000
0000
0100
0000
0000
0010
0000
0100
0000
0010
0000
0100
0000
0000
0001
0000
0000
1000
0000
0000
0010
0000
0000
,
0100
0000
0000
0001
0000
0000
0010
0000
0000
0100
0000
0000
1000
0000
0000
0001
0000
0000
0100
0000
0000
0001
0000
0000
1000
0000
0000
0100
0000
0000
0010
0000
0001
0000
0010
0000
0001
0000
0000
0100
0000
0000
0001
0000
0000
0100
0000
0000
,
0010
0000
0000
0100
0000
0000
0001
0000
0000
0010
0000
0000
0100
0000
0000
1000
0000
0000
0001
0000
0000
1000
0000
0000
0010
0000
0000
1000
0000
0000
0001
0000
1000
0000
0001
0000
1000
0000
0000
0010
0000
0000
0100
0000
0000
0001
0000
0000
,
1000
0000
0000
0100
0000
0000
0010
0000
0000
0001
0000
0000
0100
0000
0000
0010
0000
0000
0100
0000
0000
0001
0000
0000
0010
0000
0000
0100
0000
0000
1000
0000
0001
0000
1000
0000
0001
0000
0000
0100
0000
0000
0010
0000
0000
0100
0000
0000
,
0202
0000
0000
0303
2020
0000
0000
3030
,
2002
0000
0000
0000
0000
0000
0000
0000
0000
0000
0000
0000
3003
0000
0000
0000
0000
0000
0001
0000
1000
0000
0001
0000
1000
0000
0000
0001
0000
0000
0010
0000
0000
0100
0000
0000
1000
0000
0000
0010
0000
0000
0100
0000
0000
0001
0000
0000
,
0202
0000
0000
0000
,
0303
0000
0000
0000
;
