#TITLE:X-Treme;
#SUBTITLE:;
#ARTIST:Banya;
#TITLETRANSLIT:;
#SUBTITLETRANSLIT:;
#ARTISTTRANSLIT:;
#GENRE:;
#CREDIT:;
#MUSIC:X-Treme.ogg;
#BANNER:X-Treme.png;
#BACKGROUND:X-Treme-BG.png;
#CDTITLE:;
#SAMPLESTART:19.288;
#SAMPLELENGTH:11.165;
#SELECTABLE:YES;
#OFFSET:-0.075;
#BPMS:0.000=162.000;
#STOPS:;
#BGCHANGES:;
#FGCHANGES:;

//--------------- dance-single - Alex ----------------
#NOTES:
     dance-single:
     Alex:
     Beginner:
     1:
     0,0,0,0,0:
0000
0000
0000
0000
,
0100
0000
0000
0000
,
0010
0000
0000
0000
,
0001
0000
0000
0000
,
0001
0000
0000
0000
,
1000
0000
0000
0000
,
0010
0000
0000
0000
,
0100
0000
0000
0000
,
1000
0000
0000
0000
,
0001
0000
0000
0000
,
1000
0000
0000
0000
,
0001
0000
0000
0000
,
1000
0000
0000
0000
,
1001
0000
0000
0000
,
0010
0000
0010
0000
,
0010
0000
0000
0000
,
0100
0000
0100
0000
,
0100
0000
0000
0000
,
0010
0000
0010
0000
,
0010
0000
0000
0000
,
0001
0000
0001
0000
,
0001
0000
0000
0000
,
1000
0000
0000
0000
,
0100
0000
0000
0000
,
1000
0000
0000
0000
,
0010
0000
0000
0000
,
1000
0000
0000
0000
,
0001
0000
0000
0000
,
1000
0000
0000
0000
,
0010
0000
0000
0000
,
1000
0000
0000
0000
,
0100
0000
0000
0000
,
0010
0000
0000
0000
,
0001
0000
0000
0000
,
0001
0000
0000
0000
,
0010
0000
0000
0000
,
1000
0000
0000
0000
,
0001
0000
0000
0000
,
1000
0000
0000
0000
,
0001
0000
0000
0000
,
1001
0000
0000
0000
,
0000
0000
0110
0000
,
0000
0000
0100
0000
,
0000
0000
0010
0000
,
0000
0000
1000
0000
,
0000
0000
0001
0000
,
0000
0000
1000
0000
,
0000
0000
0010
0000
,
0010
0000
0010
0000
,
0010
0000
0000
0000
,
1001
0000
0000
0000
,
1000
0000
0000
0000
,
0001
0000
0000
0000
,
1000
0000
0000
0000
,
0100
0000
0000
0000
,
1000
0000
0000
0000
,
0010
0000
0000
0000
,
0001
0000
0001
0000
,
0001
0000
0000
0000
,
1000
0000
0000
0000
,
1000
0000
0000
0000
,
0010
0000
0000
0000
,
0100
0000
0000
0000
,
1000
0000
0000
0000
,
0001
0000
0000
0000
,
0100
0000
0100
0000
,
0100
0000
0000
0000
;

//--------------- dance-single - Alex ----------------
#NOTES:
     dance-single:
     Alex:
     Easy:
     4:
     0,0,0,0,0:
0000
0000
0000
0000
,
0001
0000
1000
0000
,
0001
1000
0001
0000
,
1000
0000
0010
0000
,
1000
0010
1000
0000
,
0001
0000
0100
0000
,
0010
0100
0010
0000
,
1000
0000
0100
0000
,
1001
1001
1001
0000
,
0001
1000
0001
0000
,
1000
0010
1000
0000
,
0001
1000
0001
1000
,
2002
0000
3003
0000
,
0110
0000
1001
0000
,
0100
0100
0100
0000
,
0011
0000
1100
0000
,
1000
1000
1000
0000
,
1001
0000
0110
0000
,
0010
0010
0010
0000
,
1001
0000
0110
0000
,
0100
0100
0100
0100
,
0001
0000
1000
0000
,
0001
0010
0001
0000
,
1000
0000
0010
0000
,
1000
0010
1000
0000
,
0001
0000
0100
0000
,
0010
0100
0010
0000
,
1000
0000
0001
0000
,
1001
1001
1001
0000
,
0100
0000
0100
0000
,
0010
0010
0010
0000
,
1000
0000
1000
0000
,
0001
0001
0100
0000
,
0010
0000
1000
0000
,
0100
0010
0100
0000
,
1000
0000
0001
0000
,
1001
1001
1001
0000
,
0010
0000
0100
0000
,
0010
0100
0010
0000
,
1000
0010
1000
0010
,
2020
0000
0000
3030
,
0000
0000
1001
0000
,
1001
0000
0220
0000
,
0330
0000
0011
0000
,
0011
0000
2200
0000
,
3300
0000
1000
1000
,
1000
1000
0001
0001
,
0001
0001
0100
0100
,
0010
0010
1000
0001
,
2002
0000
3003
0000
,
1000
0000
0001
0000
,
1000
0010
1000
0000
,
0001
0000
0010
0000
,
0001
0100
0001
0000
,
0100
0000
0010
0000
,
0100
0010
0100
0000
,
0001
0000
1000
0000
,
1001
1001
1001
0000
,
0100
0000
0001
0000
,
1000
0100
1000
0000
,
0010
0000
1000
0000
,
0001
0010
0001
0000
,
0100
0000
0001
0000
,
1000
0100
1000
0000
,
0010
0000
1000
0000
,
1001
1001
1001
0000
,
0220
0000
0330
0000
;

//--------------- dance-single - Alex ----------------
#NOTES:
     dance-single:
     Alex:
     Medium:
     6:
     0,0,0,0,0:
0000
0000
0000
0000
,
0001
1000
0001
0100
,
0010
0100
0010
0000
0100
0010
0100
0000
,
0001
1000
0100
1000
,
0001
0010
0001
0000
1000
0010
1000
0000
,
0001
1000
0001
0100
,
0001
0010
0001
0000
0100
0001
0100
0000
,
0010
0010
1000
0100
,
1100
1100
2200
3300
,
1000
1000
0001
0001
,
0100
0010
0100
0001
,
1000
0000
0100
0000
0010
0001
0010
0001
,
0020
0000
0030
0000
,
1001
0000
0001
0000
0100
0000
0010
0100
,
0010
0000
1000
0000
0001
0000
1000
0100
,
1000
0000
0001
0000
0001
0000
0100
0001
,
0100
0010
1000
0001
,
0011
0000
0001
0000
0100
0000
0010
0100
,
0010
0000
1000
0000
0001
0000
1000
0100
,
1000
0000
0001
0000
0100
0000
0010
0100
,
0010
0110
0110
0110
,
0100
0001
1000
0100
,
1000
0100
1000
0000
0001
0100
0001
0000
,
1000
1000
0001
0001
,
0010
0001
0010
0000
0001
0010
0001
0000
,
0100
0100
0010
0010
,
1000
0010
1000
0000
0001
1000
0001
0000
,
1000
0001
0100
0010
,
0110
0110
0220
0330
,
0100
0100
0001
0001
,
1000
0100
1000
0000
0001
0100
0001
0000
,
1000
0010
1000
0001
,
0010
0001
0010
0000
0001
1000
0001
0000
,
1000
0001
0100
0010
,
0100
0010
0100
0000
0010
0100
0010
0000
,
0100
0001
0010
0001
,
0011
0011
0022
0033
,
0001
0001
0100
0100
,
0010
1000
0100
0010
,
0001
0000
1000
0000
0010
0100
0010
0100
,
0020
0000
0000
0030
,
0000
0000
1001
0000
,
1001
0000
0110
0000
,
1001
1001
0110
0000
,
1001
0000
0110
0000
,
1001
1001
0001
0001
,
1000
1000
0001
0001
,
0100
0100
0010
0010
,
1000
1000
0010
0010
,
2002
0000
0000
0000
0000
3003
0000
0000
,
0001
0100
0100
0001
,
0010
0001
0010
0000
0001
0100
0001
0000
,
0100
0100
0010
0010
,
1000
0010
1000
0000
0100
1000
0100
0000
,
1000
1000
0001
0001
,
1000
0010
1000
0000
0001
0010
0001
0000
,
0100
0100
0001
0001
,
1001
1001
2002
3003
,
0001
0100
0010
0100
,
0001
0010
0001
0000
1000
0010
1000
0000
,
0001
1000
0100
1000
,
0001
0100
0001
0000
0100
0010
0100
0000
,
0001
0010
0100
0010
,
0001
0010
0001
0000
1000
0010
1000
0000
,
0001
0100
0010
0100
,
0101
0101
0101
0000
,
2002
0000
3003
0000
;

//--------------- dance-single - Alex ----------------
#NOTES:
     dance-single:
     Alex:
     Hard:
     8:
     0,0,0,0,0:
0000
0000
0000
0000
,
0001
0000
1000
0000
0010
0000
0000
1000
0000
0000
0001
0000
0100
0000
0000
0000
,
0001
0010
0100
0000
1000
0010
0100
0001
,
1000
0000
0001
0000
1000
0000
0000
0001
0000
0000
0100
0000
0001
0000
0000
0000
,
0100
0010
0100
0000
0001
0010
0100
1000
,
0001
0000
1000
0000
0010
0000
0000
1000
0000
0000
0001
0000
0100
0000
0000
0000
,
0001
0010
0001
0000
1000
0100
1000
0100
,
1000
0000
0010
0000
1000
0000
0000
0001
0000
0000
0100
0000
0010
0000
0000
0000
,
0100
0000
0001
0000
0010
0000
0100
0000
1000
0000
0020
0000
0000
0000
0000
0030
,
1000
0100
1000
0100
1000
0010
1000
0000
,
0001
0010
0100
1000
0001
0100
0010
0000
,
0100
0001
1000
0100
0010
0001
0100
0010
,
0220
0000
0000
0000
0000
0330
0000
0000
,
1001
0000
0001
0100
0001
0000
1000
0010
,
1000
0001
0000
0001
1000
0000
1001
0000
,
0001
0100
0010
0100
0001
0000
1000
0100
,
0000
0100
1000
0000
0010
1000
0001
0000
,
0110
0000
0010
1000
0100
0000
1000
0010
,
1000
0001
0000
0001
0100
0000
0101
0000
,
0001
0010
0001
0100
0010
0000
0100
0001
,
0000
0001
0100
0000
0001
1000
0010
0100
,
0001
0000
1000
0000
0001
0000
0000
1000
0000
0000
0001
0000
0100
0000
0000
0000
,
0010
0100
0001
0000
1000
0100
0010
0100
,
1000
0000
0001
0000
1000
0000
0000
0001
0000
0000
0100
0000
0010
0000
0000
0000
,
0100
0001
0100
0000
0001
0010
0001
0100
,
0010
0000
0100
0000
0001
0000
0000
1000
0000
0000
0001
0000
0100
0000
0000
0000
,
0010
1000
0100
0000
1000
0010
0100
0001
,
1000
0000
0001
0000
0100
0000
0000
0010
0000
0000
0100
0000
0001
0000
0000
0000
,
1000
0000
0100
0000
0010
0000
0001
0000
0100
0000
0020
0000
0000
0000
0000
0030
,
0100
0000
0001
0000
0100
0000
0000
0001
0000
0000
1000
0000
0001
0000
0000
0000
,
1000
0010
1000
0000
0001
0100
0010
0100
,
0001
0000
1000
0000
0001
0000
0000
0100
0000
0000
0001
0000
1000
0000
0000
0000
,
0001
0010
0001
0000
1000
0010
1000
0001
,
1000
0000
0100
0000
1000
0000
0000
0001
0000
0000
0100
0000
0001
0000
0000
0000
,
0100
0100
0001
0000
1000
1000
0010
0010
,
1000
0000
0001
0000
0100
0000
0000
0010
0000
0000
0100
0000
0001
0000
0000
0000
,
1000
0000
0100
0000
0010
0000
0001
0000
0100
0000
0020
0000
0000
0000
0000
0030
,
0100
0001
0100
0001
1000
0010
1000
0000
,
0001
0010
0100
1000
0001
0100
0010
0000
,
1000
0100
0010
0001
0100
0010
0100
0001
,
2002
0000
0000
0000
,
3003
0000
0001
1000
,
0001
0000
1000
0000
0010
0100
0010
0000
,
0100
0010
0100
0000
0001
0000
0010
0000
,
0001
0000
0100
0000
0010
1000
0010
0000
,
1000
0100
1000
0000
0001
1000
0001
1000
,
0001
1000
0001
0100
0010
0100
0010
0100
,
0010
0100
0010
1000
0010
1000
0010
1000
,
0010
1000
0001
1000
0001
1000
0001
1000
,
2002
0000
0000
0000
0000
3003
0000
0000
,
0001
0000
0010
0000
0001
0000
0000
0100
0000
0000
0010
0000
1000
0000
0000
0000
,
0100
0010
0001
0000
0100
0010
1000
0001
,
1000
0000
0010
0000
1000
0000
0000
0001
0000
0000
1000
0000
0010
0000
0000
0000
,
1000
0100
1000
0000
0001
0100
0001
0100
,
0010
0000
0100
0000
0001
0000
0000
0100
0000
0000
0001
0000
1000
0000
0000
0000
,
0001
0010
0001
0000
0100
0010
1000
0100
,
0010
0000
0001
0000
1000
0000
0000
0001
0000
0000
0100
0000
0010
0000
0000
0000
,
0100
0000
0001
0000
0010
0000
0100
0000
1000
0000
0020
0000
0000
0000
0000
0030
,
0100
0000
0001
0000
0100
0000
0000
0001
0000
0000
1000
0000
0010
0000
0000
0000
,
1000
0001
0010
0000
0001
1000
0010
1000
,
0001
0000
1000
0000
0001
0000
0000
1000
0000
0000
0001
0000
0100
0000
0000
0000
,
0010
0100
0010
0000
1000
0100
0010
0100
,
1000
0000
0001
0000
0100
0000
0000
0001
0000
0000
1000
0000
0001
0000
0000
0000
,
0010
0001
0100
0000
0001
0100
0010
0100
,
0001
0000
1000
0000
0100
0000
0000
1000
0000
0000
0010
0000
1000
0000
0000
0000
,
0001
0000
1000
0000
0010
0000
1000
0000
0001
0000
0200
0000
0000
0000
0000
0300
,
1001
0000
0000
0000
;

//--------------- dance-single - Alex ----------------
#NOTES:
     dance-single:
     Alex:
     Challenge:
     11:
     0,0,0,0,0:
0000
0000
0000
0000
,
0001
0000
1000
0000
0010
0000
1000
0010
0000
0010
1000
0000
0001
0000
0100
0000
,
0010
0100
0001
0100
0010
0000
1000
0001
0000
0100
0001
0000
0100
0000
0010
0000
,
0100
0000
0001
0000
0010
0000
0001
1000
0000
1000
0010
0000
1000
0000
0001
0000
,
1000
0100
1000
0001
1000
0000
0010
1000
0000
1000
0010
0000
1000
0000
0001
0000
,
0010
0000
0001
0000
0100
0000
0010
0100
0000
0100
0010
0000
1000
0000
0001
0000
,
0010
0100
1000
0001
0100
0000
0001
0100
0000
0100
0001
0000
1000
0000
0010
0000
,
1000
0000
0001
0000
0010
0000
0001
1000
0000
1000
0001
0000
0100
0000
0010
0000
,
0110
0100
0101
0001
1000
2002
0000
3003
,
0001
0000
1000
0000
0010
0000
1000
0000
0001
1000
0001
1000
0001
1000
0001
0100
,
0001
0010
0100
0010
0001
1000
0001
1000
0010
1000
0010
1000
0010
1000
0001
1000
,
0100
0000
1000
0000
0001
0000
0100
0000
0010
0100
0001
1000
0100
0010
0001
1000
,
2002
0000
0000
0000
0000
3003
0000
0000
,
0001
1000
0001
0000
1000
0010
1000
0010
1000
0000
0000
0001
0100
0001
0100
0001
,
0100
0010
0100
0000
0001
1000
0001
1000
0001
0000
1001
0000
0110
0000
0000
0000
,
0010
0000
0100
0000
0001
0010
0100
1000
0001
0000
1000
0000
0010
1000
0010
0000
,
1000
0100
1000
0000
0001
0100
0010
0100
0001
0000
1001
0000
1001
0000
0000
0000
,
0001
1000
0001
0000
1000
0010
1000
0010
1000
0000
0000
0010
1000
0100
1000
0010
,
1000
0001
1000
0000
0001
1000
0010
0100
0001
0000
1001
0000
0110
0000
0000
0000
,
0010
0000
0100
0000
0001
1000
0001
1000
0001
0000
0100
0000
0010
0100
0010
0000
,
1000
0100
0010
0100
1000
0001
0100
0000
0001
0010
0100
1000
0001
0100
0010
1000
,
0100
0000
0010
0000
0001
0000
0100
0010
0000
0010
0100
0000
0001
0000
1000
0000
,
0010
0100
0001
0100
0010
0000
1000
0100
0000
0100
1000
0000
0001
0000
0100
0000
,
0010
0000
1000
0000
0001
0000
0010
0001
0000
0001
0010
0000
0001
0000
0100
0000
,
0010
0100
0001
0100
0010
0000
1000
0100
0000
0100
1000
0000
0001
0000
1000
0000
,
0010
0000
0010
0000
1000
0000
0001
1000
0000
1000
0001
0000
0100
0000
0010
0000
,
0100
0001
1000
0100
0010
0000
0001
0100
0000
0100
0001
0000
0100
0000
0001
0000
,
0010
0000
0100
0000
0010
0000
0001
1000
0000
1000
0001
0000
0100
0000
0010
0000
,
1010
1000
1100
0100
0110
2002
0000
3003
,
1001
0000
0001
0000
0100
0000
0010
0100
0000
0100
0010
0000
1000
0000
0100
0000
,
0010
0001
0100
0010
0100
0000
0001
1000
0000
1000
0001
0000
0100
0000
0001
0000
,
0010
0000
0001
0000
0100
0000
0010
1000
0000
1000
0100
0000
1000
0000
0010
0000
,
1000
0001
1000
0001
1000
0000
0001
0100
0000
0100
0001
0000
0100
0000
0001
0000
,
0010
0000
0100
0000
1000
0000
0010
1000
0000
1000
0100
0000
0010
0000
0001
0000
,
0100
0010
0100
0010
0100
0000
0001
0100
0000
0100
0001
0000
1000
0000
0001
0000
,
0010
0000
0001
0000
1000
0000
0010
1000
0000
1000
0010
0000
1000
0000
0001
0000
,
0101
0100
0110
0010
1010
2200
0000
3300
,
0001
0000
1000
0000
0010
0000
1000
0000
0001
0010
0100
1000
0001
1000
0010
1000
,
0001
0010
0001
0100
0001
0100
0010
0100
0010
1000
0010
1000
0100
1000
0001
1000
,
0001
0000
0100
0000
0010
0000
0100
0000
0001
0010
0100
1000
0001
0100
0010
1000
,
2002
0000
0000
0000
,
0000
0000
3003
0000
0000
0000
0000
0000
0001
1000
0001
0000
0001
0000
1000
0000
,
0010
0000
1000
0010
1000
0001
0100
0010
0100
0000
0001
1000
0001
1000
0001
0000
,
1000
0100
1000
0100
1000
0100
1000
0000
0010
0100
0010
0000
0100
0000
0100
0000
,
0001
0000
1000
0001
1000
0001
1000
0010
0100
0000
0001
0010
0100
1000
0001
0000
,
1000
0010
1000
0001
1000
0010
1000
0000
1001
0000
0001
0000
1001
0000
1000
0000
,
1100
0100
1100
1000
1010
0010
0110
0100
,
0101
0001
0011
0001
1001
0100
0101
0001
,
0011
1000
1010
0100
0101
1000
1100
0001
,
0202
0000
0000
0000
0000
0000
0000
0000
0000
0000
0000
0303
0000
0000
0000
0000
,
1001
0000
0001
0000
1000
0000
0010
1000
0000
1000
0010
0000
1000
0000
0001
0000
,
0010
0100
1000
0001
0100
0000
0001
0100
0000
0100
0001
0000
1000
0000
0010
0000
,
1000
0000
0001
0000
0010
0000
0001
0100
0000
0100
0001
0000
0100
0000
0010
0000
,
0100
0001
0010
0001
0100
0000
0010
0100
0000
0100
0010
0000
0100
0000
0100
0000
,
0001
0000
1000
0000
0100
0000
1000
0100
0000
0100
1000
0000
0010
0000
1000
0000
,
0001
1000
0010
1000
0001
0000
0001
1000
0000
1000
0100
0000
0010
0000
0001
0000
,
0100
0000
0010
0000
0100
0000
0001
0100
0000
0100
0001
0000
1000
0000
0010
0000
,
1010
1000
1001
0001
0101
0220
0000
0330
,
1010
0000
0010
0000
1000
0000
0010
1000
0000
1000
0010
0000
1000
0000
0001
0000
,
0010
0100
1000
0001
0100
0000
0001
0100
0000
0100
0001
0000
1000
0000
0001
0000
,
0100
0000
0010
0000
0100
0000
0001
0100
0000
0100
0001
0000
1000
0000
0010
0000
,
1000
0100
1000
0100
1000
0000
0010
1000
0000
1000
0010
0000
1000
0000
0001
0000
,
0001
0000
1000
0000
0100
0000
0010
0001
0000
0001
0010
0000
0001
0000
0100
0000
,
0010
0100
0010
0100
0010
0000
1000
0010
0000
0010
1000
0000
0001
0000
1000
0000
,
0001
0000
0100
0000
0100
0000
0001
1000
0000
1000
0001
0000
1000
0000
0010
0000
,
1010
0000
1000
0000
1001
0000
0001
0000
0101
0000
0100
0010
0100
0001
1000
0200
,
2000
0000
3300
0000
;
