#TITLE:Witch Doctor;
#SUBTITLE:;
#ARTIST:Banya;
#TITLETRANSLIT:;
#SUBTITLETRANSLIT:;
#ARTISTTRANSLIT:;
#GENRE:;
#CREDIT:;
#MUSIC:Witch Doctor.ogg;
#BANNER:Witch Doctor.png;
#BACKGROUND:Witch Doctor-BG.png;
#CDTITLE:;
#SAMPLESTART:9.897;
#SAMPLELENGTH:12.635;
#SELECTABLE:YES;
#OFFSET:-0.089;
#BPMS:0.000=195.000
,145.500=73.000
,147.000=97.500
,153.000=195.000
;
#STOPS:83.000=0.153
,86.500=0.153
,130.000=0.153
,133.500=0.153
,137.000=0.153
;
#BGCHANGES:;
#FGCHANGES:;

//--------------- dance-single - Alex ----------------
#NOTES:
     dance-single:
     Alex:
     Beginner:
     1:
     0,0,0,0,0:
0000
0000
0000
0000
,
0000
0000
0000
0000
,
0000
0000
0000
0000
,
0000
0000
0000
0000
,
2000
0000
0000
0000
,
3000
0000
0000
0000
,
0002
0000
0000
0000
,
0003
0000
0000
0000
,
1000
0000
0000
0000
,
0001
0000
0000
0000
,
0001
0000
0000
0000
,
1000
0000
0000
0000
,
0100
0000
0000
0000
,
1000
0000
0000
0000
,
0010
0000
0000
0000
,
0010
0000
0000
0000
,
1000
0000
0000
0000
,
1000
0000
0000
0000
,
0001
0000
0000
0000
,
0001
0000
0000
0000
,
0100
0000
0000
0000
0000
0000
0000
0010
,
0000
0000
0000
1000
,
0000
1000
0000
1000
,
0000
0000
0000
1001
,
0000
0000
0000
0010
,
0000
0000
0000
1000
,
0000
0000
0000
0010
,
0000
0000
0000
0100
,
0000
0000
0000
0001
,
0000
0000
0000
0001
,
0000
0000
0000
1000
,
0000
0000
0000
0010
,
0000
0000
0000
0000
0000
0010
0000
0000
,
0000
0000
1000
0000
,
0000
0000
0000
0001
0000
0000
0000
0000
,
0000
0000
0000
1000
0000
0000
0000
1000
,
0000
0000
0000
0001
0000
0000
0200
0000
,
0000
0300
0000
0020
,
0000
0030
0000
0000
,
0000
1001
0000
0000
,
0000
0001
0000
0000
,
0000
0001
0000
0000
,
0000
1000
0000
0000
,
0000
0010
0000
0000
,
0000
0010
0000
0000
,
0000
1000
0000
0000
,
0000
0002
0000
0000
,
0000
0003
0000
0000
,
0000
2000
0000
0000
,
0000
3000
0000
0000
,
0000
0010
0000
0000
,
0000
1000
0000
0000
,
0000
0001
0000
0000
,
0000
1000
0000
0000
,
0000
1000
0000
0000
,
0000
0010
0000
0000
,
0000
0010
0000
0000
,
0000
1000
0000
0000
,
0000
0001
0000
0000
,
0000
0001
0000
0000
,
0000
1000
0000
0000
,
0000
0100
0000
0000
,
0000
0100
0000
0000
,
0000
1000
0000
0000
,
0000
0010
0000
0000
,
0000
0010
0000
0000
,
0000
0100
0000
0000
;

//--------------- dance-single - Alex ----------------
#NOTES:
     dance-single:
     Alex:
     Easy:
     4:
     0,0,0,0,0:
0000
0000
0000
0000
,
0000
0000
0000
0000
,
0000
0000
0000
0000
,
0000
0000
0000
0000
,
0020
0000
0030
0000
,
2000
0000
3000
0000
,
0002
0000
0003
0000
,
0200
0000
0300
0000
,
1001
0000
0010
0000
,
1000
1000
1000
0000
,
0001
0000
0100
0000
,
0010
0010
0100
0000
,
0001
0000
0010
0000
,
0001
0001
0001
0000
,
1000
0000
0010
0000
,
1000
1000
1000
0000
,
1001
0000
0001
0000
,
0100
0100
0100
0000
,
0001
0000
1000
0000
,
0100
0100
0100
0000
,
1000
0000
0000
0000
1000
0000
0000
0001
,
0000
0000
0000
0001
0000
0000
0100
0000
,
0100
0010
0010
2000
,
0000
0000
3000
1001
,
0000
0001
0100
0001
,
0000
1000
0010
1000
,
0000
0001
0010
0001
,
0000
1001
0000
0100
,
0100
0100
0000
0001
,
0001
0001
0000
1000
,
1000
1000
0000
0010
,
0010
0010
0000
1000
,
0000
0000
1000
0000
0000
0010
0000
0000
,
0000
0010
0000
0000
1000
0000
0000
0000
,
1000
0000
0000
0001
0000
0000
0000
0001
,
0000
0000
0000
1000
0000
1000
0000
0001
,
0000
0001
0000
0200
0000
0300
0020
0000
,
0030
0020
0030
0020
,
0030
0020
0000
0000
,
0030
0010
0010
0010
,
0000
1000
0000
0001
,
0000
1000
1000
1000
,
0000
0001
0000
0100
,
0000
0001
0001
0001
,
0000
1000
1000
1000
,
0000
0010
0010
0010
,
0000
2002
0000
3003
,
0000
0220
0000
0330
,
0000
2002
0000
3003
,
0000
0220
0000
0330
,
0000
0100
0000
0001
,
0000
0100
0000
0001
,
0000
1000
1000
1000
,
0000
0001
0001
0001
,
0000
1000
0000
0010
,
0000
1000
0000
0001
,
0000
0100
0100
0100
,
0000
0001
0001
0001
,
0000
1000
0000
0001
,
0000
1000
0000
0010
,
0000
0100
0100
0100
,
0000
0010
0010
0010
,
0000
1000
0000
1000
,
0000
0001
0000
0001
,
0000
1000
1000
1000
,
0000
0001
0001
0001
,
0000
1001
0000
0000
;

//--------------- dance-single - Alex ----------------
#NOTES:
     dance-single:
     Alex:
     Medium:
     6:
     0,0,0,0,0:
0000
0000
0000
0000
,
0000
0000
0000
0000
,
0000
0000
0000
0000
,
0000
0000
0000
0000
,
2002
0000
3003
0000
,
0220
0000
0330
0000
,
0022
0000
0033
0000
,
2200
0000
3300
0000
,
1000
0010
1000
0001
,
0100
0010
1000
1000
,
0001
0010
0100
0010
,
0001
0100
0020
0030
,
0100
0100
0001
1000
,
0010
1000
0001
0001
,
1000
0100
1000
0010
,
0100
0001
2000
3000
,
1001
0001
0100
0010
,
1000
0001
0010
0010
,
0001
0100
0010
1000
,
0100
0010
0002
0003
,
1000
0000
0001
0000
0200
0000
0300
0010
,
0000
1000
0000
0002
0000
0003
1000
0000
,
0100
1000
0001
2002
,
0000
0000
3003
1001
,
0110
0010
0100
0101
,
1010
0010
1000
1100
,
0011
0001
0100
0110
,
0101
2002
3003
0001
,
1000
0000
0001
0100
0001
0000
1000
0000
,
0010
0000
1000
0010
1000
0000
0001
0000
,
0010
0000
0001
0010
0001
0000
0100
0000
,
0010
0000
0100
0010
0100
0000
0001
0000
,
1000
0000
0002
0000
0003
1000
0000
0010
,
0000
2000
0000
3000
0001
0000
0100
0000
,
0020
0000
0030
1000
0000
0001
0000
2000
,
0000
3000
0000
0001
0000
0100
0000
0010
,
0000
1000
0000
2002
0000
3003
0020
0000
,
0030
0200
0300
0002
,
0003
2000
0000
0000
,
3000
1001
0001
1000
,
0010
0000
1000
0000
0001
0000
0100
0010
,
0100
0001
0010
0100
,
0010
0000
0001
0000
1000
0000
0010
1000
,
0010
1000
0001
1000
,
1000
0000
0001
0000
0100
0000
0010
0100
,
0010
0100
0001
0010
,
0100
2002
0000
3003
,
0000
0220
0000
0330
,
0000
2020
0000
3030
,
0000
0202
0000
0303
,
0000
0011
0001
0100
,
0010
0100
0001
1000
,
1000
0001
0010
0100
,
1000
0001
0100
0010
,
0010
1000
0100
0010
,
0100
1000
0001
0100
,
0010
1000
1000
0001
,
0001
0000
0100
0000
0010
0000
1000
0001
,
1000
0001
1000
0000
0001
0000
0100
0000
,
0010
0100
0001
1000
,
1000
0001
0010
0100
,
0010
0001
0100
0010
,
0010
1000
0001
1000
,
0100
1000
0001
0100
,
0010
0100
0001
1000
,
0010
0000
1000
0000
0001
0000
1000
0010
,
1000
0010
2000
0000
0000
0000
0000
0000
,
0000
0000
3000
0000
;

//--------------- dance-single - Alex ----------------
#NOTES:
     dance-single:
     Alex:
     Hard:
     9:
     0,0,0,0,0:
0000
0000
0000
0000
,
0000
0000
0000
0000
,
0000
0000
0000
0000
,
0000
0000
0000
0000
,
2002
0000
0000
3003
,
1000
2002
0000
0000
0000
0000
3003
0000
,
0220
0000
0000
0330
,
0100
0000
0000
0010
0000
0000
0220
0000
0000
0000
0000
0000
0330
0000
0000
0000
,
0100
0001
0100
0001
1000
0000
0010
1000
,
0000
1000
0001
0000
0100
0000
0010
0000
,
1000
0100
0010
0001
1000
0000
0001
0100
,
0000
0100
0001
0000
1000
0010
1000
0000
,
0001
0010
0100
1000
0001
0000
0001
0100
,
0000
0100
0010
0000
1000
0000
0001
0000
,
0010
0001
1000
0010
1000
0000
0001
0100
,
0000
0100
0001
0000
2002
0000
3003
0000
,
0001
0100
0010
0100
0001
0000
1000
0010
,
0000
0010
1000
0000
0001
0000
0010
0000
,
0001
1000
0010
0100
0001
0000
1000
0100
,
0000
0100
1000
0000
0001
0000
0100
0000
,
0010
0100
0001
1000
0100
0020
0030
0001
,
1000
0010
1000
0001
0200
0300
0001
1000
,
0010
1000
0001
0010
0001
0000
2002
0000
,
0000
0000
3003
1001
,
0110
0000
0010
0100
0001
0100
0010
0000
,
1000
0000
0001
0010
0100
1000
0001
0000
,
1000
0000
0010
1000
0100
1000
0010
0000
,
0100
0000
0001
0100
0010
0100
0001
1000
,
0010
1000
0000
0001
0000
0010
0100
1000
,
0001
0100
0000
0010
0000
0100
0001
1000
,
0010
1000
0000
0001
0000
0010
0001
1000
,
0010
0100
0000
0001
0000
0100
0010
1000
,
0001
0100
0000
0220
0330
0001
1000
0010
,
1000
0000
2002
3003
0001
0100
0010
0100
,
0000
0220
0330
0001
1000
0100
1000
0000
,
1001
0000
0001
0100
0010
0100
0001
0000
,
1000
0000
0010
2002
0000
3003
0200
0000
,
0000
0300
0020
0000
0000
0030
2000
0000
,
0000
3000
2002
0000
0000
0000
0000
0000
,
3003
0000
0001
1000
0010
1000
0001
1000
,
0100
0000
0010
0001
0100
0010
0100
0001
,
1000
0000
0001
0001
1000
1000
0010
0100
,
0001
0000
1000
0100
0010
0001
1000
1000
,
0001
0000
0001
0100
0010
0100
0001
0100
,
0010
0000
1000
0001
0010
0100
1000
0001
,
0100
0000
0010
1000
0001
0100
0010
1000
,
0001
0100
0010
0220
0000
0000
0000
0000
,
0330
0000
0100
0202
0000
0000
0000
0000
,
0303
0000
0001
2002
0000
0000
0000
0000
,
3003
0000
1000
2002
0000
0000
0000
0000
,
3003
0000
0001
1000
0010
1000
0000
0001
,
0100
0000
0001
0010
0100
1000
0000
0001
,
1000
0000
0010
1000
0010
1000
0010
1000
,
0001
1000
0001
0100
0001
0100
0010
0100
,
0001
0000
1000
0100
0010
0001
0000
0100
,
0010
0000
0100
0001
1000
0010
0000
0010
,
1000
0000
0001
0010
0001
0100
0001
0010
,
0100
1000
0001
1000
0010
1000
0001
1000
,
0001
0000
0100
0010
0100
0001
0000
0001
,
1000
0000
1000
0010
1000
0100
0000
0100
,
1000
0000
1000
0010
1000
0010
1000
0001
,
1000
0001
0100
0010
0100
0001
0010
0100
,
1000
0000
0001
0100
0010
0100
0000
0100
,
0001
0000
0001
1000
0010
1000
0000
0001
,
1000
0000
0010
0100
0001
0100
0000
0010
,
0100
0001
0010
0100
1000
0001
0000
1000
,
0010
0100
0220
0000
0000
0000
0000
0000
,
0000
0000
0330
0000
;

//--------------- dance-single - Alex ----------------
#NOTES:
     dance-single:
     Alex:
     Challenge:
     12:
     0,0,0,0,0:
0000
0000
0000
0000
,
0000
0000
0000
0000
,
0000
0000
0000
0000
,
0000
0000
0000
0000
,
0002
1003
0020
0130
0002
0013
0200
1300
,
0002
0103
0020
2000
0000
0000
0000
3030
,
0020
1030
0200
1300
0002
0013
0002
1003
,
0020
0130
0002
2000
0000
0000
0000
3003
,
0001
0000
0010
0000
0100
0000
1000
0000
0001
0100
0001
0000
0100
0000
0010
0000
,
1000
0000
0001
0000
0010
0000
0001
0000
1000
0010
1000
0000
0001
0100
0001
0000
,
1000
0000
0010
0000
0100
0000
0001
0000
1000
0100
1000
0000
0001
0000
0100
0000
,
0010
0000
0100
0000
0001
0000
0010
0000
0001
0010
0001
0010
0001
0000
0100
0000
,
0101
0000
0001
0000
1000
0000
1000
0000
0001
1000
0001
0000
1000
0000
0010
0000
,
1000
0000
0001
0000
0100
0000
0010
0000
0100
0010
0100
0000
0001
0100
0001
0000
,
0100
0000
0001
0000
0010
0000
0001
0000
1000
0010
1000
0000
0001
0000
0100
0000
,
0010
0000
0100
0000
0001
0000
1000
0000
0010
0100
0010
0100
0010
0000
0100
0000
,
1001
0000
0001
0000
1000
0000
0010
0000
1000
0010
1000
0000
0001
0000
0100
0000
,
0001
0000
1000
0000
0010
0000
0100
0000
0001
0100
0001
0000
0100
0010
0100
0000
,
0001
0000
0010
0000
0100
0000
1000
0000
0001
0100
0001
0000
0100
0000
0010
0000
,
0100
0000
0001
0000
1000
0000
0010
0000
1000
0010
1000
0010
1000
0000
0010
0000
,
1010
0000
0010
0000
1000
0000
0001
0000
0100
0010
0100
0010
0200
0300
0010
0000
,
1000
0000
0001
0000
0010
0000
0001
1000
0001
1000
0002
0003
1000
0010
1000
0010
,
1000
0000
0001
0000
0100
0010
0100
0010
0100
0000
0010
0000
2002
0000
0000
0000
,
0000
0000
3003
1001
,
0110
0000
0000
0000
0010
0000
1000
0001
1000
0001
1000
0001
1000
0000
0000
0000
,
1001
0000
0000
0000
0001
0000
0100
0001
0100
0001
0100
0001
0100
0000
0000
0000
,
0110
0000
0000
0000
0010
0000
1000
0010
1000
0010
1000
0010
1000
0000
0000
0000
,
1010
0000
0010
0000
1000
0000
0001
1000
0001
1000
0001
1000
0001
0000
1000
0010
,
1000
0000
0001
0000
0100
0000
0010
0000
0100
0000
0001
0000
0010
0000
0100
1000
,
0001
0000
0100
0000
0010
0000
1000
0000
0001
0000
0010
0000
0001
0000
0100
0001
,
0100
0000
0010
0000
1000
0000
0001
0000
0010
0000
0100
0000
1000
0000
0001
1000
,
0001
1000
0010
1000
0001
0100
0010
0100
,
0001
0000
1000
0000
0010
1000
0010
1000
0020
0030
1000
0000
0001
0000
0100
0000
,
0010
0000
1000
0001
1000
0001
2000
3000
0001
0000
0100
0000
0010
0000
0100
0000
,
0001
0010
0001
0010
0002
0003
1000
0000
0010
0000
1000
0000
0001
0000
0100
0010
,
0100
0010
0100
0000
0001
0000
1001
0000
0000
0000
0011
0000
0101
0000
0000
0000
,
0110
1010
0101
2002
0000
3003
0022
0000
,
0000
0033
2200
0000
0000
3300
0220
0000
,
0000
0330
2002
0000
0000
0000
0000
0000
,
3003
0000
0000
0000
0001
1000
0001
1000
0001
1000
0001
0100
0001
0100
0010
0100
,
0010
0100
0001
0010
0100
1000
0001
1000
0010
1000
0001
0100
0010
0000
1000
0000
,
0001
0000
0100
0000
0010
1000
0100
0010
0100
1000
0001
0100
0001
0100
0010
0100
,
0001
0010
0001
1000
0010
1000
0001
0100
0001
1000
0001
1000
0001
0000
0100
0000
,
0001
0000
1000
0000
0010
1000
0001
0010
0100
1000
0001
0100
0010
1000
0100
0010
,
0001
0000
0100
0000
0010
0100
0001
0010
0100
1000
0001
1000
0010
1000
0001
0100
,
0001
0000
1000
0000
0010
1000
0100
1000
0010
0100
0001
0010
0100
1000
0001
0100
,
0010
0100
0001
0000
1001
0000
0220
0000
0000
0000
0000
0000
0000
0000
0000
0000
,
0330
0011
1100
0022
0000
0000
0000
0000
,
0033
1100
1010
0202
0000
0000
0000
0000
,
0303
0000
1010
0000
0010
1000
0010
1000
0010
1000
0010
1000
0010
1000
0001
1000
,
0001
1000
0001
1000
0001
0100
0010
0100
0001
0010
0100
1000
0001
1000
0010
1000
,
0001
1000
0100
1000
0001
0100
0001
1000
0010
1000
0001
0010
0100
1000
0010
0100
,
0001
0000
1000
0000
0001
0010
0001
0100
0001
0100
0010
1000
0010
1000
0100
1000
,
0010
1000
0001
1000
0010
1000
0001
0010
0100
0010
0001
0100
0010
0100
0001
1000
,
0010
0000
1000
0000
0001
1000
0001
1000
0010
1000
0100
0010
0001
1000
0001
0100
,
0010
1000
0001
0010
0001
0100
0010
0100
0001
0010
0001
1000
0010
1000
0001
0100
,
0001
0000
0100
0000
0010
1000
0100
1000
0010
1000
0010
1000
0001
0010
0001
0100
,
0001
0010
0100
1000
0001
0100
0010
1000
0100
0010
0100
1000
0001
0100
0010
0100
,
0001
0000
0010
0000
0001
0100
0010
1000
0100
0010
0001
1000
0010
1000
0001
0010
,
0100
1000
0001
0100
0010
1000
0010
0100
0010
1000
0001
1000
0001
0100
0001
1000
,
0010
0000
1000
0000
0001
0010
0001
0100
0001
0010
0100
0010
0001
0100
0010
1000
,
0100
1000
0010
1000
0010
1000
0001
0100
0001
0100
0010
1000
0001
0010
0100
1000
,
0001
0000
0001
0000
1000
0010
1000
0100
0010
0001
0100
0010
0100
0001
0010
0100
,
1000
0001
1000
0010
1000
0001
0100
0010
1000
0010
1000
0100
0010
0001
1000
0001
,
0100
0000
0001
0000
1000
0010
1000
0010
1000
0001
0010
0100
1000
0001
0100
0010
,
1000
0100
0010
0001
0100
0001
1000
0010
0100
0001
0010
0100
1000
0001
0100
0010
,
0100
0001
1000
0001
2002
0000
0000
0000
0000
0000
0000
0000
0000
0000
0000
0000
,
0000
0000
3003
0000
;
