#TITLE:Winter;
#SUBTITLE:;
#ARTIST:Banya;
#TITLETRANSLIT:;
#SUBTITLETRANSLIT:;
#ARTISTTRANSLIT:;
#GENRE:;
#CREDIT:;
#MUSIC:Winter.ogg;
#BANNER:Winter.png;
#BACKGROUND:Winter-BG.png;
#CDTITLE:;
#SAMPLESTART:32.868;
#SAMPLELENGTH:12.083;
#SELECTABLE:YES;
#OFFSET:-0.055;
#BPMS:0.000=168.000;
#STOPS:;
#BGCHANGES:;
#FGCHANGES:;

//--------------- dance-single - Alex ----------------
#NOTES:
     dance-single:
     Alex:
     Beginner:
     1:
     0,0,0,0,0:
0000
0000
0000
0000
,
0000
0000
0000
0000
,
1000
0000
0000
0000
,
0001
0000
0000
0000
,
1000
0000
0000
0000
,
0010
0000
0000
0000
,
0010
0000
0000
0000
,
1000
0000
0000
0000
,
1000
0000
0000
0000
,
0001
0000
0000
0000
,
0100
0000
0000
0000
,
0001
0000
0000
0000
,
0010
0000
0000
0000
,
0001
0000
0000
0000
,
1000
0000
0000
0000
,
1000
0000
0000
0000
,
0001
0000
0000
0000
,
0001
0000
0000
0000
,
1001
0000
0000
0000
,
0010
0000
0000
0000
,
1000
0000
0000
0000
,
0100
0000
0000
0000
,
1000
0000
0000
0000
,
1001
0000
0000
0000
,
0010
0000
0010
0000
,
0010
0000
0000
0000
,
1000
0000
1000
0000
,
1000
0000
0000
0000
,
0001
0000
0001
0000
,
0001
0000
0000
0000
,
0100
0000
0100
0000
,
0100
0000
0000
0000
,
0001
0000
0000
0000
,
1000
0000
0000
0000
,
0010
0000
0000
0000
,
1000
0000
0000
0000
,
0001
0000
0000
0000
,
1000
0000
0000
0000
,
0100
0000
0000
0000
,
0100
0000
0000
0000
,
1000
0000
0000
0000
,
0001
0000
0001
0000
,
0001
0000
0000
0000
,
1000
0000
0000
0000
,
0010
0000
0000
0000
,
0010
0000
0000
0000
,
1001
0000
0000
0000
,
1000
0000
1000
0000
,
1000
0000
0000
0000
,
0001
0000
0001
0000
,
0001
0000
0000
0000
,
0100
0000
0100
0000
,
0100
0000
0000
0000
,
0010
0000
0000
0000
,
0010
0000
0000
0000
,
1000
0000
0000
0000
,
0000
1001
0000
0000
;

//--------------- dance-single - Alex ----------------
#NOTES:
     dance-single:
     Alex:
     Easy:
     3:
     0,0,0,0,0:
0000
0000
0000
0000
,
0000
0000
0000
0000
,
0100
0000
0001
0000
,
1000
0000
0001
0000
,
1000
0000
0010
0000
,
0100
0100
0100
0000
,
0010
0010
0010
0000
,
1000
0000
0001
0000
,
1000
0000
0001
0000
,
0100
0000
0100
0000
,
0001
0001
0001
0000
,
1000
1000
1000
0000
,
0010
0000
1000
0000
,
1000
0000
0001
0000
,
0010
0000
0010
0000
,
0001
0001
0001
0000
,
1000
0000
1000
0000
,
0001
0000
0001
0000
,
1000
1000
1000
0000
,
0001
0001
0001
0000
,
0100
0100
0100
0000
,
0010
0010
0010
0000
,
1000
0000
0001
0000
,
1001
0000
0000
0000
,
0010
0010
0010
0010
,
0010
0000
0000
0000
,
0100
0100
0100
0100
,
0100
0000
0000
0000
,
0001
0001
0001
0001
,
0001
0000
0000
0000
,
1000
1000
1000
1000
,
0001
0000
1000
0000
,
0001
0000
1000
0000
,
0010
0000
0100
0100
,
0100
0000
0001
0000
,
1000
0000
0001
0000
,
0010
0000
0001
0001
,
0001
0000
1000
0000
,
0010
0000
1000
0000
,
0001
0000
0100
0100
,
0100
0000
0001
0000
,
1000
1000
1000
1000
,
0001
0000
1000
0000
,
0001
0000
1000
0000
,
0010
0000
0100
0000
,
0010
0000
0100
0000
,
1001
0000
0000
0000
,
0001
0001
0001
0001
,
0001
0000
0000
0000
,
1000
1000
1000
1000
,
1000
0000
0000
0000
,
0100
0100
0100
0100
,
0100
0000
0000
0000
,
0001
0001
0001
0000
,
0010
0010
0010
0000
,
1000
1000
0001
0001
,
0001
1001
0000
0000
;

//--------------- dance-single - Alex ----------------
#NOTES:
     dance-single:
     Alex:
     Medium:
     6:
     0,0,0,0,0:
0000
0000
0000
0000
,
0000
0000
0000
0000
,
0001
1000
0001
1000
,
0010
0100
0010
0100
,
0001
0010
0100
1000
,
1001
0000
1001
0000
,
0110
0000
0110
0000
,
0100
0001
1000
0010
,
0010
1000
0001
0010
,
0001
1000
0100
1000
,
1001
0000
1001
0000
,
0110
0000
0110
0000
,
0100
0100
0001
0001
,
1000
0010
1000
0001
,
0010
0100
1000
0001
,
0100
0100
0001
0001
,
1000
1000
1000
1000
,
0001
0001
0001
0001
,
1000
0100
1000
0001
,
0100
0010
1000
0001
,
0010
0001
0100
0010
,
0100
0100
0001
0001
,
1000
0001
1000
0001
,
1001
0000
0000
0000
,
1001
1001
1001
1001
,
1001
0000
0000
0000
,
0110
0110
0110
0110
,
0110
0000
0000
0000
,
1010
1010
0101
0101
,
1001
0000
0000
0000
,
0110
0110
0110
0110
,
0010
0100
0001
1000
,
0010
1000
0001
0010
,
0001
0000
0100
0001
,
0010
0100
1000
0001
,
1000
0010
1000
0001
,
0100
0000
0001
1000
,
0100
1000
0001
0100
,
0010
1000
0001
0010
,
0001
0000
1000
0001
,
1000
1000
0001
0001
,
0100
0010
0100
0001
,
1001
1000
0010
1000
,
1001
0001
0100
0010
,
0110
0100
0001
0010
,
0100
1000
0001
0100
,
0110
0000
0000
0000
,
1001
1001
1001
1001
,
1001
0000
0000
0000
,
0110
0110
0110
0110
,
0110
0000
0000
0000
,
0011
0011
1100
1100
,
1001
0000
0000
0000
,
0010
0010
1000
1000
,
0001
0001
0100
0100
,
0001
0010
0100
1000
,
0001
1001
0000
0000
;

//--------------- dance-single - Alex ----------------
#NOTES:
     dance-single:
     Alex:
     Hard:
     9:
     0,0,0,0,0:
0000
0000
0000
0000
,
0000
0000
0000
0000
,
0001
1000
0010
1000
0001
0010
0001
0100
,
0010
0100
0001
0010
0100
0010
0001
0100
,
0010
0100
0001
1000
0100
0010
0001
1000
,
0010
1000
0001
0100
,
0010
0010
0100
0100
,
0001
1000
0100
1000
0001
1000
0001
0100
,
0001
0010
0001
0100
0010
0100
0001
0010
,
0100
1000
0001
0100
0010
1000
0100
1000
,
1000
0001
1000
0001
,
0100
0010
0100
0010
,
0100
0001
0010
0001
0100
0010
0100
0001
,
0010
0100
1000
0001
1000
0010
1000
0001
,
0010
0001
0100
0010
0100
0001
1000
0100
,
0010
0001
0100
0010
,
1000
1000
1000
1000
,
0001
0001
0001
0001
,
1000
0100
1000
0100
1000
0100
1000
0100
,
1000
0010
1000
0010
1000
0001
1000
0001
,
0100
0001
0100
0001
0100
0001
0100
0001
,
0100
0010
0100
0010
1000
0010
1000
0010
,
1000
0001
0010
0100
1000
0001
1000
0001
,
1001
0000
0000
0000
,
0001
1000
0010
0100
0001
1000
0100
0010
,
1001
0000
0000
0000
,
0001
0100
0010
0100
0001
1000
0100
1000
,
1001
0000
0000
0000
,
1000
0010
0100
0001
0010
0100
1000
0001
,
1001
0000
0000
0000
,
0001
0001
1000
1000
0010
0010
0100
0100
,
0001
0010
0100
1000
0001
0010
0001
1000
,
0010
1000
0001
1000
0100
0010
0001
0100
,
0010
0000
0000
0100
0001
0010
0100
1000
,
0001
0001
1000
1000
0010
0010
0100
0100
,
0001
0010
0001
1000
0100
0010
0001
1000
,
0010
0000
0000
1000
0001
1000
0010
1000
,
0001
0010
0001
0100
0010
0100
0001
0010
,
0100
1000
0001
1000
0010
0100
0001
1000
,
0100
0000
0000
0010
0001
1000
0010
0010
,
1000
0001
0001
0100
0001
0010
0100
1000
,
0001
1000
0001
1000
0001
1000
0001
1000
,
0001
0100
0010
0100
0001
0010
0001
1000
,
1000
0010
1000
0001
0100
0010
0100
0001
,
0001
1000
0100
0010
0001
1000
0010
0100
,
0001
1000
0100
0010
0001
1000
0010
0100
,
0001
0000
0000
0000
,
1000
0001
0010
0001
1000
0010
1000
0001
,
1000
0000
0000
0000
,
0001
0100
0010
0100
0001
1000
0100
0010
,
0001
0000
0000
0000
,
1000
0010
0100
0001
1000
0001
0100
0010
,
0100
0000
0000
0000
,
0001
0010
0100
0010
0001
1000
0010
0100
,
0001
0100
0001
1000
0001
1000
0010
1000
,
0010
0100
0001
1000
0100
0010
0001
1000
,
0001
1001
0000
0000
;

//--------------- dance-single - Alex ----------------
#NOTES:
     dance-single:
     Alex:
     Challenge:
     12:
     0,0,0,0,0:
0000
0000
0000
0000
,
0000
0000
0000
0000
,
0001
1000
0010
0100
0001
0010
0100
1000
,
0001
1000
0010
1000
0001
0010
0001
1000
0100
0010
0001
1000
0010
0100
0001
0010
,
0100
0010
0001
0100
0010
0100
0001
1000
0010
0100
0001
1000
0010
0100
0001
0000
,
1001
0110
1001
0110
,
0011
1100
0011
1100
,
1000
0010
0100
0001
0010
0001
1000
0010
,
0100
0000
0001
0100
0010
0100
0001
0010
0100
0010
0001
1000
0010
0100
0001
0010
,
0100
1000
0001
1000
0010
1000
0001
0100
0001
1000
0100
0010
0001
1000
0010
0000
,
1010
0101
1010
0101
,
0011
1100
0011
1100
,
1000
0010
0100
0001
0010
0001
1000
0010
,
0100
0000
0001
1000
0100
0010
0001
1000
0001
0010
0001
0100
0010
0100
0001
0010
,
0100
1000
0001
1000
0010
1000
0001
0010
0001
1000
0100
0010
0001
1000
0010
0000
,
1001
0110
1001
0110
,
0010
1000
0010
1000
0010
1000
0010
1000
,
0001
1000
0001
1000
0001
1000
0001
0100
,
0101
0001
1000
0010
1000
0001
0010
0001
,
0011
0001
0100
0010
0100
0001
1000
0100
,
1100
0100
1000
0010
0100
0001
1000
0010
,
1010
1000
0001
0010
0100
1000
0001
1000
,
0001
1001
1000
1001
0001
0101
0100
0110
,
0010
0000
1000
0010
0100
0001
1000
0100
0010
0000
0001
0000
0100
0000
0010
0000
,
0110
0001
0110
1000
0110
0001
0110
1000
,
0110
0000
0001
0100
0001
0100
0001
1000
0010
0000
0100
0000
0001
0000
1000
0000
,
1100
1000
1010
0010
0110
0100
0101
0001
,
0011
0000
0001
0100
0010
1000
0001
1000
0010
0000
0100
0000
0001
0000
1000
0000
,
1001
0001
0101
0100
0110
0010
1010
1000
,
1100
0000
0100
1000
0010
1000
0001
1000
0010
0000
0100
0000
0001
0000
1000
0000
,
1001
1000
0110
0001
1010
0100
0011
0100
,
1000
0100
0010
0001
1000
0010
0100
0001
0010
0001
1000
0100
0010
0001
1000
0010
,
0100
0001
0010
0001
0100
0010
0100
0001
0010
0100
1000
0001
1000
0010
1000
0001
,
0100
0000
0000
0000
0000
0000
0010
0100
0001
0010
0001
1000
0100
0010
0001
1000
,
0010
1000
0010
1000
0001
1000
0001
0100
0001
0100
0010
0100
0001
0100
0001
0010
,
0100
0010
0001
0100
0010
1000
0100
0010
0001
1000
0010
0100
0001
0010
0100
1000
,
0001
0000
0000
0000
0000
0000
1000
0001
1000
0010
1000
0001
1000
0001
0100
0001
,
0010
0001
1000
0100
0010
0001
1000
0010
0100
0001
0010
0001
1000
0010
0100
0001
,
1000
0100
0010
0001
1000
0010
1000
0001
0010
0100
1000
0001
0100
0010
1000
0001
,
0010
0000
0000
0000
0000
0000
0001
0100
0010
0100
0001
0100
0001
0010
0001
1000
,
0001
1000
0100
1000
0001
1000
0001
1000
0010
0100
0001
1000
0100
0010
0001
0000
,
0011
0001
1001
1000
1010
0010
0110
0100
,
0100
0001
0100
0001
0010
0001
1000
0010
1000
0001
1000
0100
0010
0001
1000
0010
,
0100
0001
0010
0100
1000
0001
1000
0010
1000
0001
1000
0001
0100
0001
0010
0100
,
0010
0001
0100
0010
0100
0001
0010
0100
1000
0001
1000
0010
1000
0001
1000
0100
,
1000
0010
0100
0001
1000
0010
0100
0001
,
1001
0110
1001
0110
,
0010
1000
0001
0100
0010
1000
0001
0010
0100
1000
0001
0100
0010
1000
0100
0000
,
1100
1010
0101
0011
,
0001
0100
0001
0010
0100
1000
0001
0010
0001
1000
0010
0100
0001
1000
0001
0000
,
1001
0110
1001
0110
,
0001
1000
0001
1000
0001
1000
0001
0100
0001
1000
0010
0100
0001
1000
0100
0000
,
1001
0110
1001
0110
,
0010
1000
0001
1000
0010
1000
0001
1000
0100
0010
0001
1000
0010
0100
0001
0010
,
0100
1000
0001
0100
0010
0100
0001
0010
0001
0100
0001
0010
0100
1000
0001
1000
,
0010
1000
0001
1000
0100
0010
0100
1000
0001
0100
0010
0100
0001
0010
0001
1000
,
0010
1001
0000
0000
;
