#TITLE:Windmill;
#SUBTITLE:;
#ARTIST:Yak Won;
#TITLETRANSLIT:;
#SUBTITLETRANSLIT:;
#ARTISTTRANSLIT:;
#GENRE:;
#CREDIT:;
#MUSIC:Windmill.ogg;
#BANNER:Windmill.png;
#BACKGROUND:Windmill-BG.png;
#CDTITLE:;
#SAMPLESTART:5.915;
#SAMPLELENGTH:14.715;
#SELECTABLE:YES;
#OFFSET:-0.092;
#BPMS:0.000=246.000;
#STOPS:;
#BGCHANGES:;
#FGCHANGES:;

//--------------- dance-single - Alex ----------------
#NOTES:
     dance-single:
     Alex:
     Beginner:
     2:
     0,0,0,0,0:
0000
0000
0000
0000
,
0000
0000
0000
0000
,
0000
0000
0000
0000
,
0000
0000
0000
0000
,
0000
0000
0000
0000
,
0000
0000
0000
0000
,
0010
0000
0000
0000
,
0000
0000
0100
0000
,
0000
0000
0000
0000
,
0001
0000
0000
0000
,
0000
0000
1000
0000
,
0000
0000
0000
0000
,
0010
0000
0000
0000
,
0000
0000
0100
0000
,
0000
0000
0000
0000
,
0001
0000
0000
0000
,
0000
0000
1000
0000
,
0000
1000
0000
0000
,
2000
0000
0000
3000
,
0000
0000
1001
0000
,
0000
0000
0000
0000
,
0001
0000
0000
0000
,
0000
0000
1000
0000
,
0000
0000
0000
0000
,
0010
0000
0000
0010
,
0000
0000
0010
0000
,
0000
0000
0000
0000
,
1000
0000
0000
0000
,
0000
0000
0001
0000
,
0000
0000
0000
0000
,
0001
0000
0000
0000
,
0000
0000
1001
0000
,
0000
0000
0000
0000
,
0100
0000
0000
0100
,
0000
0000
0100
0000
,
0000
0000
0000
0000
,
0010
0000
0000
0010
,
0000
0000
0010
0000
,
0000
0000
0000
0000
,
0100
0000
0000
0100
,
0000
0000
0100
0000
,
0000
0000
0000
0000
,
1001
0000
0000
0000
,
0000
0000
0001
0000
,
0000
0000
0000
0000
,
0001
0000
0000
0000
,
0000
0000
1000
0000
,
0000
0000
0000
0000
,
0010
0000
0000
0000
,
0000
0000
0010
0000
,
0000
0000
0000
0000
,
1000
0000
0000
0000
,
0000
0000
0100
0000
,
0000
0000
0000
0000
,
1000
0000
0000
1000
,
0000
0000
2000
0000
,
0000
0000
3000
0000
,
0002
0000
0000
0000
,
0003
0000
0200
0000
,
0000
0000
0300
0000
,
0020
0000
0000
0000
,
0030
0000
2000
0000
,
0000
0000
3000
0000
,
0002
0000
0000
0000
,
0003
0000
2000
0000
,
0000
0000
3000
0000
,
0020
0000
0000
0000
,
0030
0000
1001
0000
,
0000
0000
0000
0000
,
0001
0000
0000
0001
,
0000
0000
0001
0000
,
0000
0000
0000
0000
,
1000
0000
0000
1000
,
0000
0000
1000
0000
,
0000
0000
0000
0000
,
0001
0000
0000
0001
,
0000
0000
0001
0000
,
0000
0000
0000
0000
,
0100
0000
0000
0000
,
0000
0000
0110
0000
,
0000
0000
0000
0000
,
0010
0000
0000
0000
,
0000
0000
1000
0000
,
0000
0000
0000
0000
,
0001
0000
0000
0000
,
0000
0000
1000
0000
,
0000
0000
0000
0000
,
0010
0000
0000
0000
,
0000
0000
0010
0000
,
0000
0000
0000
0000
,
0100
0000
0000
0100
,
0000
0000
0100
0000
,
0000
0000
0000
0000
,
0010
0000
0000
0000
,
0000
0000
0000
0000
,
1001
0000
0000
0000
;

//--------------- dance-single - Alex ----------------
#NOTES:
     dance-single:
     Alex:
     Easy:
     5:
     0,0,0,0,0:
0000
0000
0000
0000
,
0000
0000
0000
0000
,
0000
0000
0000
0000
,
0000
0000
0000
0000
,
0000
0000
0000
0000
,
0000
0000
0000
0000
,
1000
0000
0010
0000
,
1000
0000
0001
0000
,
0001
0000
1000
0000
,
1000
0000
0001
0000
,
0100
0000
0010
0000
,
0010
0000
0100
0000
,
0100
0000
0001
0000
,
0010
0000
0001
0000
,
1000
0000
0010
0000
,
1000
0000
0001
0000
,
1000
0001
1000
0000
,
0001
0200
0000
0000
,
0300
0000
0000
0000
,
0000
0000
0010
0000
,
0100
0000
0001
0000
,
1000
0000
0001
0000
,
0010
0000
0001
0000
,
1000
0000
0010
0000
,
0100
0010
0100
0020
,
0000
0030
1000
0000
,
0001
0000
0010
0000
,
0001
0000
0100
0000
,
0010
0100
0010
0000
,
1000
0000
0001
0000
,
1000
0000
0100
1000
,
0100
0000
2000
0000
,
3000
0020
0000
0030
,
0200
0000
0300
0010
,
0100
0010
0200
0000
,
0300
0002
0000
0003
,
2000
0000
3000
0001
,
1000
0001
2000
0000
,
3000
0020
0000
0030
,
0200
0000
0300
0020
,
0000
0030
1000
0000
,
0010
0000
1000
0000
,
0001
0000
0100
0010
,
0100
0000
1001
0000
,
0001
0000
1000
0000
,
1000
0000
0001
0000
,
0010
0000
0001
0000
,
0100
0000
0010
0000
,
0100
0000
0100
0000
,
0001
1000
0001
0000
,
1000
0000
0001
0000
,
0010
0000
0001
0000
,
1000
0000
1000
0000
,
0010
0000
0100
0000
,
0001
1000
0001
1000
,
0001
0000
0100
0000
,
0001
0000
0010
0000
,
0100
0000
1000
0020
,
0000
0030
1000
0000
,
0001
0000
1000
0000
,
0001
0000
0100
0020
,
0000
0030
0100
0000
,
0100
0000
0001
0000
,
0010
0000
0001
2000
,
0000
3000
0001
0000
,
0001
0000
0100
0000
,
0010
0000
1000
0100
,
1000
0000
1001
0000
,
0001
0000
0100
0000
,
0010
0000
1000
0010
,
1000
0000
0010
0000
,
0100
0000
0001
0000
,
1000
0000
0001
0010
,
0001
0000
0100
0000
,
0100
0000
0001
0000
,
1000
0000
0010
0100
,
0010
0000
1000
0000
,
1000
0000
0001
0010
,
0001
0000
0100
0020
,
0000
0030
1001
0000
,
0001
0000
1000
0000
,
0001
0000
0001
0000
,
1000
0000
0010
0000
,
0010
0000
1000
0000
,
1000
0000
0100
0000
,
0100
0000
1000
0000
,
0001
0000
0010
0000
,
0001
0000
0001
0000
,
0100
0000
0100
0000
,
0100
0000
0010
0100
,
0010
0000
1000
0001
,
1000
0000
0001
0000
,
0001
0000
1000
0000
,
0010
0000
0000
0100
,
0000
0200
0000
0300
,
2002
0000
0000
0000
,
0000
0000
0000
0000
,
0000
0000
3003
0000
;

//--------------- dance-single - Alex ----------------
#NOTES:
     dance-single:
     Alex:
     Medium:
     9:
     0,0,0,0,0:
0000
0000
0000
0000
,
0000
0000
0000
0000
,
0000
0000
0000
0000
,
0000
0000
0000
0000
,
0000
0000
0000
0000
,
0000
0000
0000
0000
,
0001
0100
0001
0100
,
0100
0100
0010
1000
,
0100
0010
0100
1000
,
0001
1000
0010
0100
,
0100
0100
0001
0010
,
0100
0010
0001
0100
,
0010
1000
1000
0001
,
0001
0001
1000
0100
,
0010
0100
1000
0001
,
0100
0010
0100
0001
,
1000
0010
0100
0000
,
0001
2002
0000
0000
,
3003
0000
0000
0000
,
0000
0000
0001
1000
,
0010
1000
0001
0010
,
0001
0100
0010
0100
,
0001
0010
0100
1000
,
0001
0100
0010
0100
,
0001
1000
0010
0220
,
0000
0330
0100
0001
,
0010
0100
0010
0001
,
0100
0010
1000
0001
,
0001
0001
1000
0100
,
1000
0010
1000
0001
,
0100
0010
1000
0001
,
1001
0000
0000
0000
0002
0000
0000
0003
,
0100
0000
0020
0000
0000
0030
1000
0000
,
0200
0000
0300
1000
,
0001
0000
0010
0000
0002
0000
0000
0003
,
0100
0000
0020
0000
0000
0030
1000
0000
,
0002
0000
0000
0003
0100
0000
0001
0000
,
0010
0000
0100
0000
2000
0000
0000
3000
,
0010
0000
0200
0000
0000
0300
0001
0000
,
0020
0000
0030
0002
,
0000
0003
0100
0100
,
0001
1000
0010
0100
,
0001
0000
1000
0001
,
1001
0000
0001
0100
,
0010
0100
0001
1000
,
0100
0010
0100
1000
,
0001
0100
0010
1000
,
0001
0010
0100
1000
,
0001
0100
0100
0010
,
1000
1000
1001
0001
,
1000
0010
1000
0001
,
0010
0001
0100
0010
,
0010
0100
0100
0001
,
0010
0100
0010
0001
,
0001
0100
0010
0100
,
1001
0000
0001
1000
,
0010
1000
0001
0010
,
0200
0000
0000
0300
1000
0000
0020
0000
,
0000
0030
1000
0001
,
0010
0001
0100
0010
,
0200
0000
0000
0300
0001
0000
0020
0000
,
0000
0030
0001
1000
,
0010
1000
0001
1000
,
0200
0000
0000
0300
1000
0000
0020
0000
,
0000
0030
1000
0001
,
1000
1000
0010
0100
,
0002
0000
0000
0003
0100
0000
0010
0000
,
0110
0000
0010
1000
,
0100
0010
0100
1000
,
0001
0100
0010
0100
,
0100
0100
0001
0010
,
0100
0010
0001
0100
,
0010
0100
0001
1000
,
1000
1000
0001
0010
,
0001
1000
0010
1000
,
0001
1000
0100
1000
,
0010
0100
0001
0001
,
0100
0100
0010
1000
,
0001
0000
0001
0100
,
0101
0000
0001
0100
,
0010
0100
0001
1000
,
0100
0100
1000
1000
,
0010
0100
0001
0010
,
0010
0001
0001
0001
,
1000
0010
1000
0001
,
1000
0100
1000
1000
,
0010
0100
0100
0100
,
0001
0010
0100
1000
,
0001
0100
0010
0010
,
1000
0001
0001
0100
,
0001
0000
1000
0001
,
1001
0000
0001
0100
,
0010
0100
0001
0010
,
0200
0000
0000
0000
0000
0300
2000
0000
,
0000
3000
0002
0000
0000
0000
0000
0003
,
2002
0000
0000
0000
,
0000
0000
0000
0000
,
0000
0000
3003
0000
;

//--------------- dance-single - Alex ----------------
#NOTES:
     dance-single:
     Alex:
     Hard:
     10:
     0,0,0,0,0:
0000
0000
0000
0000
,
0000
0000
0000
0000
,
0000
0000
0000
0000
,
0000
0000
0000
0000
,
0000
0000
0000
0000
,
0000
0000
0000
0000
,
1000
0001
0100
0010
,
1000
0000
0001
0000
0010
0100
1000
0001
,
0100
0010
0100
0001
0010
0001
1000
0010
,
1000
0001
1000
0010
,
1000
0000
0001
0000
0010
0001
0100
0010
,
0100
0001
0010
0100
1000
0001
0100
0010
,
0100
0001
0001
1000
,
0010
0000
1000
0000
0001
0010
0100
1000
,
0001
0100
0010
0100
0001
0010
0001
1000
,
0010
0100
0001
1000
,
0001
0100
0110
0000
,
1001
0220
0000
0000
,
0330
0000
0000
0000
,
0000
0000
0000
0000
1000
0100
1000
0100
,
1000
0010
0100
0001
1000
0000
0010
0000
,
0100
0001
0010
0001
1000
0010
1000
0001
,
0010
0000
0001
0000
0100
0010
0100
0001
,
0010
0100
1000
0001
0100
0000
0001
0000
,
1000
0010
1000
0001
0010
0002
2000
0000
,
0000
0000
3003
0000
0001
0100
0010
0100
,
0001
0010
0100
1000
0001
0100
0010
1000
,
0001
0100
0001
1000
0010
0000
0100
0000
,
0100
0000
0001
0000
1000
0100
0010
0100
,
1000
0001
0100
0010
0100
0001
0010
0100
,
1000
0001
0100
0010
1000
0001
1000
0000
,
2002
0000
3003
0000
0020
0000
0000
0030
,
0200
0300
0002
0000
0000
0003
2000
3000
,
0020
0000
0030
1010
,
1010
0000
0101
0000
0102
0000
0000
0003
,
2000
3000
0200
0000
0000
0300
2000
3000
,
0020
0000
0000
0030
0200
0300
0001
0010
,
0100
0010
0001
0100
0020
0000
0000
0030
,
0200
0300
0002
0000
0000
0003
2000
3000
,
0020
0000
0030
2000
,
0000
0000
3000
0000
0002
0003
2000
3000
,
0020
0030
0200
0300
0002
0003
0020
0030
,
0200
0000
0000
0300
1000
0000
1001
0000
,
0220
0000
0330
0000
0010
0100
0010
0000
,
0100
0000
0001
0010
0001
0000
1000
0000
,
0001
1000
0001
0000
1000
0000
0010
1000
,
0100
0000
1000
0000
0010
0100
0010
0000
,
1000
0000
0001
0010
0001
0000
1000
0000
,
0010
1000
0010
0000
1000
0000
0001
0100
,
0001
0000
1000
0000
0010
0100
0001
0010
,
0100
0010
0001
0100
0010
0100
0001
1000
,
0010
1000
0001
0010
0001
1000
0010
0000
,
0100
0000
0001
0000
1000
0100
0010
0001
,
0100
0010
0100
0001
0010
0100
0010
0001
,
0100
0010
0100
0001
1000
0010
1000
0000
,
2020
0000
3030
0000
2000
3000
0002
0003
,
0020
0030
0002
0003
2000
3000
0020
0030
,
0200
0000
0000
0300
0002
0003
0020
0000
,
0000
0000
0030
0000
0002
0003
2000
3000
,
0020
0030
2000
3000
0002
0003
2000
3000
,
0200
0000
0000
0300
2000
3000
0020
0000
,
0000
0000
0030
0000
0200
0300
0002
0003
,
2000
3000
0002
0003
0020
0030
0002
0003
,
2000
0000
0000
3000
0020
0030
0200
0000
,
0000
0000
0300
0000
0002
0003
2000
3000
,
0002
0003
0020
0030
0002
0003
2000
3000
,
0020
0000
0000
0030
0100
0000
1001
0000
,
0220
0000
0330
0000
0100
0001
0100
0001
,
0010
0100
1000
0001
0100
0010
1000
0001
,
0010
0001
1000
0010
1000
0000
0001
0000
,
0100
0000
0010
0000
1000
0100
0010
0100
,
1000
0001
0100
0010
0100
0001
0010
0100
,
1000
0001
0100
0010
1000
0001
0100
0000
,
0001
0000
1000
0000
0010
1000
0010
1000
,
0001
0010
0001
1000
0010
1000
0001
1000
,
0100
0010
0001
0100
0010
0100
0001
0000
,
0100
0000
0001
0000
0100
0001
0010
0001
,
1000
0010
1000
0001
0010
0100
1000
0001
,
0100
0010
0100
0001
1000
0000
1001
0000
,
0220
0330
1000
0010
,
1000
0001
0001
0100
,
0001
0010
0100
1000
0010
0100
0001
0100
,
0010
1000
0001
0010
0001
0000
1000
0000
,
0010
1000
1000
0001
,
1000
0100
0010
0100
1000
0001
0100
0010
,
0100
0001
0010
0100
1000
0000
1000
0000
,
0001
0100
0010
0010
,
0100
0001
0010
0001
0100
0010
0100
0001
,
0010
0001
1000
0010
1000
0000
0001
0000
,
0100
0010
0100
0001
,
2002
0000
0000
3003
0010
0000
0101
0000
,
2020
0000
0000
3030
1010
0000
0010
0000
,
0110
0100
0101
0001
,
0022
0000
0033
2002
,
3003
2200
0000
3300
,
0220
0000
0000
0000
,
0000
0000
0000
0000
,
0000
0000
0000
0000
,
0000
0000
0330
0000
;

//--------------- dance-single - Alex ----------------
#NOTES:
     dance-single:
     Alex:
     Challenge:
     13:
     0,0,0,0,0:
0000
0000
0000
0000
,
0000
0000
0000
0000
,
0000
0000
0000
0000
,
0000
0000
0000
0000
,
0000
0000
0000
0000
,
0000
0000
0000
0000
,
0011
0101
0110
1010
,
1100
0000
0000
0110
0000
0000
1001
0000
0001
0100
0000
0100
,
0010
0000
0010
1000
0000
1000
0100
0000
0100
0010
0000
0010
,
0001
0011
0101
0110
,
1010
0000
0000
1001
0000
0000
0110
0000
0010
0100
0000
0100
,
1000
0000
1000
0100
0000
0100
0001
0000
0001
0100
0000
0100
,
1000
1010
0011
0101
,
0110
0000
0000
1001
0000
0000
0110
0000
0010
1000
0000
1000
,
0010
0000
0010
0001
0000
0001
0010
0000
0010
0100
0000
0100
,
1000
1100
0011
0110
,
0101
0000
1010
0000
2002
0000
0000
3003
,
0101
0220
0000
0000
,
0330
0000
0000
0000
,
0000
0000
0000
0000
0001
0010
0100
1000
,
0010
0100
0001
0010
0100
0010
0001
0100
,
0010
1000
0100
0010
0100
1000
0001
0100
,
0010
0100
0001
0010
0100
0010
0001
0100
,
0010
0100
0001
0010
0001
1000
0010
1000
,
0001
0000
1000
0000
0010
0000
0100
0000
0001
0000
1000
0000
0100
1000
0100
1000
,
0100
0000
0000
1000
0000
0000
0100
0000
0000
1000
0000
0000
0200
0000
0000
0000
0000
0000
0000
0000
0000
0000
0300
0000
1000
0000
0000
0000
0000
0000
0010
0000
0000
0000
0000
0000
1000
0000
0000
0000
0000
0000
0001
0000
0000
0000
0000
0000
,
0010
0001
1000
0010
0100
0001
1000
0100
,
0010
0001
0100
0010
0100
0001
1001
0000
,
0011
0000
0101
0000
0110
0010
1000
0100
,
0010
0100
1000
0001
0100
0010
0100
0001
,
0010
0000
0000
0001
0000
0000
1000
0000
0000
0010
0000
0000
0100
0001
0100
0001
0100
0001
0200
0000
0000
0000
0000
0000
,
0000
0000
0300
0000
2002
0000
0000
3003
,
2000
3000
2020
0000
0000
3030
0200
0300
,
0220
0000
0000
0000
0000
0000
0000
0000
0000
0000
0000
0000
0330
0000
0000
0000
0000
0000
0010
0001
0000
0000
0000
0000
,
0001
0100
0000
0000
0000
0000
0100
0010
0000
0000
0000
0000
2020
0000
0000
0000
0000
0000
0000
0000
0000
3030
0000
0000
,
0200
0300
2002
0000
0000
3003
0020
0030
,
0202
0000
0000
0000
0000
0000
0000
0000
0000
0303
0000
0000
0020
0000
0000
0030
0000
0000
1000
0000
0000
0000
0010
0000
,
1000
0000
1000
0001
0000
0001
0022
0000
0000
0000
0033
0000
,
0200
0300
2002
0000
0000
3003
0020
0030
,
0220
0000
0330
2002
,
0000
3003
1001
1010
,
1100
0110
0011
0101
,
0220
0000
0000
0330
0011
0000
0101
0000
,
2002
0000
0000
3003
0001
0010
0100
1000
,
0010
0100
0001
0010
0001
1000
0010
1000
,
0001
0100
0001
1000
0100
0010
0100
1000
,
0001
0100
0010
0100
0001
0010
0001
1000
,
0010
1000
0001
0010
0001
0100
0010
1000
,
0100
0000
0010
0000
0001
0000
0100
0000
0010
0000
0100
0000
0001
0010
0001
0010
,
0001
0010
0001
0000
0001
0000
1000
0000
1010
0000
1000
0000
0001
0000
0100
0000
,
0110
0100
0001
1000
1100
1000
0001
0100
,
0101
0001
0010
0001
0101
0100
0010
1000
,
1001
0001
0100
0010
0110
0010
1000
0100
,
1100
1000
0001
0100
0110
0100
0001
0010
,
0011
0001
1000
0010
1010
0100
0001
1000
,
2002
3003
0011
0101
,
0110
1100
0110
1001
,
0001
0100
0002
0000
0000
0000
0000
0000
0000
0000
0003
0000
1001
0000
0000
0000
0000
0000
0220
0000
0000
0000
0000
0000
,
0000
0330
1010
1100
,
0101
0011
0101
1010
,
1000
0010
2000
0000
0000
0000
0000
0000
0000
0000
3000
0000
1010
0000
0000
0000
0000
0000
0202
0000
0000
0000
0000
0000
,
0000
0303
0011
1001
,
1010
0101
0110
1100
,
0010
0100
0020
0000
0000
0000
0000
0000
0000
0000
0030
0000
0011
0000
0000
0000
0000
0000
0202
0000
0000
0000
0000
0000
,
0000
0303
0101
0110
,
1010
1100
0110
0011
,
0001
1000
0002
0000
0000
0000
0000
0000
0000
0000
0003
0000
1001
0000
0000
0000
0000
0000
0220
0000
0000
0000
0000
0000
,
0000
0000
0000
0000
0330
0000
0000
0000
1000
0010
1000
0010
1000
0010
1000
0010
,
1000
0001
1000
0001
1000
0001
1000
0001
1000
0001
0100
0001
0100
0001
0100
0001
,
0100
0001
0100
0010
0100
0010
0100
0010
0100
0000
0000
0000
0110
0000
0000
0000
,
1001
0000
0000
0000
0110
0000
0000
0000
0010
1000
0010
1000
0010
1000
0010
1000
,
0100
1000
0100
1000
0100
1000
0100
1000
0001
1000
0001
1000
0001
1000
0001
0010
,
0001
0010
0001
0010
0001
0010
0001
0010
0001
0000
0000
0000
0011
0000
0000
0000
,
0101
0000
0000
0000
0110
0000
0000
0000
0010
0100
0010
0100
0010
0100
0010
1000
,
0010
1000
0010
1000
0010
1000
0001
1000
0001
1000
0001
0100
0001
0100
0001
0100
,
0001
0100
0010
0100
0010
1000
0010
1000
0010
0000
0000
0000
1000
0000
0000
0000
,
0001
0100
0101
0110
,
1010
1100
0011
0101
,
0220
0000
0000
0330
1001
0000
0011
0000
,
0202
0303
0011
0101
,
0110
1010
1100
0110
,
0011
0000
0001
0100
0000
0100
0010
0000
0010
1000
0000
1000
,
0001
0000
0001
0010
0000
0010
0001
0000
0000
1001
0000
0000
,
1010
1001
1100
0110
,
0011
0000
0001
1000
0000
1000
0010
0000
0010
0100
0000
0100
,
0001
0000
0001
0010
0000
0010
0001
0000
0000
1001
0000
0000
,
1010
1100
0110
0101
,
0110
0000
0010
1000
0000
1000
0100
0000
0100
0001
0000
0001
,
0100
0000
0100
1000
0000
1000
0010
0000
0000
1010
0000
0000
,
0110
0011
0101
1010
,
2200
0000
0000
3300
0011
0000
2002
0000
,
0000
3003
0101
0110
,
0101
0011
1001
1010
,
2200
0000
3300
0022
,
0000
0033
0220
0000
0000
0000
0330
0000
,
0001
1000
0002
2000
0000
0000
0000
0000
0000
0000
0000
0000
0000
0000
0000
0000
0000
0000
0000
0000
0000
0000
0000
0000
,
0000
0000
0000
0000
,
0000
0000
3003
0000
;
