#TITLE:What's Going On?;
#SUBTITLE:;
#ARTIST:Turtles;
#TITLETRANSLIT:;
#SUBTITLETRANSLIT:;
#ARTISTTRANSLIT:;
#GENRE:;
#CREDIT:;
#MUSIC:What's Going On.ogg;
#BANNER:What's Going On.png;
#BACKGROUND:What's Going On-BG.png;
#CDTITLE:;
#SAMPLESTART:11.121;
#SAMPLELENGTH:12.644;
#SELECTABLE:YES;
#OFFSET:-0.102;
#BPMS:0.000=130.000;
#STOPS:;
#BGCHANGES:;
#FGCHANGES:;

//--------------- dance-single - Alex ----------------
#NOTES:
     dance-single:
     Alex:
     Beginner:
     1:
     0,0,0,0,0:
0000
0000
0000
0000
,
0000
0000
0000
0000
,
0000
0000
0000
0000
,
0000
0000
0000
0000
,
0000
0000
0000
0000
,
0000
0000
0000
0000
,
0100
0000
0000
0000
,
0001
0000
0000
0000
,
0001
0000
0000
0000
,
1000
0000
0000
0000
,
0010
0000
0000
0000
,
1000
0000
0000
0000
,
0001
0000
0000
0000
,
0100
0000
0000
0000
,
1001
0000
0000
0000
,
0001
0000
0000
0000
,
1000
0000
0000
0000
,
0010
0000
0000
0000
,
0100
0000
0000
0000
,
0001
0000
0000
0000
,
1000
0000
0000
0000
,
1000
0000
0000
0000
,
0010
0000
0000
0000
,
0001
0000
0000
0000
,
1000
0000
0000
0000
,
0100
0000
0000
0000
,
0100
0000
0000
0000
,
0001
0000
0000
0000
,
0001
0000
0000
0000
,
1000
0000
0000
0000
,
0010
0000
0000
0000
,
0010
0000
0000
0000
,
0100
0000
0000
0000
,
0001
0000
0000
0000
,
0001
0000
0000
0000
,
1000
0000
0000
0000
,
1000
0000
0000
0000
,
0010
0000
0000
0000
,
1001
0000
0000
0000
,
1000
0000
0000
0000
,
0001
0000
0000
0000
,
0001
0000
0000
0000
,
0100
0000
0000
0000
,
0010
0000
0000
0000
,
0100
0000
0000
0000
,
0100
0000
0000
0000
,
0001
0000
0000
0000
,
0001
0000
0000
0000
,
0100
0000
0000
0000
,
0100
0000
0000
0000
,
0110
0000
0000
0000
;

//--------------- dance-single - Alex ----------------
#NOTES:
     dance-single:
     Alex:
     Easy:
     3:
     0,0,0,0,0:
0000
0000
0000
0000
,
0000
0000
0000
0000
,
0000
0000
0000
0000
,
0000
0000
0000
0000
,
0000
0000
0000
0000
,
0100
0100
0100
0000
,
1001
0000
0010
0000
,
1000
0000
0001
0000
,
0100
0000
0001
0000
,
1000
1000
1000
0000
,
0001
0000
0010
0000
,
0001
0000
0001
0000
,
0100
0000
0010
0010
,
0010
0000
1001
0000
,
1000
1000
2000
3000
,
0001
0001
0002
0003
,
0100
0000
0010
0000
,
0100
0000
0100
0000
,
0010
0010
0020
0030
,
1000
1000
2000
3000
,
0001
0000
1000
0000
,
0001
0000
0100
0000
,
0110
0000
0110
0000
,
0010
0010
0010
0000
,
1000
0000
0001
0000
,
1000
1000
1000
0000
,
0001
0000
0010
0000
,
0001
0001
0001
0000
,
0100
0000
0010
0000
,
1000
1000
1000
0000
,
1001
0000
0100
0000
,
0010
0000
0010
0000
,
1000
1000
1000
0000
,
0001
0001
0001
0000
,
1000
0000
0001
0000
,
0100
0000
0010
0000
,
0100
0000
0001
0000
,
1000
1000
1000
0000
,
1001
0000
1001
0000
,
0110
0000
0110
0000
,
0010
0010
0100
0100
,
0020
0000
0030
0000
,
1000
0000
0001
0000
,
0100
0000
0010
0000
,
1000
0000
0001
0000
,
0010
0010
0010
0000
,
0001
0000
0100
0000
,
0010
0000
1000
0000
,
0100
0000
1000
0000
,
0001
0001
0001
0000
,
2002
0000
0000
0000
,
3003
0000
0000
0000
;

//--------------- dance-single - Alex ----------------
#NOTES:
     dance-single:
     Alex:
     Medium:
     5:
     0,0,0,0,0:
0000
0000
0000
0000
,
0000
0000
0000
0000
,
0000
0000
0000
0000
,
2000
0000
3000
0000
,
0002
0000
0003
0000
,
1001
1001
1001
0000
,
0001
0001
0100
0100
,
0010
1000
0002
0003
,
0100
0100
0001
0001
,
1000
0010
2000
3000
,
0001
0010
0100
1000
,
0001
0100
0020
0030
,
1000
0001
0100
0001
,
1001
0000
0110
0000
,
0010
1000
0100
0000
,
1000
0010
1000
0000
,
0001
0100
0010
0010
,
0100
0001
1001
0000
,
0001
0010
0001
0000
,
1000
0010
1000
0000
,
0001
1000
0100
0010
,
0001
0100
0110
0000
,
0020
0030
0200
0300
,
0001
1000
0200
0300
,
1000
0001
0100
0001
,
1000
1000
0010
0000
,
0200
0300
0002
0003
,
0010
0010
0010
0000
,
0001
0001
1000
0010
,
0100
0000
1001
0000
,
0002
0003
2000
3000
,
0001
1000
0200
0300
,
1000
0010
0100
0001
,
1000
1000
0010
0000
,
0200
0300
0002
0003
,
1000
0001
0010
0000
,
0001
0001
0100
0100
,
0010
0000
1001
0000
,
1000
0100
1000
0000
,
0001
0100
0001
0000
,
1000
0001
0010
0001
,
0100
0000
0110
0000
,
0010
0010
1000
0001
,
0100
0001
2000
3000
,
0001
0010
0100
1000
,
0001
0100
0020
0030
,
1000
0010
1000
0001
,
1000
0100
0020
0030
,
0001
0100
0010
0100
,
0101
0000
0110
0000
,
2020
0000
3030
0000
,
1001
0000
0000
0000
;

//--------------- dance-single - Alex ----------------
#NOTES:
     dance-single:
     Alex:
     Hard:
     7:
     0,0,0,0,0:
0000
0000
0000
0000
,
0220
0000
0330
0000
,
2002
0000
3003
0000
,
0022
0000
0033
0000
,
2200
0000
3300
0000
,
1001
1001
1001
0000
,
0001
0000
0100
0000
0010
0100
0010
0000
,
1000
0100
0010
0001
1000
0000
0001
0100
,
0010
0000
0100
0000
0001
1000
0010
1000
,
0001
0000
1000
0000
0001
0000
0100
0010
,
0100
0001
1000
0100
,
1000
0010
1000
0010
1000
0000
0001
0000
,
0100
0000
0100
0000
0001
0010
0100
1000
,
0001
0000
0001
1000
0020
0000
0030
0000
,
0110
0101
0022
0033
,
1001
1010
2200
3300
,
1000
0010
1000
0010
1000
0001
1000
0010
,
1000
0001
0020
0030
,
0101
0101
2002
3003
,
1010
1100
2020
3030
,
0010
1000
0010
0100
0010
1000
0010
0100
,
0010
0000
1000
0001
0020
0000
0030
0000
,
0001
0100
1000
0100
,
0001
0100
0001
0100
0001
0000
1000
0010
,
1000
0000
0001
0000
1000
0100
0010
0001
,
0100
0110
0101
0000
,
0001
0000
1000
0000
0010
0000
1000
0001
,
0010
0001
1000
0010
1000
0000
0001
0100
,
0010
0000
0100
0000
0001
1000
0100
1000
,
0001
0000
0100
0010
0200
0000
0300
0000
,
0010
1000
0001
0010
,
0001
0100
0010
0100
0001
0000
1000
0100
,
0010
0000
0001
0000
1000
0010
1000
0010
,
1000
0001
2000
3000
,
0001
0000
0100
0000
0010
0000
1000
1000
,
0100
0100
1000
0010
1000
0001
0000
0100
,
0001
0000
0100
0000
0010
1000
0001
0010
,
0001
0000
0001
1000
0200
0000
0300
0000
,
1010
0101
0022
0033
,
0101
0110
2200
3300
,
1000
0001
0100
0001
1000
0010
1000
0001
,
0010
0001
2002
3003
,
0001
0100
1000
0100
,
0001
0010
0100
1000
0001
0000
0001
1000
,
0010
0000
1000
0000
0001
1000
0010
1000
,
0001
0000
0001
1000
0100
0000
1000
0000
,
0001
0010
0001
0100
,
0010
1000
0001
0001
0100
0000
0001
1000
,
0100
0000
1000
0000
0001
0100
0001
0100
,
0001
0000
0100
0010
0100
0000
0001
0000
,
1000
0001
1000
0001
,
2002
3003
2002
3003
,
2002
3003
0000
0000
;

//--------------- dance-single - Alex ----------------
#NOTES:
     dance-single:
     Alex:
     Challenge:
     9:
     0,0,0,0,0:
0000
0000
0000
0000
,
0012
0010
0010
0013
,
2010
0010
0010
3010
,
0102
0100
0100
0103
,
0210
0010
0010
0310
,
1001
1001
2002
3003
,
0001
0100
1000
0100
0001
0100
1000
0100
,
0001
0100
1000
0100
0001
0100
1000
0100
,
0001
0010
1000
0010
0001
0010
1000
0010
,
0001
0010
1000
0010
0001
0010
1000
0010
,
0001
0100
1000
0100
0001
0010
0100
1000
,
0010
1000
0100
0010
0001
0100
1000
0100
,
0101
0000
1010
0000
0010
1000
0001
0010
,
0011
0000
0000
0000
1100
0000
0000
0000
0011
0000
0001
0100
0001
0000
0100
0000
,
0010
0010
1000
1000
0100
0100
1100
1100
,
0100
1000
0010
0010
0100
0100
0101
0101
,
0001
0010
0100
1000
0001
0100
0010
1000
,
2200
3300
0022
0033
0101
0110
2020
3030
,
0010
0010
0100
0100
0001
1000
1001
1001
,
0001
0010
0001
1000
1000
0010
1010
1010
,
0010
1000
0100
1000
0010
1000
0001
0100
,
0110
0000
0100
0000
0001
0000
1000
0000
0100
0000
0010
0001
0010
0000
0001
0000
,
1002
0000
1003
0010
2000
0000
3001
0010
,
0100
1000
0001
0100
0020
0000
0130
0001
,
0002
0000
1003
0010
1000
0001
1000
0010
,
0200
0000
0302
0000
2003
0000
3001
0010
,
0200
0000
1300
0010
2000
0000
3001
1000
,
0010
1000
0001
0100
0002
0000
1003
0100
,
2000
0000
3020
0000
0130
0001
1000
0001
,
0101
0000
0110
0000
1010
0000
1001
0001
,
0200
0000
0310
1000
0001
0010
0001
0100
,
0010
0100
0001
1000
0200
0000
1300
0001
,
0200
0000
0301
0010
0100
1000
0001
0100
,
0101
0000
0110
0000
1010
0000
0010
1000
,
0200
0000
1300
0001
0200
0000
0301
0001
,
2000
0000
3010
0100
0001
0100
0000
0100
,
0101
0000
0011
0001
0100
0010
0100
0001
,
2000
0000
3002
0000
0203
0000
0310
1000
,
1001
0000
0001
0100
0010
1000
0100
0100
,
1000
0010
1000
0001
0100
0010
0100
0100
,
0001
0010
0100
1000
0001
0100
0010
0100
,
0101
0000
0000
0000
0001
0000
1000
0000
0010
0000
1000
0020
0000
0000
0030
0000
,
1001
0000
0001
0100
1000
0100
0001
0100
,
1000
0010
0001
0010
1000
0010
0001
0010
,
0100
1000
0100
0010
0001
1000
0010
0100
,
0001
0010
0001
1000
1001
0000
0001
0100
,
0110
0010
1000
0010
0001
0010
1000
0100
,
0001
0100
1000
0100
0001
0010
0100
1000
,
1001
0000
0101
0000
0001
0100
0010
0100
,
0101
0000
1001
0000
0001
1000
0010
1000
,
0200
0000
1300
0010
0100
0001
1000
0010
,
0220
0330
0220
0330
,
0220
0330
0000
0000
;
