#TITLE:We Got 2 Know;
#SUBTITLE:;
#ARTIST:MAX;
#TITLETRANSLIT:;
#SUBTITLETRANSLIT:;
#ARTISTTRANSLIT:;
#GENRE:;
#CREDIT:;
#MUSIC:We Got 2 Know.ogg;
#BANNER:We Got 2 Know.png;
#BACKGROUND:We Got 2 Know-BG.png;
#CDTITLE:;
#SAMPLESTART:75.166;
#SAMPLELENGTH:12.402;
#SELECTABLE:YES;
#OFFSET:-0.225;
#BPMS:0.000=128.000
,63.000=192.000
,63.750=64.000
,64.000=128.000
,76.000=256.000
,80.000=128.000
,95.000=192.000
,95.750=64.000
,96.000=128.000
,124.000=256.000
,128.000=128.000
,191.000=192.000
,191.750=64.000
,192.000=256.000
,208.000=128.000
;
#STOPS:76.000=0.165
,76.750=0.165
,77.500=0.165
,78.250=0.095
,78.750=0.165
,79.500=0.178
,124.000=0.165
,124.750=0.165
,125.500=0.056
,125.750=0.165
,126.500=0.165
,127.000=0.056
,127.250=0.056
,127.500=0.056
,127.750=0.056
,192.000=0.165
,192.750=0.165
,193.500=0.165
,194.250=0.056
,194.500=0.165
,195.000=0.056
,195.250=0.056
,195.500=0.056
,195.750=0.056
,196.000=0.165
,196.750=0.165
,197.500=0.165
,198.250=0.056
,198.500=0.165
,199.000=0.056
,199.250=0.056
,199.500=0.056
,199.750=0.056
,200.000=0.165
,200.750=0.165
,201.500=0.165
,202.250=0.056
,202.500=0.165
,203.000=0.056
,203.250=0.056
,203.500=0.056
,203.750=0.056
,204.000=0.165
,204.750=0.165
,205.500=0.165
,206.250=0.165
,206.750=0.056
,207.000=0.056
,207.250=0.056
,207.500=0.056
,207.750=0.056
;
#BGCHANGES:;
#FGCHANGES:;

//--------------- dance-single - Alex ----------------
#NOTES:
     dance-single:
     Alex:
     Beginner:
     1:
     0,0,0,0,0:
0000
0000
0000
0000
,
0000
0000
0000
0000
,
0000
0000
0000
0000
,
0000
0000
0000
0000
,
0100
0000
0000
0000
,
0001
0000
0000
0000
,
0010
0000
0000
0000
,
1001
0000
0000
0000
,
1000
0000
0000
0000
,
0001
0000
0000
0000
,
1000
0000
0000
0000
,
0100
0000
0000
0000
,
0100
0000
0000
0000
,
1000
0000
0000
0000
,
0001
0000
0000
0000
,
0010
0000
0000
0000
,
1001
0000
0000
0000
,
0010
0000
0000
0000
,
1000
0000
0000
0000
,
0100
0000
0000
0000
,
0100
0000
0000
0000
,
1000
0000
0000
0000
,
0010
0000
0000
0000
,
1000
0000
0000
0000
,
0110
0000
0000
0000
,
0001
0000
0000
0000
,
0001
0000
0000
0000
,
0100
0000
0000
0000
,
0001
0000
0000
0000
,
1000
0000
0000
0000
,
1000
0000
0000
0000
,
0010
0000
0000
0000
,
1001
0000
0000
0000
,
0001
0000
0000
0000
,
0001
0000
0000
0000
,
1000
0000
0000
0000
,
0100
0000
0000
0000
,
0100
0000
0000
0000
,
0010
0000
0000
0000
,
0001
0000
0000
0000
,
0110
0000
0000
0000
,
1000
0000
0000
0000
,
0001
0000
0000
0000
,
1000
0000
0000
0000
,
0010
0000
0000
0000
,
0010
0000
0000
0000
,
0100
0000
0000
0000
,
0100
0000
0000
0000
,
1001
0000
0000
0000
,
0110
0000
0000
0000
,
1001
0000
0000
0000
,
0001
0000
0000
0000
,
1000
0000
0000
0000
;

//--------------- dance-single - Alex ----------------
#NOTES:
     dance-single:
     Alex:
     Easy:
     3:
     0,0,0,0,0:
0000
0000
0000
0000
,
0000
0000
0000
0000
,
0000
0000
0000
0000
,
0000
0000
0000
0000
,
0001
0000
0001
0000
,
1000
0000
1000
0000
,
0010
0000
0010
0000
,
2000
0000
3000
0000
,
1001
0000
0001
0000
,
1000
0000
0001
0000
,
0100
0000
0100
0000
,
0020
0000
0030
0000
,
1000
0000
0001
0000
,
0001
0000
1000
0000
,
0010
0000
0010
0000
,
0200
0000
0300
0000
,
1001
0000
0001
0000
,
1000
0010
1000
0000
,
0100
0000
0100
0000
,
0020
0000
0030
0000
,
1000
0000
1000
0000
,
0001
1000
0001
0000
,
0001
0000
0100
0000
,
0200
0000
0300
0000
,
1000
0010
1000
0000
,
0001
0010
0001
0000
,
0001
1000
0010
0000
,
2002
0000
3003
0000
,
0010
0001
0010
0000
,
0001
0100
0001
0000
,
0010
0100
0010
0000
,
2020
0000
3030
0000
,
1000
0000
1000
0000
,
0001
0001
0001
0000
,
1000
0000
0010
0000
,
0200
0000
0300
0000
,
0001
0000
0010
0000
,
0001
1000
0001
0000
,
1000
0000
0010
0000
,
2000
0000
3000
0000
,
1001
0000
0001
0000
,
1000
0000
1000
0000
,
0010
0000
0100
0000
,
0020
0000
0030
0000
,
1000
0000
0001
0000
,
1000
0000
0001
0000
,
0010
0000
0001
0000
,
0200
0000
0300
0000
,
1001
0000
0000
0001
,
0101
0000
0000
0100
,
0110
0000
0000
0010
,
1001
0000
0000
0000
,
1001
0000
0000
0000
;

//--------------- dance-single - Alex ----------------
#NOTES:
     dance-single:
     Alex:
     Medium:
     5:
     0,0,0,0,0:
0000
0000
0000
0000
,
0000
0000
0000
0000
,
0000
0000
0000
0000
,
0220
0000
0330
0000
,
0100
0001
0100
0001
,
1000
0010
1000
0010
,
1000
0001
0010
0100
,
2002
0000
3003
0000
,
1001
0001
0100
0010
,
0100
0000
0100
0000
0001
1000
0001
0000
,
1000
0010
1000
0001
,
0010
0001
0010
0000
0100
1000
0100
0000
,
1001
0001
0100
0010
,
0100
0000
0001
0000
1000
0100
1000
0000
,
0001
0100
0010
0100
,
2002
0000
3003
0000
,
0001
0001
1000
1000
,
0010
0100
0010
0110
,
0100
0100
0001
1000
,
2020
0000
3030
0000
,
1000
1000
0001
0001
,
0100
0010
0100
0101
,
0001
1000
0010
0100
,
2002
0000
3003
0000
,
0001
0000
0001
0000
1000
0100
1000
0000
,
0001
0000
0100
0000
0010
0100
0010
0000
,
0100
0000
0001
0000
1000
0001
1000
0000
,
1001
0000
1001
0000
,
0001
0000
0100
0000
0001
0100
0001
0000
,
1000
0000
1000
0000
0010
1000
0010
0000
,
1000
0000
0001
0000
0010
0001
0010
0000
,
0001
0000
0000
1000
0000
0000
0002
0000
0000
0000
0000
0000
0003
0000
0000
0000
,
1000
0001
1000
1000
,
0001
0100
0010
0110
,
0010
1000
0100
1000
,
1010
0101
2020
3030
,
0001
0001
0100
0001
,
1000
0001
0010
0011
,
0001
0001
0100
0010
,
2002
0000
3003
0000
,
0001
0001
1000
1000
,
0010
0000
0100
0000
0001
0100
0001
0000
,
1000
0100
0010
0100
,
1000
0010
1000
0000
0001
0100
0001
0000
,
1000
1000
0001
0010
,
0001
0000
0100
0000
0010
0100
0010
0000
,
0100
0001
1000
0100
,
2002
0000
3003
0000
,
0001
0000
0000
1000
0000
0000
0020
0000
0000
0000
0030
0000
0100
0000
0000
0000
,
0001
0000
0000
1000
0000
0000
0002
0000
0000
0000
0003
0000
1000
0000
0000
0000
,
0001
0000
0000
0001
0000
0000
2000
0000
0000
0000
3000
0000
0100
0000
0000
0000
,
1000
0000
0000
0010
0000
0000
2000
0000
0000
0000
3000
0000
0001
0000
0000
0000
,
1001
0000
0000
0000
;

//--------------- dance-single - Alex ----------------
#NOTES:
     dance-single:
     Alex:
     Hard:
     9:
     0,0,0,0,0:
0000
0000
0000
0000
,
0000
0000
0000
0000
,
0000
0000
0000
0000
,
2002
0000
0000
3003
,
1000
0001
0000
0001
1000
0000
0001
0000
0100
0000
0010
0000
0100
0000
0001
0000
,
1000
0100
0000
0100
1000
0000
0010
0000
0010
0000
1000
0000
0001
0000
0010
0000
,
0001
0100
0000
0100
0001
0000
0100
0000
0010
0000
0100
0000
0001
0000
1000
0000
,
2002
0000
0000
3003
,
0001
0100
0101
0000
0100
0010
0110
0000
,
0010
1000
0001
0010
0100
1000
0020
0030
,
1000
0000
0001
0000
0100
0000
0010
0100
0000
0100
0010
0000
1000
0000
0001
0000
,
0010
0000
0001
0000
0100
0000
0001
0100
0000
0000
0001
0000
1001
0000
0000
0000
,
0001
0000
1000
0000
0010
0000
1000
0001
0000
0001
1000
0000
0001
0000
0000
0000
,
0100
0010
0100
0001
0010
0100
2000
3000
,
0001
0000
0100
0000
0010
0000
0100
0001
0000
0001
0100
0000
0001
0000
1000
0000
,
2020
0000
3030
1001
,
0001
0100
0010
0100
0001
0010
0200
0300
,
1000
0010
1000
0001
1000
0010
0100
0001
,
0020
0030
0001
0001
0100
0010
0100
0001
,
1000
0000
0000
0001
0000
0000
1000
0000
0000
0010
0000
0010
0000
0000
1001
0000
,
0001
0100
1000
0100
0001
1000
0020
0030
,
1000
0001
0010
0001
0100
0010
0200
0300
,
0001
0010
0100
0010
0001
0100
0010
0100
,
2002
0000
0000
3003
,
0001
0000
0100
0000
0001
0000
0100
0001
0100
0001
0100
0000
0101
0000
0000
0000
,
0001
0000
1000
0000
0010
0000
1000
0010
1000
0010
1000
0000
1010
0000
0000
0000
,
1000
0000
0001
0000
0100
0000
0010
0100
0010
0100
0010
0000
0110
0000
0000
0000
,
0002
1000
0010
0103
,
0001
0000
1000
0000
0010
0000
1000
0010
1000
0010
1000
0000
1010
0000
0000
0000
,
0010
0000
1000
0000
0001
0000
0100
0001
0100
0001
0100
0000
0101
0000
0000
0000
,
0001
0000
1000
0000
0010
0000
0100
0010
0100
0010
0100
0000
0001
0000
1000
0000
,
2002
0000
0000
0000
0000
0000
0000
0000
3003
0000
0000
0000
1000
0001
1000
0001
,
1000
0010
1000
0001
0010
0100
2000
3000
,
0001
0100
0010
0100
0001
1000
0010
0100
,
0002
0003
0100
1000
0100
0010
0100
1000
,
0010
0000
1000
0000
0001
0000
0100
0001
0000
0001
0100
0000
0020
0000
0030
0000
,
1000
0001
0100
0001
1000
0001
0020
0030
,
0001
0100
0010
0100
0001
1000
0100
1000
,
0002
0003
1000
1000
0001
0100
0010
0100
,
2002
0000
0000
3003
,
0001
0000
1000
0000
0010
0000
1000
0010
1000
0000
0001
0000
0100
0000
0010
0100
,
0001
0000
1000
0000
0100
0000
0010
0001
0100
0000
0001
0000
0010
0000
0100
0000
,
1000
0000
0001
0000
1000
0000
0010
1000
0001
0000
1000
0000
0001
0000
0100
0001
,
0100
0000
0010
0000
1000
0000
0001
1000
0000
1000
0001
0000
1001
0000
0000
0000
,
0001
0000
0100
0000
0010
0000
0100
0001
0100
0000
0001
0000
0001
0000
1000
0100
,
1000
0000
0010
0000
1000
0000
0001
0010
0001
0000
0100
0000
0010
0000
0100
0000
,
0001
0000
0010
0000
0100
0000
1000
0001
0100
0000
0010
0000
1000
0000
0001
0000
,
2002
0000
0000
3003
,
0001
0000
0000
1000
0000
0000
1001
0000
0000
0001
0100
0000
0001
0000
0100
0000
,
0010
0000
0000
1000
0000
0000
1100
0000
0000
0100
1000
0000
0001
0000
0100
0000
,
0100
0000
0000
0001
0000
0000
1001
0000
0000
0001
1000
0000
0001
0000
0010
0000
,
0001
0000
0000
0001
0000
0000
1000
0000
0000
1000
0000
0000
0001
1000
0001
1000
,
0001
0200
0000
0000
0000
0000
0300
0000
;

//--------------- dance-single - Alex ----------------
#NOTES:
     dance-single:
     Alex:
     Challenge:
     11:
     0,0,0,0,0:
0000
0000
0000
0000
,
0000
0000
0000
0000
,
0000
0000
0000
0000
,
2000
3002
0023
0230
2300
3020
0230
0300
,
0001
0100
0000
0100
0001
0000
0001
1000
0000
1000
0010
0000
1000
0010
0100
0001
,
0010
0001
0000
0001
0100
0000
0100
0010
0000
0010
0100
0000
0001
1000
0100
1000
,
0001
1000
0000
1000
0001
0000
0001
0100
0000
0100
0010
0000
0010
1000
0001
0100
,
0220
0000
0000
0330
,
0100
0001
0100
0000
0001
0000
1001
0000
1000
0010
1000
0000
0010
0000
1010
0000
,
1000
0000
0001
0100
0000
0100
0001
0000
1000
0000
0001
0000
0020
0000
0030
0000
,
0001
0000
0100
0000
0101
0000
0001
0100
0000
0100
0010
0000
0100
0000
0001
0000
,
0010
0100
1000
0000
0001
1000
0010
0100
0000
0100
0001
0000
0202
0000
0303
0000
,
0001
0000
1000
0000
1010
0000
1000
0001
0000
0001
0100
0000
0101
0000
0001
0000
,
1000
0010
0100
0000
0001
0000
0010
0001
0000
0001
0010
0000
0001
0000
0101
0000
,
0100
0010
0100
0000
0001
0010
0100
1000
0000
1000
0001
0000
1000
0000
1001
0000
,
0002
0003
0200
0300
0020
0030
1000
0020
0000
0000
0000
0030
1001
0000
0000
0000
,
0001
0100
0010
0100
0001
0010
0100
1000
0001
1000
0010
1000
0001
0000
0100
0010
,
0100
0001
0010
0001
1000
0010
1000
0001
1000
0100
0010
0001
0100
0010
0100
0000
,
0001
1000
0001
0010
0001
0100
0010
0100
0001
0010
0100
1000
0010
0100
0001
1000
,
1001
0000
0000
0110
0000
0000
1001
0000
0000
0011
0000
1100
0000
0000
0110
0000
,
0001
0100
0010
0100
0001
0010
0100
1000
0001
1000
0010
1000
0001
0000
1000
0000
,
0001
1000
0100
1000
0010
1000
0100
0010
0100
1000
0001
0100
0010
0000
0100
0000
,
1001
0000
0110
0000
0010
0100
0001
0100
0010
0100
0001
0010
0100
1000
0001
1000
,
0002
0003
0020
0030
0002
0003
0200
0320
0030
0020
0230
0300
2002
0000
0000
3003
,
0100
0010
0100
0001
0010
0100
1000
0001
1000
0001
1000
0100
0010
0000
1001
0000
,
0001
0100
0010
0100
0001
0010
0100
1000
0010
1000
0100
0010
0001
0000
0101
0000
,
0001
0100
0010
0100
0001
0010
0001
1000
0010
1000
0001
1000
0010
0000
1001
0000
,
0002
0003
2000
3000
0020
0030
0200
0302
0003
0002
2003
3000
1001
0000
0000
0000
,
0001
0100
0010
0100
0001
1000
0001
0100
0010
0100
0001
1000
0010
0000
0110
0000
,
0010
1000
0100
0010
0100
1000
0001
0100
0001
1000
0010
0100
0001
0000
1001
0000
,
0001
0100
0010
0100
0001
0010
0100
1000
0001
1000
0010
0100
0001
0000
1000
0000
,
1001
0000
0000
0110
0000
0000
0001
0200
0000
0000
0310
0000
1000
0001
1000
0001
,
1000
0001
0100
0010
0100
0001
0010
0001
1000
0010
1000
0001
0100
0000
0001
0000
,
1000
0100
0010
0001
0100
0010
0100
0001
0010
0100
1000
0001
0100
0000
0010
0000
,
0100
0001
0100
0001
0010
0001
1000
0010
1000
0001
1000
0100
0010
0000
0001
0000
,
0200
0300
0002
0003
2000
3000
0020
2030
3000
2000
3002
0003
1001
0000
0000
0000
,
0001
0010
0001
0100
0010
0100
0001
0010
0100
0010
0001
0100
0010
0000
0100
0000
,
0001
0010
0100
1000
0001
1000
0010
1000
0001
1000
0100
0010
0001
0000
0100
0000
,
0010
1000
0001
0010
0100
1000
0010
0100
0001
0100
0010
0100
0001
1000
0010
1000
,
2002
0000
0000
3003
,
0001
1000
0001
0100
0010
0100
0001
0010
0100
1000
0001
1000
0010
1000
0001
0010
,
0001
0100
0010
0100
0001
0010
0100
0010
0001
0100
0010
0100
0001
0010
0100
1000
,
0001
1000
0010
1000
0001
1000
0100
0010
0100
1000
0001
0100
0001
0010
0100
0010
,
0001
0100
0010
0100
0001
0010
0100
1000
0001
1000
0010
1000
0001
1000
0001
0100
,
0001
0100
0001
1000
0010
1000
0001
0010
0100
1000
0010
0100
0001
0100
0010
0100
,
0001
0010
0001
1000
0010
1000
0001
1000
0100
0010
0001
0100
0001
1000
0010
0100
,
0001
0100
0001
0010
0001
1000
0010
1000
0100
0010
0001
1000
0010
0100
0001
1000
,
0002
0003
2000
3000
0020
0030
0200
0302
0000
0000
0000
0003
1001
0000
0000
0000
,
0011
0000
0000
0101
0000
0000
0110
0000
0000
0010
1000
0000
0001
1000
0001
1000
,
1001
0000
0000
0110
0000
0000
1001
0000
0000
0001
1000
0000
0001
1000
0100
1000
,
1001
0000
0000
0011
0000
0000
0101
0000
0000
0100
0010
0000
0100
0001
0010
0100
,
1100
0000
0000
0011
0000
0000
1100
0000
0000
0101
0000
0100
0010
0100
0010
0100
,
0010
2002
0000
0000
0000
0000
3003
0000
;
