#TITLE:Vook;
#SUBTITLE:;
#ARTIST:Banya;
#TITLETRANSLIT:;
#SUBTITLETRANSLIT:;
#ARTISTTRANSLIT:;
#GENRE:;
#CREDIT:;
#MUSIC:Vook.ogg;
#BANNER:Vook.png;
#BACKGROUND:Vook-BG.png;
#CDTITLE:;
#SAMPLESTART:31.384;
#SAMPLELENGTH:10.238;
#SELECTABLE:YES;
#OFFSET:-0.120;
#BPMS:0.000=184.000;
#STOPS:;
#BGCHANGES:;
#FGCHANGES:;

//--------------- dance-single - Alex ----------------
#NOTES:
     dance-single:
     Alex:
     Beginner:
     1:
     0,0,0,0,0:
0000
0000
0000
0000
,
0000
0000
0000
0000
,
0000
0000
0000
0000
,
0000
0000
0000
0000
,
1001
0000
0000
0000
,
0000
0000
0000
0000
,
1001
0000
0000
0000
,
0000
0000
0000
0000
,
0010
0000
0000
0000
,
1000
0000
0000
0000
,
0001
0000
0000
0000
,
0001
0000
0000
0000
,
1000
0000
0000
0000
,
0100
0000
0000
0000
,
1000
0000
0000
0000
,
1000
0000
0000
0000
,
0001
0000
0000
0000
,
0010
0000
0000
0000
,
0001
0000
0000
0000
,
0100
0000
0000
0000
,
0010
0000
0000
0000
,
0010
0000
0000
0000
,
1000
0000
0000
0000
,
0001
0000
0000
0000
,
1001
0000
0000
0000
,
0010
0000
0000
0000
,
0100
0000
0000
0000
,
0100
0000
0000
0000
,
0001
0000
0000
0000
,
0001
0000
0000
0000
,
1000
0000
0000
0000
,
0010
0000
0000
0000
,
0110
0000
0000
0000
,
0000
0000
0000
0000
,
0110
0000
0000
0000
,
0000
0000
0000
0000
,
1001
0000
0000
0000
,
0100
0000
0000
0000
,
0010
0010
0000
0000
,
0100
0000
0000
0000
,
0001
0000
0000
0000
,
0001
0000
0000
0000
,
1000
0000
0000
0000
,
1000
0000
0000
0000
,
0010
0000
0000
0000
,
1000
0000
0000
0000
,
1000
0000
0000
0000
,
0001
0000
0000
0000
,
1001
0000
0000
0000
,
0100
0000
0000
0000
,
0001
0000
0000
0000
,
0001
0000
0000
0000
,
1000
0000
0000
0000
,
0001
0000
0000
0000
,
1000
0000
0000
0000
,
0010
0000
0000
0000
,
0110
0000
0000
0000
,
1000
0000
0000
0000
,
0100
0000
0000
0000
,
0001
0000
0000
0000
,
0010
0000
0000
0000
,
0001
0000
0000
0000
,
1000
0000
0000
0000
,
0010
0000
0000
0000
,
1001
0000
0000
0000
,
1000
0000
0000
0000
,
0001
0000
0000
0000
,
1000
0000
0000
0000
,
0100
0000
0000
0000
,
0100
0000
0000
0000
,
0010
0000
0000
0000
,
0001
0000
1000
0000
,
0001
0000
0000
0000
;

//--------------- dance-single - Alex ----------------
#NOTES:
     dance-single:
     Alex:
     Easy:
     3:
     0,0,0,0,0:
0000
0000
0000
0000
,
0000
0000
0000
0000
,
0000
0000
0000
0000
,
0000
0000
0000
0000
,
1001
0000
0000
0000
,
0010
0000
0000
0000
,
1001
0000
0000
0000
,
0100
0000
0000
0000
,
0001
0000
1000
0000
,
0001
0000
1000
0001
,
1000
0000
0001
0000
,
0100
0000
0010
0100
,
0010
0000
0100
0000
,
0001
0000
1000
0100
,
1000
0000
0001
0000
,
1000
0001
1000
0000
,
1001
0000
0001
0000
,
1000
0000
0001
0010
,
0001
0000
1000
0000
,
0010
0000
1000
0010
,
1000
0000
0001
0000
,
1000
0000
0100
0010
,
0100
0000
1000
0000
,
0001
0000
1000
0000
,
1001
0000
1001
0000
,
2002
0000
3003
0000
,
0001
0001
1000
1000
,
0001
1000
0001
0000
,
2002
0000
0000
3003
,
1001
0000
0000
0000
,
0220
0000
0000
0330
,
0110
0000
0110
0000
,
0100
0000
0100
0000
,
0001
0000
0001
0000
,
1000
0000
1000
0000
,
0010
0000
1000
0000
,
2002
0000
0000
3003
,
1001
0000
0000
0000
,
0110
0110
0000
0000
,
1001
0000
1001
0000
,
0001
1000
0001
0000
,
1000
0000
0001
0000
,
1000
0100
1000
0000
,
0001
0000
0010
0000
,
0001
0010
0001
0000
,
1000
0000
0001
0000
,
1000
0100
1000
0000
,
1001
0000
2002
3003
,
0110
0000
0010
0000
,
0100
0000
0001
0010
,
0001
0000
1000
0000
,
0100
0000
1000
0100
,
1000
0000
0001
0000
,
1000
0000
0001
0100
,
0001
0000
0100
0000
,
0010
0000
0220
0330
,
0110
0000
0100
0000
,
0001
0000
1000
0100
,
1000
0000
0001
0000
,
0010
0000
0001
0100
,
0001
0000
0100
0000
,
0010
0000
1000
0010
,
1000
0000
0001
0000
,
0100
0000
0010
0000
,
0110
0000
0110
0000
,
0220
0000
0000
0330
,
0100
0100
0010
0010
,
1000
0001
1000
0000
,
2002
0000
0000
3003
,
1001
0000
0000
0000
,
0220
0000
0000
0330
,
0110
0000
0110
0000
,
0110
0000
0000
0000
,
1001
0000
0000
0000
;

//--------------- dance-single - Alex ----------------
#NOTES:
     dance-single:
     Alex:
     Medium:
     6:
     0,0,0,0,0:
0000
0000
0000
0000
,
0000
0000
0000
0000
,
0000
0000
0000
0000
,
0000
0000
0000
0000
,
1001
0000
0000
0000
0000
0000
1000
0001
,
0000
0000
0000
0000
,
1001
0000
0000
0000
0000
0000
0001
1000
,
0000
0000
0000
0000
,
0001
1000
0100
1000
,
0001
0001
0100
0100
,
0001
0010
0100
1000
,
0010
0010
1000
1000
,
0001
0010
0001
0100
,
0010
0010
0100
0100
,
0001
0010
0100
1000
,
0001
0100
0220
0330
,
0010
0010
1000
1000
,
0001
0010
0001
0001
,
0100
0001
1000
0100
,
1000
1000
0010
0010
,
1000
0001
0010
0001
,
1000
0010
1000
1000
,
0001
0100
0010
0100
,
0001
1000
2002
3003
,
0001
1000
0100
1000
,
0001
0200
0000
0000
0001
0000
0301
0000
,
0001
0010
0100
1000
,
0010
0100
0001
0000
,
1000
0100
1000
0000
0001
0100
0001
0000
,
2001
0000
0001
3001
,
0001
1000
0010
0000
1000
0001
0010
0000
,
0001
1000
0010
0100
,
2002
3003
2020
3030
,
2200
3300
0022
0033
,
0202
0303
0220
0330
,
2020
3030
0202
0303
,
2002
0000
0000
0000
0000
3003
0000
0000
,
1001
0000
1001
0000
,
1001
0000
2002
0000
0000
0000
0000
3003
,
1000
1000
0001
0001
,
1000
0100
1000
0000
0001
0000
0100
0000
,
0010
0100
0010
0000
0100
0000
0001
0000
,
0010
0001
0010
0000
0001
0000
1000
0000
,
0100
1000
0100
0000
1000
0000
0001
0000
,
1000
0010
1000
0000
0001
0000
0010
0000
,
0001
0010
0001
0000
0100
0000
0001
0000
,
1000
0100
1000
0000
0001
0000
0100
0000
,
0010
0100
0010
0000
2002
0000
3003
0000
,
0001
1000
0100
1000
,
0001
0001
0100
0100
,
0001
0010
0100
0010
,
0001
1000
0010
0010
,
1000
0001
1000
0100
,
1000
1000
0001
0001
,
0100
0010
0100
0001
,
0010
0001
0022
0033
,
0001
0001
0100
0100
,
0010
1000
0001
1000
,
0100
1000
1000
1000
,
0001
0100
0010
0100
,
0001
0010
0100
1000
,
0001
0001
0100
0100
,
0010
1000
1000
0001
,
0100
0010
0220
0330
,
0010
0100
0001
1000
,
0100
2000
0000
0000
0010
0000
3010
0000
,
1000
0001
0010
0001
,
1000
0010
1000
0000
,
0001
0100
0001
0000
1000
0100
1000
0000
,
1002
0000
1000
1003
,
0001
1000
0010
0000
0100
0001
1000
0000
,
0100
0010
0001
0100
,
0010
0010
0000
0000
,
1001
0000
0000
0000
;

//--------------- dance-single - Alex ----------------
#NOTES:
     dance-single:
     Alex:
     Hard:
     9:
     0,0,0,0,0:
0000
0000
0000
0000
,
0000
0000
0000
0000
,
0000
0000
0000
0000
,
0000
0000
0000
0000
,
1001
0000
0000
0000
0000
0000
1000
0001
,
0000
0000
0000
0000
,
0110
0000
0000
0000
0000
0000
0100
0010
,
0000
0000
0000
0000
,
1000
0000
0010
1000
0010
0000
1000
0000
,
0001
0100
0010
0100
0001
1000
0010
0100
,
0001
0000
1000
0100
0010
0000
0001
0000
,
1000
0100
1000
0100
1000
0001
0010
0001
,
0100
0000
0010
0100
0010
0000
0100
0000
,
0001
0010
0100
1000
0001
0010
0001
1000
,
0010
0000
1000
0001
1000
0000
0001
0000
,
0100
0010
0100
0001
0010
0100
1000
0001
,
1001
0000
0001
1000
0010
0000
0100
0000
,
0001
1000
0100
1000
0001
1000
0001
0100
,
0010
0000
0100
0001
0010
0000
0001
0000
,
1000
0010
1000
0010
1000
0001
0001
0010
,
0001
0000
0100
0010
0100
0000
0100
0000
,
0001
0010
0100
1000
0001
0010
0001
1000
,
0010
0000
0010
1000
0001
0000
0100
0000
,
0010
1000
0001
1000
2002
0000
3003
0000
,
0001
1000
0100
0010
0001
1000
0100
0010
,
0001
0200
0000
0000
0010
0000
0310
0000
,
0010
1000
0100
1000
0010
1000
0100
0010
,
0100
1000
0001
0100
0010
0100
0000
0000
,
0001
1000
0100
0010
0001
1000
0010
0100
,
0001
0010
0000
0000
0000
0000
0000
0000
,
0001
1000
0010
1000
0001
0010
0001
1000
,
0010
1000
0001
0100
,
2002
3003
0220
0330
,
2200
3300
0022
0033
,
0202
0303
2020
3030
,
2002
3003
0220
0330
,
1000
0001
0010
0001
1000
0010
0100
0001
,
2002
0000
3003
0000
,
0110
0000
0220
0000
0000
0000
0000
0330
,
1001
0000
1001
0000
,
0001
1000
0010
0000
1000
0001
0010
0000
,
0001
1000
0100
0000
0010
0001
0100
0010
,
0100
0001
1000
0000
0001
0100
0001
0000
,
1000
0010
1000
0000
0001
0010
0100
0010
,
0001
0100
0010
0000
0100
0001
0100
0000
,
0001
0010
0001
0000
1000
0100
0010
0001
,
1000
1000
0100
0000
0001
0100
0001
0000
,
0010
0001
0100
1000
0100
0001
1000
0001
,
1001
0000
0001
0010
0001
0000
0100
0000
,
0010
1000
0001
0010
0100
1000
0001
1000
,
0010
0000
0010
1000
0100
0000
0010
0000
,
0001
0100
0001
1000
0010
1000
0001
0010
,
0001
0000
1000
0100
1000
0000
0001
0000
,
0100
0010
0100
0001
0010
0001
1000
0100
,
0010
0000
0001
1000
0010
0000
0100
0000
,
0001
0010
0100
1000
0010
0100
0001
0010
,
0011
0000
0001
0100
0001
0000
0100
0000
,
0010
0010
1000
0100
0010
0100
1000
0001
,
1000
0000
0001
1000
0001
0000
1000
0000
,
0010
0010
1000
0001
0010
0100
1000
0001
,
0100
0000
0001
0100
0010
0000
0100
0000
,
0001
0010
0001
1000
1000
0001
1000
0100
,
1000
0000
0001
0100
0001
0000
1000
0000
,
0010
0100
0001
1000
2002
0000
3003
0000
,
0001
1000
0100
1000
0001
1000
0010
0100
,
0001
0020
0000
0000
0100
0000
0130
0000
,
1000
0001
0010
0001
1000
0100
0010
0001
,
1000
0010
0100
0001
0010
0001
0000
0000
,
1000
0010
0100
0001
0010
0100
1000
0001
,
1000
2002
0000
0000
0000
3003
0000
0000
,
0001
1000
0100
1000
0001
0100
0001
0010
,
0100
1000
0001
0100
,
0010
0000
0100
0000
0000
0000
0000
1001
,
2002
0000
3003
0000
;

//--------------- dance-single - Alex ----------------
#NOTES:
     dance-single:
     Alex:
     Challenge:
     12:
     0,0,0,0,0:
0000
0000
0000
0000
,
0000
0000
0000
0000
,
0000
0000
0000
0000
,
0000
0000
0000
0000
,
1001
0000
0000
0000
0000
0000
1000
0001
,
0000
0000
0000
0000
0000
0000
0000
0000
1000
0001
1000
0001
1000
0001
1000
0001
,
1001
0000
0000
0000
0000
0000
0001
1000
,
0001
1000
0010
0200
0000
0300
0001
0010
0001
2000
0000
3000
,
0001
1000
0100
1000
0001
0100
0010
0100
,
0001
0000
1000
0001
1000
0000
0001
0000
0100
0000
0001
0010
0001
0000
0100
0000
,
0010
0100
0001
0010
0100
1000
0001
1000
,
0010
0000
1000
0010
1000
0000
0001
0000
1000
0000
0100
1000
0100
0000
1000
0000
,
0001
0100
0010
0100
0001
0010
0001
1000
,
0001
0000
0010
0001
0010
0000
0001
0000
0100
0000
0001
0100
0001
0000
0100
0000
,
0010
0000
0100
0000
0001
0000
0010
0000
0100
0000
1000
0000
0001
0000
1000
0001
,
1000
0000
0001
0000
0100
0000
0010
0000
0100
0010
0100
0010
0100
0000
0010
0100
,
0001
1000
0100
0010
0001
1000
0010
1000
,
0001
0000
0010
0001
0010
0000
0001
0000
0100
0000
0001
0100
0001
0000
0100
0000
,
0010
1000
0100
0010
0100
1000
0001
1000
,
0010
0000
1000
0010
1000
0000
0001
0000
1000
0000
0001
1000
0001
0000
1000
0000
,
0001
0100
0001
0010
0100
0010
0001
0100
,
0010
0000
0100
0001
0100
0000
0001
0000
1000
0000
0100
1000
0100
0000
1000
0000
,
1000
0010
1000
0001
0100
0010
1000
0001
,
0010
0000
0001
1000
0001
0000
1000
0000
0010
0000
0100
0010
0200
0000
0300
0000
,
0001
1000
0001
0100
0001
1000
0001
0100
0001
0010
0001
1000
0001
0100
0001
0100
,
0010
0020
0000
0000
0100
0000
0130
0000
,
0001
1000
0001
0100
0010
0100
0001
0100
0001
1000
0001
1000
0100
1000
0100
1000
,
0010
1000
0010
1000
0001
0010
0001
1000
0010
0000
0200
0000
0000
0000
0300
0000
,
0001
0010
0100
1000
0001
0010
0001
1000
0010
1000
0001
1000
0001
0100
0010
1000
,
0001
2000
0000
0000
0010
0000
3010
0000
,
0010
1000
0001
0100
0001
1000
0100
1000
0001
0100
0001
0010
0100
0010
0001
0100
,
0010
1000
0001
2000
0000
3000
0001
1000
0100
2000
0000
3000
,
0001
1000
0001
0000
0100
0000
0010
0000
0100
0001
0100
0000
0001
0000
0010
0000
,
0100
1000
0010
0000
1000
0000
0001
0000
1000
0010
1000
0000
0001
0000
0010
0000
,
0001
0100
0001
0000
0100
0000
0010
0000
0100
0001
0100
0000
0001
0000
1000
0000
,
0001
0100
0001
0000
1000
0000
0010
0000
1000
0010
1000
0000
0001
0000
1000
0000
,
0100
1000
0100
1000
0100
0000
1000
0000
0001
0000
0100
0000
0010
0000
1000
0000
,
2002
0000
0010
3013
,
1001
2002
0000
3003
,
0001
0000
0010
0000
0100
0000
1000
0000
0001
0010
0100
1000
0002
0000
0003
0000
,
1000
0100
0010
0001
1000
0000
0010
0000
1000
0001
0010
0001
1000
0000
0001
0000
,
0100
0001
0010
0001
0100
0000
0010
0000
1000
0100
0010
0100
1000
0000
0001
0000
,
1000
0010
1000
0010
1000
0000
0001
0000
0010
0001
0010
0001
0010
0000
0001
0000
,
0100
0010
0100
0001
0010
0000
0001
0000
1000
0100
0010
0001
1000
0000
0010
0000
,
0100
0001
0010
0001
0100
0000
0001
0000
1000
0001
1000
0100
1000
0000
0010
0000
,
0010
1000
0001
0100
0010
0000
0100
0000
0001
0010
0100
1000
0001
0000
1000
0000
,
0001
1000
0001
1000
0001
0000
1000
0000
0010
1000
0010
1000
0010
0000
1000
0000
,
0001
0010
0100
1000
0001
1000
0100
0010
0001
1000
0010
1000
0001
0010
0001
0100
,
0010
0100
0001
0010
0100
1000
0001
1000
,
0010
0000
1000
0010
1000
0000
0001
0000
0100
0000
0001
0100
0001
0000
0100
0000
,
0010
0100
0001
0010
0100
1000
0001
1000
,
0010
0000
1000
0010
1000
0000
0001
0000
1000
0000
0001
0010
0001
0000
0100
0000
,
0001
0001
0100
0010
0100
0001
0010
0100
,
1000
0000
0001
1000
0001
0000
0100
0000
0010
0000
1000
0100
0010
0000
0001
0000
,
0100
0010
0100
0001
0010
0100
0010
0001
,
0100
0000
0001
0100
0001
0000
0100
0000
0010
1000
0001
0100
0010
0000
1000
0001
,
1000
0001
0100
0001
0100
0010
1000
0100
,
0010
0000
0001
1000
0001
0000
0100
0000
0010
0000
1000
0010
1000
0000
0001
0000
,
0001
0010
0001
0100
0001
0010
0100
1000
,
0001
0000
1000
0100
1000
0000
0001
0000
0100
0000
0001
0100
0001
0000
0100
0000
,
0100
0010
1000
0100
0010
0100
1000
0001
,
1000
0000
0010
1000
0010
0000
1000
0000
0001
0000
0010
0001
0010
0000
0001
0000
,
0100
0001
0010
0100
1000
0001
1000
0010
,
1000
0000
1000
0000
0001
0000
0100
0000
0010
1000
0001
0100
0020
0000
0030
0000
,
0100
0001
0010
0100
1000
0001
1000
0010
1000
0001
0100
0001
0010
0100
1000
0010
,
0100
0200
0000
0000
0001
0000
0301
0000
,
0001
0010
0001
0100
0001
1000
0100
0010
0100
1000
0001
1000
0010
1000
0001
0010
,
0001
1000
0100
0010
0001
1000
0010
0100
0001
0000
0002
0000
0000
0000
0003
0000
,
1000
0100
0010
0001
1000
0001
0010
0001
1000
0010
1000
0001
0100
0001
0010
0100
,
1000
0020
0000
0000
0100
0000
0130
0000
,
0001
0010
0001
1000
0100
1000
0010
1000
0010
0100
0001
0010
0100
1000
0001
0100
,
0010
1000
0100
0020
0000
0030
0001
1000
0010
0200
0000
0000
,
0300
0000
0000
0000
0000
0000
0000
1001
,
2002
0000
3003
0000
;
