#TITLE:Unique;
#SUBTITLE:;
#ARTIST:SHK;
#TITLETRANSLIT:;
#SUBTITLETRANSLIT:;
#ARTISTTRANSLIT:;
#GENRE:;
#CREDIT:;
#MUSIC:Unique.ogg;
#BANNER:Unique.png;
#BACKGROUND:Unique-BG.png;
#CDTITLE:;
#SAMPLESTART:29.861;
#SAMPLELENGTH:15.103;
#SELECTABLE:YES;
#OFFSET:-0.120;
#BPMS:0.000=145.000;
#STOPS:;
#BGCHANGES:;
#FGCHANGES:;

//--------------- dance-single - Alex ----------------
#NOTES:
     dance-single:
     Alex:
     Beginner:
     1:
     0,0,0,0,0:
0000
0000
0000
0000
,
0000
0000
0000
0000
,
0001
0000
0000
0000
,
1000
0000
0000
0000
,
0001
0000
0000
0000
,
0100
0000
0000
0000
,
0100
0000
0000
0000
,
0001
0000
0000
0000
,
0001
0000
0000
0000
,
1000
0000
1000
0000
,
0020
0000
0000
0000
,
0030
0000
0000
0000
,
0200
0000
0000
0000
,
0300
0000
0000
0000
,
1001
0000
0000
0000
,
0110
0000
0000
0000
,
1001
0000
0000
0000
,
0010
0000
0010
0000
,
0020
0000
0030
0000
,
2000
0000
3000
0000
,
0001
0000
0000
0000
,
1000
0000
0000
0000
,
0002
0000
0003
0000
,
0200
0000
0300
0000
,
0001
0000
0000
0000
,
0100
0000
0000
0000
,
0110
0000
0000
0000
,
0010
0000
0000
0000
,
1000
0000
1000
0000
,
1000
0000
0000
0000
,
0001
0000
0000
0000
,
1000
0000
0000
0000
,
0010
0000
0010
0000
,
0010
0000
0000
0000
,
1001
0000
0000
0000
,
0000
0000
0000
0000
,
0000
0000
0000
0000
,
0000
0000
0000
0000
,
0001
0000
0000
0000
,
0100
0000
0000
0000
,
0001
0000
0000
0000
,
1000
0000
0000
0000
,
0020
0000
0030
0000
,
0200
0000
0300
0000
,
0001
0000
0001
0000
,
0001
0000
0000
0000
,
0200
0000
0300
0000
,
0002
0000
0003
0000
,
1000
0000
1000
0000
,
1000
0000
0000
0000
,
1001
0000
0000
0000
,
0010
0000
0000
0000
,
1000
0000
0000
0000
,
0001
0000
0000
0000
,
0100
0000
0000
0000
,
0100
0000
0000
0000
,
0001
0000
0000
0000
,
1000
0000
0000
0000
,
0010
0000
0000
0000
,
0000
0000
0000
0000
,
1001
0000
0000
0000
,
0100
0000
0000
0000
,
0001
0000
0000
0000
,
1000
0000
0000
0000
,
1001
0000
0000
0000
,
0010
0000
0000
0000
,
1000
0000
0000
0000
,
0100
0000
0100
0000
,
0100
0000
0000
0000
;

//--------------- dance-single - Alex ----------------
#NOTES:
     dance-single:
     Alex:
     Easy:
     4:
     0,0,0,0,0:
0000
0000
0000
0000
,
0000
0000
0000
0001
,
0200
0000
0000
0300
0000
0000
0010
0000
,
0020
0000
0000
0030
0000
0000
1000
0000
,
2000
0000
0000
3000
0000
0000
0000
0000
,
0002
0000
0000
0003
0000
0000
0000
0000
,
2000
0000
0000
3000
0000
0000
0010
0000
,
0020
0000
0000
0030
0000
0000
0100
0000
,
0200
0000
0000
0300
0000
0000
0000
0000
,
0002
0003
2000
3000
,
0001
1000
0001
1000
,
0200
0000
0300
0000
,
1000
0010
1000
0010
,
0200
0000
0300
0000
,
0110
0000
0110
0000
,
1001
0000
1001
0000
,
1100
0000
0011
0000
,
1001
0000
2002
3003
,
0000
0001
1000
0001
,
0000
1000
0100
1000
,
0010
0000
0000
0010
0000
0000
1000
0000
,
0001
0000
0000
0001
0000
0000
1000
0000
,
0000
0001
0100
0001
,
0000
1000
0100
1000
,
0010
0000
0000
0010
0000
0000
1000
0000
,
0001
0000
0000
0001
0000
0000
1001
0000
,
1000
0001
1000
0000
,
0001
1000
0001
0000
,
0100
0010
0100
0000
,
0010
0100
0010
0000
,
1000
0000
0100
0000
0010
0000
0000
0001
,
0000
0100
0010
0000
,
1000
0001
1000
0001
,
0001
0010
0001
0100
,
2002
0000
0000
0000
,
3003
0000
0000
0000
,
0000
0000
0000
0000
,
0220
0000
0330
0000
,
0020
0000
0030
0200
,
0000
0300
0000
0000
0010
0000
1000
0000
,
0002
0000
0000
0003
0000
0000
0000
0000
,
1001
0000
2002
3003
,
0000
0001
0100
0001
,
0000
1000
0010
1000
,
0001
0000
0000
0001
0000
0000
1000
0000
,
0100
0000
0000
0100
0000
0000
1000
0000
,
0000
0001
0010
0001
,
0000
1000
0010
1000
,
0010
0000
0000
0010
0000
0000
0100
0000
,
0001
0000
0000
2000
0000
0000
3000
0000
,
0010
1000
0010
0000
,
1000
0100
1000
0000
,
0001
0100
0001
0000
,
1000
0010
1000
0000
,
0001
0100
0010
0000
,
1000
0100
0010
0000
,
0001
0100
0010
0100
,
0001
0010
0100
1000
,
0020
0000
0000
0000
,
0030
0000
0000
0000
,
1001
0000
0001
0000
,
1000
0000
1000
0000
,
0001
0000
0100
0000
,
0010
0000
0100
0010
,
0110
0000
0100
0000
,
0001
0000
1000
0000
,
0001
0000
1000
0000
,
0010
0010
0100
0100
,
0002
0000
0000
0000
,
0000
0000
0000
0003
;

//--------------- dance-single - Alex ----------------
#NOTES:
     dance-single:
     Alex:
     Medium:
     6:
     0,0,0,0,0:
0000
0000
0000
0000
,
0000
0000
0000
0000
0000
0000
0001
1000
,
0002
0000
0003
0100
0000
0010
0000
0000
,
2000
0000
3000
0001
0000
1000
0000
0000
,
0002
0000
0003
0200
0000
0000
0300
0000
,
0020
0000
0030
1000
0000
0010
0000
0000
,
2000
0000
3000
0001
0000
1000
0000
0000
,
0002
0000
0003
1000
0000
0100
0000
0000
,
2000
0000
3000
0002
0000
0003
0100
0010
,
0200
0000
0300
0010
2000
0000
3000
0000
,
1001
0110
0001
0100
,
0020
0000
0030
0000
1000
0100
0010
0001
,
1000
0001
0100
0001
,
2000
0000
3000
0000
0001
0100
0001
0100
,
0001
0001
1000
1000
,
0010
0010
0100
0100
,
0001
0010
0100
1000
,
0001
0000
0000
2002
0000
3003
0000
0000
,
0001
0000
1000
0000
0001
1000
0001
0000
,
1000
0000
0100
0000
1000
0100
1000
0000
,
0010
0000
0010
0000
1000
0000
1000
0001
,
1000
0000
0001
0000
0001
0000
0100
0001
,
0100
0000
0010
0000
1000
0000
0001
0010
,
0001
0000
1000
0000
0010
0000
1000
0010
,
1000
0000
0001
0000
0001
0000
1000
0100
,
1000
0010
2002
3003
,
1001
0001
0100
0010
,
1000
0001
0010
0001
,
1000
0100
1000
0000
1000
0100
1000
0000
,
0001
1000
0001
0000
1000
0001
1000
0000
,
0001
0001
0100
0100
,
0010
1000
0001
0100
,
0010
0100
0010
0000
0100
0010
0100
0000
,
0001
1000
0001
0000
1000
0001
1000
0001
,
0200
0000
0000
0000
,
0300
0000
0000
0000
,
0000
0000
0000
0000
,
2002
0000
0000
3003
,
0002
0000
0003
2000
,
3000
0200
0000
0300
1000
0000
0001
0000
,
0020
0000
0030
0002
0000
0000
0003
0000
,
1000
0000
0000
2002
0000
0000
3003
0000
,
0001
0000
0100
0000
0001
1000
0001
0000
,
0001
0000
1000
0000
1000
0001
1000
0000
,
0010
0000
0010
0000
1000
0000
0001
0100
,
0001
0000
1000
0000
0100
0000
0010
0001
,
0010
0000
0001
0000
0100
0010
0100
0000
,
0001
0000
1000
0000
0100
1000
0100
0000
,
1000
0000
1000
0000
0001
0000
0100
0010
,
0100
0001
2002
3003
,
0001
0001
1000
1000
,
0001
0100
0010
1000
,
0001
0010
0001
0000
0010
0001
0010
0000
,
0001
0100
0001
0000
0100
0001
0100
0000
,
0001
0001
0100
0010
,
1000
0100
0010
0100
,
1000
0100
1000
0000
1000
0001
1000
0000
,
0001
0100
0001
0000
0100
0010
0100
0000
,
2002
0000
0000
0000
,
3003
0000
0000
0000
,
0002
0100
0100
0103
,
2000
0010
0010
3010
,
0020
0100
0100
0130
,
0002
1000
1000
1003
,
1001
0001
1000
0010
,
1010
1000
0001
0100
,
0101
0001
1000
0001
,
1001
0000
0000
0110
0000
0000
1001
0000
,
2002
0000
0000
0000
,
0000
0000
0000
3003
;

//--------------- dance-single - Alex ----------------
#NOTES:
     dance-single:
     Alex:
     Hard:
     9:
     0,0,0,0,0:
0000
0000
0000
0000
,
0000
0000
0000
0000
0000
0000
1000
0001
,
0200
0000
0300
0020
0030
2000
0000
3000
,
0002
0000
0003
0200
0300
0020
0000
0030
,
2000
0000
3000
0002
0000
0000
0003
0000
,
0200
0000
0300
0002
0003
0200
0000
0300
,
0020
0000
0030
2000
3000
0002
0000
0003
,
2000
0000
3000
0200
0300
0020
0000
0030
,
0002
0000
0003
0200
0000
0300
0010
1000
,
0001
0000
0000
1000
0000
0000
0010
0000
0100
0000
0000
0001
0000
0000
1000
0000
,
1001
0000
0110
0000
0010
0100
0001
2000
,
0000
0000
0100
3100
,
1000
0001
0100
0000
0001
0010
0100
2000
,
3000
0002
0000
0003
0100
0010
0100
0001
,
1001
1000
0100
0010
0100
1000
0010
0100
,
0001
0010
0100
1000
0001
0100
0010
1000
,
0001
1000
0001
0100
0010
0100
0001
1000
,
0001
0000
0000
0001
0000
0000
1000
0000
0000
1000
0000
0000
0001
1000
0001
1000
,
0000
0000
0001
0000
1000
0000
0010
0100
0000
0000
0001
0000
1000
0000
0200
0000
,
0300
0000
1000
0000
0001
0000
0100
0001
0000
0000
0100
0000
0010
0000
0100
0000
,
0001
0000
0000
1000
0000
0000
0001
0000
0000
1000
0000
0000
0010
0000
0100
0000
,
0001
0000
0000
0010
0000
0000
0001
0000
0000
0010
0000
0000
0001
0000
2000
0000
,
3000
0000
0001
0000
1000
0000
0001
0100
0000
0000
0100
0000
0001
0000
2000
0000
,
3000
0000
0001
0000
1000
0000
0010
1000
0000
0000
0100
0000
0010
0000
0001
0000
,
0100
0000
0000
0100
0000
0000
0010
0000
0000
0010
0000
0000
1000
0000
0001
0000
,
0010
0000
0000
0010
0000
0000
0001
0000
0000
0001
0000
0000
2002
0000
3003
0000
,
0001
1000
0010
0100
0001
1000
0100
0010
,
0001
0100
0010
0100
0001
1000
0020
0030
,
1000
0010
1000
0000
0001
0000
0100
0000
0010
0100
0010
0000
0100
0000
0001
0000
,
0010
0001
0010
0000
0001
0000
1000
0000
0100
1000
0100
0000
1000
0000
0010
0000
,
0100
0100
0001
0001
1000
0001
0010
0100
,
1000
0010
0100
0001
1000
0010
2000
3000
,
0001
0010
0001
0000
0100
0000
0001
0000
1000
0010
1000
0000
0001
0000
1000
0000
,
0100
0010
0100
0000
1000
0000
0001
0000
0100
0010
0100
0000
0001
0000
1000
0000
,
2002
0000
0000
0000
,
3003
0000
0000
0000
,
0001
0001
1000
1000
,
0010
0100
0001
0010
0100
1000
0001
0100
,
0120
0000
0030
2000
,
3000
0020
0000
0030
0200
0300
0002
0003
,
0020
0000
0030
0002
0000
0003
2000
0000
,
3010
0000
0000
0010
0000
0000
0100
0000
0000
0100
0000
0000
0001
0010
0001
0010
,
0000
0000
0001
0000
1000
0000
0010
0100
0000
0000
0001
0000
1000
0000
0200
0000
,
0300
0000
1000
0000
0001
0000
0100
0001
0000
0000
0100
0000
0001
0000
0010
0000
,
0100
0000
0000
0100
0000
0000
1000
0000
0000
1000
0000
0000
0001
0000
1000
0000
,
0010
0000
0000
0010
0000
0000
0100
0000
0000
0100
0000
0000
0001
0000
2000
0000
,
3000
0000
0001
0000
1000
0000
0001
0100
0000
0000
0100
0000
0001
0000
0020
0000
,
0030
0000
0001
0000
0100
0000
0010
0100
0000
0000
0001
0000
1000
0000
0100
0000
,
1000
0000
0000
1000
0000
0000
0010
0000
0000
0010
0000
0000
0100
0000
0001
0000
,
1000
0000
0000
1000
0000
0000
0001
0000
0000
0001
0000
0000
0202
0000
0303
0000
,
0001
0010
0100
1000
0010
0100
0001
0100
,
0010
0010
1000
1000
0001
0010
0002
0003
,
1000
0100
1000
0000
0010
0000
0100
0000
0001
0010
0001
0000
0100
0000
0001
0000
,
1000
0001
1000
0000
0001
0000
0100
0000
0010
0100
0010
0000
0100
0000
0001
0000
,
1000
0001
0010
0100
1000
0010
1000
1000
,
0001
0001
0100
0010
0100
0001
0020
0030
,
0001
0100
0001
0000
0100
0000
0001
0000
1000
0010
1000
0000
0001
0000
1000
0000
,
0100
0010
0100
0000
1000
0000
0010
0000
0100
0001
0100
0000
0001
0000
1000
0000
,
2020
0000
0000
0000
,
3030
0000
0000
0000
,
0110
0000
0010
0100
0000
0100
0010
1000
,
0001
0000
0001
1000
0000
1000
0001
0010
,
0001
0000
0100
0001
0000
0001
0100
0010
,
0100
0000
0001
1000
0000
1000
0001
1000
,
1001
0000
0001
1000
0000
1000
0010
1000
,
0010
0000
0100
0010
0000
0010
0100
0010
,
0100
0000
0001
0100
0000
0100
0001
1000
,
0001
0000
0000
0100
0000
0000
0010
0000
0000
1000
0000
0000
0001
1000
0001
1000
,
0020
0000
0000
0000
,
0000
0000
0000
0030
;

//--------------- dance-single - Alex ----------------
#NOTES:
     dance-single:
     Alex:
     Challenge:
     11:
     0,0,0,0,0:
0000
0000
0000
0000
,
0000
0000
0000
0000
0000
0000
0000
0000
0000
0000
0000
0000
0001
1000
0100
0010
,
0002
0000
0003
0200
0300
0010
1000
0001
,
2000
0000
3000
0002
0003
0100
0001
0010
,
0200
0000
0300
0020
0000
0000
0030
0000
,
0002
0000
0003
0200
0300
0020
0000
0030
,
0200
0000
0300
0002
0003
1000
0100
1000
,
0020
0000
0030
2000
3000
0001
1000
0010
,
0200
0000
0000
0000
0300
0000
0002
0000
0003
0000
0000
0000
0010
0100
1000
0001
,
0100
0000
0000
0101
0000
0000
0110
0000
1010
0000
0000
1100
0000
0000
0011
0000
,
0101
0100
0110
0010
1010
1000
0100
0010
,
0001
0000
0100
0000
0010
0000
0100
0000
0001
0010
0100
1000
0001
0100
0010
0000
,
1000
0001
0100
0010
0100
0001
0010
0100
,
1000
0000
0001
0000
0100
0000
0010
0000
1000
0100
0010
0100
1000
0001
0100
0010
,
0200
0001
0310
2000
0001
3010
0002
0100
,
1003
2000
0010
3100
0002
0010
0103
0200
,
0010
0301
2000
0001
3100
0020
0100
0031
,
0101
0000
0000
0110
0000
0000
1100
0000
0000
0011
0000
0000
0001
1000
0010
0200
,
0000
0300
0001
0000
1000
0000
0001
0020
0000
0030
0001
0000
1000
0000
1001
0000
,
M00M
0000
1000
0000
0001
0000
0100
0020
0000
0030
1000
0000
0100
0000
1000
0000
,
1100
0000
0000
MM00
0000
0000
0011
0000
0000
00MM
0000
0000
0110
0000
0000
0MM0
0000
0000
1100
0000
0000
MM00
0000
0000
0101
0000
0000
0000
0110
0000
0000
0000
,
1001
0000
0000
M00M
0000
0000
0011
0000
0000
00MM
0000
0000
0101
0000
0000
0M0M
0000
0000
0110
0000
0000
0MM0
0000
0000
1100
0000
0000
0000
0011
0000
0000
0000
,
00MM
0000
0001
0000
0100
0000
0010
2000
0000
3000
0001
0000
1000
0000
1001
0000
,
M00M
0000
0001
0000
0100
0000
0010
0200
0000
0300
0001
0000
0010
0000
0100
0000
,
1100
0000
0000
MM00
0000
0000
0011
0000
0000
00MM
0000
0000
1100
0000
0000
MM00
0000
0000
0011
0000
0000
00MM
0000
0000
1001
0000
0000
0000
1100
0000
0000
0000
,
0110
0000
0000
0MM0
0000
0000
0101
0000
0000
0M0M
0000
0000
0011
0000
0000
00MM
0000
0000
1001
0000
0000
M00M
0000
0000
0010
0000
0000
0000
0100
0000
0000
0000
,
0001
0010
0100
1000
0001
0010
0100
1000
0010
0100
0001
1000
0100
0010
0100
1000
,
0001
0100
0010
0100
0001
0010
0100
1000
0001
0100
0001
1000
0010
0100
0010
0100
,
0010
1000
0100
0010
0100
1000
0001
0100
0010
1000
0001
0010
0100
1000
0001
0100
,
0010
1000
0001
1000
0001
0100
0001
0100
0010
1000
0100
0010
0001
0100
0001
1000
,
0010
0100
0010
0100
0001
0010
0001
1000
0001
0100
0001
1000
0100
0010
0100
1000
,
0001
0100
0010
1000
0001
0010
0100
1000
0001
0100
0010
1000
0001
0010
0001
1000
,
0010
0100
0001
1000
0100
0010
0100
1000
0001
0100
0010
0100
0001
0010
0100
1000
,
0001
1000
0010
0100
0001
1000
0001
0100
0001
0010
0100
1000
0010
0100
0001
2000
,
0002
0000
0000
0000
,
3003
0000
0000
0000
,
0001
0010
0100
1000
0001
0100
0010
1000
,
0100
1000
0010
0100
0010
1000
0100
0010
0100
1000
0001
0100
0010
0100
0001
1000
,
2002
3003
0220
0330
0022
0033
0001
0101
,
0M0M
1000
1010
M0M0
0110
0MM0
0101
0M0M
,
0022
0000
0033
2200
0000
0000
3300
0000
,
1001
0000
0000
0101
0000
0000
1010
0000
0000
1001
0000
0000
0001
1000
0010
2000
,
0000
3000
0001
0000
0100
0000
0001
0020
0000
0030
0001
0000
1000
0000
1010
0000
,
M0M0
0000
0010
0000
0100
0000
0001
0020
0000
0030
0001
0000
1000
0000
0001
0000
,
0101
0000
0000
0M0M
0000
0000
0110
0000
0000
0MM0
0000
0000
1010
0000
0000
M0M0
0000
0000
1100
0000
0000
MM00
0000
0000
0011
0000
0000
0000
0101
0000
0000
0000
,
0110
0000
0000
0MM0
0000
0000
1001
0000
0000
M00M
0000
0000
0011
0000
0000
00MM
0000
0000
1001
0000
0000
0000
0000
0000
1100
0000
0000
0000
1100
0000
0000
0000
,
MM00
0000
1000
0000
0010
0000
1000
0002
0000
0003
0100
0000
0001
0000
0011
0000
,
00MM
0000
0001
0000
1000
0000
0010
2000
0000
3000
0001
0000
0100
0000
0010
0000
,
1010
0000
0000
M0M0
0000
0000
1100
0000
0000
MM00
0000
0000
0011
0000
0000
00MM
0000
0000
0101
0000
0000
0M0M
0000
0000
0011
0000
0000
0000
1001
0000
0000
0000
,
1100
0000
0000
MM00
0000
0000
0110
0000
0000
0MM0
0000
0000
0101
0000
0000
0M0M
0000
0000
0110
0000
0000
0MM0
0000
0000
0010
0000
0000
0000
0100
0000
0000
0000
,
0001
0010
0100
1000
0010
0100
0001
0010
0001
1000
0001
0100
0001
1000
0010
1000
,
0001
0100
0001
0010
0100
1000
0010
0100
0001
0010
0001
1000
0010
1000
0001
1000
,
0100
0010
0100
1000
0001
0100
0010
0100
0001
0010
0100
1000
0001
0100
0010
1000
,
0001
0010
0001
1000
0010
1000
0001
0100
0001
0010
0100
0010
0001
0100
0010
1000
,
0100
1000
0001
0010
0100
1000
0010
0100
0001
0100
0010
1000
0001
0010
0001
1000
,
0010
1000
0001
0100
0001
1000
0001
0010
0001
1000
0010
1000
0001
0100
0010
1000
,
0100
0010
0100
1000
0001
0100
0010
0100
0001
0010
0100
1000
0001
0100
0010
1000
,
0001
0010
0001
0100
0001
0100
0010
0100
0001
0010
0100
1000
0010
0100
0001
2000
,
0020
0000
0000
3030
,
0001
0100
0001
1000
0001
0010
0100
1000
0010
0100
0001
1000
0010
0100
0001
1000
,
2001
0000
3010
0100
0000
0001
1000
0001
,
0012
0000
0103
0010
0000
1000
0100
1000
,
2100
0000
3010
0100
0000
0100
0001
1000
,
1002
0000
0000
0000
1003
0000
0010
0000
1000
0010
0100
0001
0010
0100
1000
0010
,
0200
0001
0310
2000
0001
3100
0020
0100
,
1030
0002
0010
0103
2000
0010
3001
0200
,
0001
0301
2000
0010
3100
0002
0010
0103
,
1001
0000
0000
0011
0000
0000
1001
0000
0000
1100
0000
0000
0010
0001
0100
0010
,
0220
0000
0000
0000
,
0000
0000
0000
0330
;
