#TITLE:U Inside My Dim Memory;
#SUBTITLE:;
#ARTIST:Hyun Jin Young vs Yahpp;
#TITLETRANSLIT:;
#SUBTITLETRANSLIT:;
#ARTISTTRANSLIT:;
#GENRE:;
#CREDIT:;
#MUSIC:U Inside My Dim Memory.ogg;
#BANNER:U Inside My Dim Memory.png;
#BACKGROUND:U Inside My Dim Memory-BG.png;
#CDTITLE:;
#SAMPLESTART:48.194;
#SAMPLELENGTH:15.583;
#SELECTABLE:YES;
#OFFSET:0.048;
#BPMS:0.000=118.000;
#STOPS:;
#BGCHANGES:;
#FGCHANGES:;

//--------------- dance-single - Alex ----------------
#NOTES:
     dance-single:
     Alex:
     Beginner:
     1:
     0,0,0,0,0:
0000
0000
0000
0000
,
0000
0000
0000
0000
,
0000
0000
0000
1000
,
0000
0000
0000
0001
,
0000
0000
0000
1000
,
0000
0000
0000
0010
,
0000
0000
0000
1001
,
0000
0000
0000
0001
,
0000
0000
0000
0100
,
0000
0000
0000
0020
,
0000
0000
0030
1001
,
0000
0000
0000
1000
,
0000
0000
0000
0001
,
0000
0000
0000
0100
,
0000
0000
0000
0001
,
0000
0000
0000
1001
,
0000
0000
0000
1000
,
0000
0000
0000
0010
,
0000
0000
0000
1000
,
0000
0000
0000
1000
,
0000
0000
0000
0010
,
0000
0000
0000
0100
,
0000
0000
0000
2002
,
0000
3003
0000
0010
,
0000
0010
0000
0010
,
0000
0000
0000
1000
,
0000
1000
0000
1000
,
0000
0000
0000
0001
,
0000
0001
0000
0001
,
0000
0000
0000
0100
,
0000
0100
0000
0100
,
0000
0000
0000
1001
,
0000
0000
0000
0220
,
0000
0330
0000
0001
,
0000
0000
0000
0001
,
0000
0000
0000
1000
,
0000
0000
0000
0001
,
0000
0000
0000
0010
,
0000
0000
0000
1000
,
0000
0000
0000
0002
,
0000
0003
0000
0200
,
0000
0300
0000
0002
,
0000
0003
0000
2000
,
0000
3000
0000
1001
,
0000
0000
0000
0010
,
0000
0000
0000
1000
,
0000
0000
0000
0001
,
0000
0000
0000
1000
,
0000
0000
0000
0100
,
0000
0000
0000
1000
,
0000
0000
0000
0010
,
0000
0000
0000
0100
,
0000
0100
0000
0100
;

//--------------- dance-single - Alex ----------------
#NOTES:
     dance-single:
     Alex:
     Easy:
     3:
     0,0,0,0,0:
0000
0000
0000
0000
,
0000
0000
0000
0000
,
0000
0000
0000
1001
,
0000
0000
0000
0110
,
0000
0000
0000
1100
,
0000
0000
0000
0011
,
0000
0000
0000
0001
,
0000
0001
0000
1000
,
0000
1000
0000
0001
,
0000
1000
0000
2020
,
0000
3030
0000
0010
,
0000
0010
0000
1000
,
0000
1000
0000
0001
,
1000
0001
1000
0200
,
0000
0300
0000
1001
,
0000
1001
0000
0000
,
0100
0100
0010
0020
,
0000
0030
0100
0100
,
0001
0001
1000
2000
,
0000
3000
0000
0001
,
0000
1000
0000
0010
,
0010
0010
0000
1000
,
0000
0100
0000
1000
,
0000
2002
3003
0000
,
0001
0001
0001
2000
,
0000
3000
0000
0000
,
0010
0010
0100
0200
,
0000
0300
0000
0000
,
0001
1000
0001
2000
,
0000
3000
0000
0000
,
0010
0010
1000
1000
,
0200
0000
0300
1001
,
0000
0110
0000
1001
,
0000
0220
0330
0010
,
0010
0010
0000
1000
,
0000
1000
0000
0001
,
0001
0001
0000
0100
,
0000
0001
0000
1000
,
1000
1000
0000
0010
,
0000
1000
0000
1001
,
0000
0110
0000
0100
,
0100
0100
0000
0011
,
0000
0011
0000
0001
,
0001
0002
0003
1001
,
0000
1000
0000
0001
,
0000
1000
0000
0010
,
0000
0100
0000
0001
,
0100
0001
0100
0010
,
0000
0010
0000
1000
,
0000
1000
0000
0100
,
0000
1000
0000
1000
,
0010
1000
0010
1000
,
0000
0001
0000
1001
;

//--------------- dance-single - Alex ----------------
#NOTES:
     dance-single:
     Alex:
     Medium:
     5:
     0,0,0,0,0:
0000
0000
0000
0000
,
0000
0000
0000
0000
,
0000
0000
0000
0110
,
0000
0000
1000
1001
,
0000
0000
0001
1001
,
0000
0000
1000
1001
,
0000
0000
0000
1000
,
0001
1000
0010
1000
,
1000
0000
0001
0100
0001
0000
1000
0000
,
0010
0100
0001
2002
,
0000
3003
0000
0110
,
0010
1000
0001
0010
,
0001
0000
0100
0010
0100
0000
0001
0000
,
0001
1000
1000
0100
,
1000
0000
0000
0000
0010
0000
0100
0000
0010
0000
0000
0000
0100
0000
0000
0100
,
0000
0100
0020
0000
0030
0000
1000
0000
,
0001
0000
0010
0000
0100
0000
1000
0100
,
1000
0000
0001
0100
0001
0000
1000
0000
,
0010
0000
1000
0000
0001
0000
0010
0001
,
0010
0000
0001
1000
0010
0000
0100
0000
,
0001
0000
1000
0000
0100
0000
1000
0010
,
1000
0000
0010
0100
0010
0000
0100
0000
,
0001
1000
0010
0100
,
0001
2002
3003
0001
,
0001
1000
1000
0010
,
0010
0000
0100
0010
0100
0000
0001
0000
,
1000
0010
1000
1000
,
0100
0000
1000
0100
1000
0000
0010
0000
,
0010
1000
0001
0001
,
0100
0000
0010
0100
0010
0000
0100
0000
,
0001
0010
0100
1000
,
0001
0000
0100
0010
0100
0000
0001
0000
,
0001
1000
1000
0010
,
1000
2020
3030
1010
,
0010
0000
1000
0010
1000
0000
0001
0000
,
0100
0000
0010
0100
0010
0000
0100
0000
,
0001
2000
3000
0001
,
0010
0200
0300
1000
,
0001
0000
0100
0001
0100
0000
0001
0000
,
1000
0000
0010
1000
0010
0000
1001
0000
,
0001
1000
1000
0010
,
0100
0100
0001
0101
,
0001
0000
0000
0000
0100
0000
0000
0000
0010
0000
0000
0000
0100
0000
0000
0100
,
0000
0200
0000
0000
0300
0000
0001
0000
,
0010
0100
0010
0001
,
0001
0000
1000
0010
1000
0000
0001
0000
,
1000
1000
0010
0100
,
0001
0000
1000
0100
1000
0000
0001
0000
,
1000
0010
1000
1000
,
0001
0000
0100
0001
0100
0000
0001
0000
,
0010
0001
1000
0100
,
0100
0000
0000
0000
1000
0000
0010
0000
1000
0000
0000
0000
0001
0000
0000
0001
,
0000
0002
0000
0000
0003
0000
1001
0000
;

//--------------- dance-single - Alex ----------------
#NOTES:
     dance-single:
     Alex:
     Hard:
     8:
     0,0,0,0,0:
0000
0000
0000
0000
,
0000
0000
0000
0000
,
0000
0000
0000
1001
,
0000
0000
0000
0001
1000
0001
1001
0000
,
0000
0000
0000
1000
0001
1000
1001
0000
,
0000
0000
0000
0001
1000
0001
1001
0000
,
0000
0000
0000
0000
0000
0220
0000
0000
0000
0330
0000
0000
0010
0000
0100
0000
,
0001
0100
0010
0100
0001
0000
1000
0100
,
0010
0001
1000
0000
1010
0000
0010
1000
,
0010
0100
0010
1000
0001
0100
0110
0000
,
0000
0000
MMMM
0000
0000
0000
0001
0100
,
0001
0000
1000
0010
1000
0000
0001
1000
,
0100
0000
0000
1000
0000
0000
0010
0000
0100
0020
0000
0000
0030
0000
0100
0000
,
0001
0000
0100
0000
0001
0000
1000
0000
0010
0000
1000
0000
0001
0000
0000
0100
,
0000
0000
0010
0000
0000
0000
2000
0000
0000
0000
3000
0000
0001
0000
0000
1000
,
0000
0001
2002
0000
3003
0000
0000
0001
,
0100
0010
1000
0100
0010
0001
0100
0020
,
0000
0000
0000
0000
0100
0000
0030
0000
0100
0010
0000
0100
0000
0000
0001
0000
,
1000
0010
1000
0001
0000
0100
0000
0010
,
0200
0000
0010
0000
0310
0000
0000
0001
,
1000
0010
1000
0000
0001
0100
0010
0100
,
0000
0101
0000
0001
2000
0000
3000
0100
,
1000
0000
0010
0000
1000
0001
0000
1000
0000
0000
0001
0000
0100
0000
0001
0000
,
0100
0000
0001
0100
0000
0000
0010
0000
0110
0000
0000
0000
0100
0000
0001
0000
,
0100
0010
0100
0001
1000
0010
1000
0001
,
1000
0100
0010
0001
0100
0000
0001
1000
,
0010
1000
0001
0010
0001
0100
0001
0001
,
1000
0010
1000
0001
1000
0000
0001
1000
,
0100
0010
0001
0100
0010
0100
0001
1000
,
0100
0010
0001
0100
0010
0000
1000
0001
,
0100
0010
0100
0001
1000
0010
0000
0010
,
2000
0000
0000
0000
3001
0000
0001
1000
,
0010
0000
0100
0001
1000
0000
0001
0010
,
0100
1000
1010
0000
MMMM
0000
0001
1000
,
0010
1000
0001
0100
0001
0000
1000
0100
,
0010
0001
0100
0010
0100
0000
0001
1000
,
0010
1000
0000
0002
0000
0000
0000
0000
0103
0000
0000
0000
0000
0000
0010
0000
,
0100
0001
0000
2000
0000
0000
0000
0000
3100
0000
0000
0000
1000
0000
1000
0000
,
0010
1000
0001
1000
0010
0000
0100
0001
,
0001
1000
0001
0010
0100
0000
1000
0010
,
1000
0001
0100
0010
0110
0000
0010
1000
,
0100
0010
0001
0100
0101
0000
0001
1000
,
0001
0000
0000
0000
0100
0000
0010
0000
0100
0000
0000
0000
0001
0000
0000
1000
,
0000
0000
0010
0000
0000
0100
0000
0000
0001
0000
1000
0000
1010
0000
0000
0000
,
0101
0000
0001
0100
0001
0000
0010
0001
,
0100
0010
0100
0001
1000
0000
0101
0000
,
1010
0000
0010
1000
0100
0000
1000
0010
,
1000
0010
1000
0001
0100
0000
0110
0000
,
1001
0000
0001
0010
0001
0000
1000
0010
,
1000
0001
0100
0001
1000
0000
0101
0000
,
1010
0000
0010
1000
0100
0000
0010
0001
,
0100
0000
0010
0000
0100
0000
0001
0000
1000
0000
0010
0000
0100
0000
0000
0001
,
0000
0000
1000
0000
0000
0010
0000
0000
1000
0000
0001
0000
0200
0000
0000
0000
,
0300
0000
0000
0000
;

//--------------- dance-single - Alex ----------------
#NOTES:
     dance-single:
     Alex:
     Challenge:
     10:
     0,0,0,0,0:
0000
0000
0000
0000
,
0000
0000
0000
0000
,
0000
0000
1001
1111
,
0000
MMMM
0000
0001
0100
0010
1001
0000
,
0000
MMMM
0000
0001
1000
0010
1010
0000
,
0000
0000
MMMM
0000
0000
0000
0001
0000
0010
0000
0100
0000
1000
0200
0000
0000
,
0300
0000
0000
0000
0000
1000
0010
0000
1000
0001
0100
0010
1000
0000
0001
0100
,
0010
0000
0100
0000
0101
0000
0010
0000
1010
0000
1000
0000
1001
0000
0001
1000
,
0010
0000
1000
0000
1001
0000
0001
0000
0101
0000
0100
0000
0110
0000
0010
1000
,
0100
0000
1000
0000
1010
0000
0010
0000
0110
0000
0100
0000
0001
0100
0000
0000
,
MMMM
0000
0000
0000
0000
1000
0001
0010
0100
1000
0001
0100
0010
0000
0100
0000
,
0001
0000
1000
0000
0010
0000
0000
1010
0000
0000
1001
0000
0001
0000
0100
0000
,
0010
0000
0100
0001
0000
0000
0001
0000
1000
0200
0000
0000
1300
0000
0010
1000
,
0010
0000
1000
0001
1000
0000
0001
0100
0001
0000
0100
0000
0010
0000
0100
0010
,
0000
0010
0200
0000
0000
0300
1001
0000
0000
0000
MMMM
0000
0011
0000
0000
0101
,
0000
0000
0000
0000
0000
0000
0110
0000
0000
0000
0000
0000
1010
0000
0000
0000
0000
0000
0000
0000
0000
0000
0000
0000
1000
0000
0000
0000
0001
0000
0000
0000
1000
0000
0000
0000
0001
0000
0000
0000
0000
0000
0100
0000
0000
0001
0000
0000
,
0100
0000
0010
0000
1000
0000
0001
0010
0100
0000
1000
0000
0001
0000
0100
0010
,
1000
0000
0001
0000
0100
0000
1000
0000
0100
0001
0000
0001
0100
0000
1000
0000
,
0010
0000
1000
0010
1000
0000
0001
0000
0100
0000
0010
0100
0010
0000
0100
0000
,
0001
0010
0100
1000
0001
0100
0010
1000
,
0010
0000
0100
0001
0100
0000
0001
0000
1000
0000
0010
1000
0001
0000
1000
0000
,
0100
0000
0010
0001
0100
0000
0010
0000
0100
0000
0001
0000
1000
0000
0010
0000
,
1000
0000
0001
1000
0001
0000
1000
0000
0010
0000
1000
0010
1000
0000
0001
0100
,
0001
0000
0100
0010
0000
0000
0110
0000
1001
0000
MMMM
0000
0001
0010
0100
1000
,
0001
0010
0100
1000
0001
0100
0010
1000
0001
0010
0100
1000
0001
1000
0010
1000
,
0001
0000
0100
0000
0010
0000
0100
0000
0001
0000
1000
0000
0010
1000
0010
0100
,
0010
1000
0001
0100
0001
1000
0001
0010
0100
1000
0010
0100
0001
1000
0010
1000
,
0001
0000
0010
0000
0001
0000
0100
0000
0010
0000
0100
0000
0001
0010
0001
0100
,
0001
0010
0001
0100
0001
1000
0010
1000
0100
0010
0100
1000
0001
0100
0010
1000
,
0010
0000
1000
0000
0001
0000
0100
0000
0010
0000
0100
0000
0002
0003
1000
0100
,
2000
3000
0001
0100
0002
0003
1000
0010
2000
3000
0001
0010
0002
0003
0100
0000
,
1000
0100
0001
1000
0010
0100
0101
0001
,
1000
0010
0100
0001
1000
0000
0001
0000
0100
0000
0010
0000
1010
0000
0010
0100
,
0001
0000
1000
0000
1001
0000
0110
0000
1001
0000
0110
0000
MMMM
0000
0001
0100
,
0010
0000
1000
0100
0010
0000
0001
0100
0010
0000
0100
0001
1000
0000
0010
1000
,
0001
0000
0010
0001
1000
0000
0010
0100
0001
0000
1000
0001
0100
0000
0001
0100
,
0010
1000
0000
0020
0000
0000
0100
0000
1000
0000
0130
0000
0001
0000
1000
0010
,
1000
0001
0000
0200
0000
0000
0001
0000
0310
0000
1000
0000
1001
0000
0001
0100
,
0010
0000
1000
0000
0001
0000
1000
0001
1000
0000
0001
0000
0100
0000
0010
0100
,
0010
0000
1000
0000
1000
0000
0001
0000
1000
0001
0000
0000
0001
0000
0010
0000
,
0010
0001
0010
0001
0010
0000
0001
0000
0100
0000
0010
0000
0100
0000
0001
0000
,
1000
0010
1000
0010
1000
0000
0001
0000
1001
0000
MMMM
0000
0001
0000
1000
0100
,
1000
0100
1000
0100
1000
0000
0001
0100
0010
0000
0100
0000
0001
1000
0000
1000
,
0001
0000
0001
0100
0000
0100
0010
0000
0110
0000
1001
0000
0001
0000
0100
0010
,
0100
0000
0001
0000
1000
0000
1010
0000
0101
0000
1010
0000
0010
0000
0100
0001
,
0100
0000
0001
0000
1000
0000
1001
0000
0110
0000
1001
0000
0001
0000
0010
0001
,
0010
0000
0001
0000
0100
0000
0110
0000
0101
0000
0110
0000
0010
0000
1000
0100
,
1000
0000
0010
0000
1001
0000
0100
0000
1001
0000
0010
0000
1000
0000
0001
0100
,
0001
0000
1000
0000
0010
0000
1010
0000
0101
0000
1010
0000
0010
0000
0100
0001
,
0100
0000
0001
0000
1000
0000
1001
0000
0011
0000
1001
0000
0001
0000
0100
0010
,
1000
0000
0001
0000
0010
0000
0011
0000
0101
0000
0110
0000
0010
0000
1000
0100
,
1000
0000
0001
0000
0100
0000
0110
0000
1001
0000
0110
0000
1000
0001
0000
0001
,
1000
0000
1000
0010
0000
0010
0100
0000
0110
0000
1001
0000
0220
0000
0000
0000
,
0330
0000
0000
0000
;
