#TITLE:U Got Me Rocking;
#SUBTITLE:;
#ARTIST:MAX;
#TITLETRANSLIT:;
#SUBTITLETRANSLIT:;
#ARTISTTRANSLIT:;
#GENRE:;
#CREDIT:;
#MUSIC:U Got Me Rocking.ogg;
#BANNER:U Got Me Rocking.png;
#BACKGROUND:U Got Me Rocking-BG.png;
#CDTITLE:;
#SAMPLESTART:67.771;
#SAMPLELENGTH:13.848;
#SELECTABLE:YES;
#OFFSET:-0.310;
#BPMS:0.000=128.000
,47.000=192.000
,47.750=64.000
,47.875=55.000
,48.000=128.000
,175.000=192.000
,175.750=64.000
,176.000=128.000
,215.000=64.000
,215.500=128.000
,222.500=192.000
,223.250=64.000
,223.500=192.000
,224.250=64.000
,224.500=192.000
,225.250=64.000
,225.500=192.000
,226.250=64.000
,226.500=128.000
;
#STOPS:;
#BGCHANGES:;
#FGCHANGES:;

//--------------- dance-single - Alex ----------------
#NOTES:
     dance-single:
     Alex:
     Beginner:
     1:
     0,0,0,0,0:
0000
0000
0000
0000
,
0000
0000
0000
0000
,
0000
0000
0000
0000
,
0000
0000
0000
0000
,
1000
0000
0000
0000
,
1000
0000
0000
0000
,
0010
0000
0000
0000
,
1000
0000
0000
0000
,
0001
0000
0000
0000
,
0001
0000
0000
0000
,
0100
0000
0000
0000
,
0100
0000
0000
0000
,
1001
0000
0000
0000
,
0001
0000
0000
0000
,
1000
0000
0000
0000
,
0010
0000
0000
0000
,
1000
0000
0000
0000
,
1000
0000
0000
0000
,
0001
0000
0000
0000
,
0002
0000
0003
0000
,
1001
0000
0000
0000
,
0001
0000
0000
0000
,
1000
0000
0000
0000
,
0100
0000
0000
0000
,
0100
0000
0000
0000
,
0010
0000
0000
0000
,
0010
0000
0000
0000
,
1000
0000
0000
0000
,
0002
0000
0000
0000
,
0003
0000
0000
0000
,
2000
0000
0000
0000
,
3000
0000
0000
0000
,
0110
0000
0000
0000
,
0010
0000
0000
0000
,
1000
0000
0000
0000
,
0001
0000
0000
0000
,
1001
0000
0000
0000
,
0001
0000
0000
0000
,
1000
0000
0000
0000
,
0100
0000
0000
0000
,
1000
0000
0000
0000
,
0010
0000
0000
0000
,
2000
0000
0000
0000
,
3000
0000
0000
0000
,
1001
0000
0000
0000
,
0010
0000
0000
0000
,
1000
0000
0000
0000
,
0010
0000
0000
0000
,
0100
0000
0000
0000
,
0100
0000
0000
0000
,
0001
0000
0000
0000
,
1000
0000
0000
0000
,
0110
0000
0000
0000
,
1001
0000
0000
0000
0000
0000
0000
0110
,
0000
0000
0000
0000
0000
0000
0000
1001
,
0000
0000
0000
0000
0000
1001
0000
0000
;

//--------------- dance-single - Alex ----------------
#NOTES:
     dance-single:
     Alex:
     Easy:
     3:
     0,0,0,0,0:
0000
0000
0000
0000
,
0000
0000
0000
0000
,
0000
0000
0000
0000
,
0000
0000
0000
0000
,
0001
0000
1000
0000
,
0001
0000
0100
0000
,
0100
0000
0001
0000
,
1000
0000
0010
0000
,
1000
0000
0001
0000
,
1000
0000
0100
0000
,
1000
1000
0001
0001
,
0020
0000
0030
0000
,
1001
0000
0001
0000
,
1000
0000
0001
0000
,
0100
0000
0010
0000
,
1000
1000
1000
0000
,
0001
0000
1000
0000
,
0100
0000
1000
0000
,
0001
0000
0100
0000
,
0020
0000
0030
0000
,
1000
1000
1000
0000
,
0001
0001
0001
0000
,
1000
1000
1000
0000
,
0020
0030
0200
0300
,
0001
0001
0001
0000
,
0100
0100
0100
0000
,
0010
0010
0100
0100
,
0001
0000
1000
0000
,
2002
0000
3003
0000
,
0020
0000
0030
0000
,
2000
0000
3000
0000
,
0002
0000
0003
0000
,
1000
1000
0001
0000
,
0001
0001
0100
0000
,
0010
0100
0010
0100
,
0020
0030
0200
0300
,
1001
0000
0001
0000
,
1000
0000
0001
0100
,
0001
0000
1000
0000
,
0010
0000
1000
0100
,
1000
0000
0001
0000
,
1000
0000
0010
0000
,
0100
0100
0001
0001
,
2000
0000
3000
0000
,
0001
0000
0001
0000
,
0100
0000
0100
0000
,
0001
0000
1000
0000
,
0001
0001
1000
0100
,
0100
0000
1000
0000
,
0010
0000
0010
0000
,
1000
0000
0001
0000
,
1000
1000
0001
0001
,
1001
0000
1001
0000
,
0110
0000
0000
0000
1001
0000
0000
0101
,
0000
0000
0000
0101
0000
0000
0000
1010
,
0000
0000
0000
0100
0000
0100
0000
0000
;

//--------------- dance-single - Alex ----------------
#NOTES:
     dance-single:
     Alex:
     Medium:
     5:
     0,0,0,0,0:
0000
0000
0000
0000
,
0000
0000
0000
0000
,
0000
0000
0000
0000
,
0000
0000
0000
0000
,
0110
0010
1000
0100
,
0010
0001
1000
0010
,
1000
1000
0001
0001
,
0100
0010
0100
0001
,
1001
1000
0001
0010
,
0100
1000
0001
0100
,
0010
0100
0001
1000
,
2002
0000
3003
0000
,
0001
0001
1000
1000
,
0001
0100
0001
0000
1000
0100
1000
0000
,
0010
0100
0001
1000
,
0010
0100
0010
0100
0010
0000
0110
0000
,
0100
0001
1000
0001
,
0010
0001
0010
0000
0001
0100
0001
0000
,
0100
0010
1000
0001
,
2002
0000
3003
0000
,
1000
0000
1000
0000
1000
0000
1000
0001
,
0100
0000
0100
0000
0100
0000
0100
0001
,
0010
0000
0010
0000
0010
0000
0010
0001
,
1000
0000
0001
0000
1000
0001
1000
0000
,
0010
0000
0010
0000
0010
0000
0010
1000
,
0100
0000
0100
0000
0100
0000
0100
1000
,
0001
0000
0001
0000
0001
0000
0001
1000
,
0020
0030
0200
0300
,
0001
1000
1001
0000
,
0001
0100
0101
0000
,
0100
0010
1000
0100
,
1000
0001
1001
0000
,
1000
1000
0001
0001
,
0100
0010
0100
0001
,
1000
0100
0010
0001
,
2000
0000
0002
3003
,
0110
0001
0100
1000
,
0100
0000
0001
0000
1000
0001
1000
0000
,
0001
0010
1000
0010
,
0001
0000
0100
0000
0010
1000
0010
0000
,
1000
0100
0010
0100
,
1000
0000
1000
0000
0001
0100
0001
0000
,
0100
0010
0100
0000
0001
1000
0001
2000
,
0000
0000
3000
0000
,
0001
0100
0101
0101
,
1000
0010
1010
1010
,
1000
0001
1001
1001
,
0001
1000
0001
0000
1000
0001
1000
0000
,
0001
1000
1100
1100
,
1000
0001
0011
0011
,
0001
0100
0110
0110
,
0100
0100
0010
0010
,
1001
1001
0110
0110
,
1001
0000
1001
0000
0220
0000
0330
0011
,
0000
0011
0000
0101
0000
0101
0000
1010
,
0000
1010
0000
0001
1000
0020
0000
0000
,
0000
0000
0000
0000
0000
0030
0000
0000
;

//--------------- dance-single - Alex ----------------
#NOTES:
     dance-single:
     Alex:
     Hard:
     8:
     0,0,0,0,0:
0000
0000
0000
0000
,
0000
0000
0000
0000
,
0000
0000
0000
0000
,
1001
0000
0110
0000
0010
0100
0001
0100
,
0020
0030
2000
3000
0001
0100
0010
0100
,
0000
0001
1000
0200
0300
1000
0001
0100
,
0020
0030
0200
0300
0001
0010
0100
0010
,
0000
0010
0001
0200
0300
0001
1000
0010
,
2000
3000
0002
0003
1000
0001
0100
0001
,
0000
1000
0010
2000
3000
0001
0010
0001
,
0000
0100
0001
0100
0010
1000
0002
0200
,
0000
0000
0000
0000
0000
0303
0000
0000
,
0001
1000
1001
0000
0001
0100
0101
0000
,
0001
0100
0010
0100
0001
1000
0100
0000
,
1000
0010
0100
0001
0010
0001
1000
0000
,
0001
0001
1000
1000
0010
0100
0101
0000
,
0001
0100
0010
0100
0001
0000
1001
0000
,
1000
0100
0010
0100
1000
0000
1100
0000
,
1000
0010
0100
0001
0010
0100
1000
0001
,
2002
0000
3003
0000
,
0001
0000
0100
0000
0010
0000
0100
0010
0100
0010
0100
0000
0101
0000
0000
0000
,
0001
0000
1000
0000
0010
0000
1000
0010
1000
0010
1000
0000
1010
0000
0000
0000
,
1000
0000
0001
0000
0100
0000
0001
1000
0001
1000
0001
0000
1001
0000
0000
0000
,
0001
1000
0010
0100
0001
1000
1001
0000
,
1000
0000
0100
0000
1000
0000
0010
0100
0010
0100
0010
0000
0110
0000
0000
0000
,
0100
0000
0001
0000
0010
0000
0001
0100
0001
0100
0001
0000
0101
0000
0000
0000
,
0001
0000
1000
0000
0001
0000
1000
0001
1000
0001
1000
0000
0001
0000
1000
0000
,
2002
0000
3003
0000
,
2000
0010
0100
3010
,
0002
0100
0010
0103
,
2000
0100
0001
3100
,
0020
0100
1000
0130
,
1000
0010
1000
0001
0100
0010
0100
0000
,
0001
0010
0100
0010
0001
0100
0010
0000
,
0100
0001
0010
0100
1000
0001
0100
0010
,
0200
0000
0020
0330
,
0010
0000
1000
0000
0001
0000
1000
0001
1000
0000
0001
0000
0100
0000
0010
0100
,
0010
0000
0100
0000
0001
0000
1000
0100
1000
0000
0001
0000
0100
0000
0010
0000
,
0100
0000
0001
0000
1000
0000
0001
0010
0001
0000
1000
0000
0001
0000
1000
0100
,
1000
0000
0010
0000
0100
0000
0001
0100
0001
0000
0100
0000
0001
0000
1000
0000
,
0010
0000
0100
0000
0001
0000
1000
0100
0010
0000
0001
0000
1000
0000
0010
1000
,
0001
0000
0010
0000
0001
0000
1000
0010
1000
0000
0001
0000
0100
0000
0010
0000
,
0100
0001
1000
0100
0010
0001
0100
0220
,
0000
0000
0000
0000
0000
0330
0000
0000
,
0001
0000
0100
0000
0010
0000
0100
0000
0001
0000
0010
0000
0100
0000
1000
0100
,
1000
0000
0001
0000
0100
0000
0010
0100
0001
0000
0010
0000
0001
0000
1000
0010
,
1000
0001
0100
0010
0100
0001
1000
0001
,
0100
0001
0000
0001
0100
0000
0100
0010
0000
0010
0100
0000
2002
0000
3003
0000
,
0001
0000
1000
0000
0010
0000
0100
0000
0001
0000
1000
0000
0100
0000
1000
0100
,
1000
0000
0010
0000
0100
0000
0001
0010
0001
0000
1000
0000
0001
0000
0100
0001
,
0100
0001
0010
0100
1000
0010
0100
0001
,
1000
0001
0000
0001
1000
0000
1000
0001
0000
0001
0100
0000
0001
0000
1000
0000
,
0001
0100
0101
0000
1000
0010
1010
0000
,
0010
0000
0100
0000
0110
0000
0000
0000
0100
0001
0100
0001
0100
0000
0001
0000
,
0100
0101
0000
0001
1000
1001
0000
0010
,
0100
0001
0100
0010
1000
2002
0000
0000
,
0000
0000
0000
0000
0000
3003
0000
0000
;

//--------------- dance-single - Alex ----------------
#NOTES:
     dance-single:
     Alex:
     Challenge:
     10:
     0,0,0,0,0:
0000
0000
0000
0000
,
0000
0000
0000
0000
,
0000
0000
0000
0000
,
1001
0000
0000
0000
0110
0000
0000
0010
0100
0000
0100
0001
0010
0100
1000
0000
,
0002
0000
0000
0003
2000
0000
0000
3000
0200
0300
0020
0030
0002
0003
0200
0000
,
0000
0300
0020
0030
2000
3000
0002
0000
0000
0003
0200
0300
0002
0003
2000
3000
,
0200
0000
0000
0300
2000
0000
0000
3000
0020
0030
0200
0300
0002
0003
2000
0000
,
0000
3000
0020
0030
2000
3000
0002
0000
0000
0003
0020
0030
0002
0003
0200
0300
,
0020
0000
0000
0030
2000
0000
0000
3000
0200
0000
0302
0003
0200
0300
2000
0000
,
0000
3000
0020
0030
2000
3000
0002
0000
0000
0003
0200
0300
0002
0003
0020
0000
,
0000
0030
0200
0300
2000
3000
0020
0030
0002
0003
0200
0300
2000
3000
2002
0000
,
0000
0000
0000
3003
,
1000
0010
0100
0001
1000
0000
0100
0000
0010
0001
0100
0010
0100
0000
0001
0000
,
0010
0001
0100
0010
0100
0000
0100
0001
1000
0100
0010
0001
1000
0000
0001
0000
,
0100
0000
0001
0100
0001
0000
1000
0100
1000
0000
0010
0100
0020
0000
0000
0030
,
1000
0001
0100
0010
1001
0110
1001
0000
,
0001
0000
0100
0001
0000
0001
0100
0010
0100
0000
0001
0000
1000
0000
0100
0000
,
0010
0001
1000
0010
0100
0000
0001
0100
0010
0000
1000
0000
1001
0000
0010
0000
,
0010
0000
0100
0001
0100
0000
0001
0000
1000
0100
0010
0001
1000
0010
0100
0002
,
2000
0000
0000
3003
,
0001
0100
0010
0100
0001
0010
0100
1000
0001
1000
0010
0100
0001
0000
1000
0000
,
0001
0100
0010
0100
0001
0010
0001
1000
0010
1000
0001
1000
0100
0000
0100
0000
,
1000
0010
1000
0010
0100
0010
0100
0001
0010
0100
1000
0001
0100
0000
0001
0000
,
1001
0000
0110
0000
1001
0000
0110
0000
0010
0100
0001
0100
0010
0000
1000
0000
,
0001
1000
0100
1000
0001
1000
0010
1000
0001
0010
0100
1000
0001
0000
0001
0000
,
0100
0001
0100
0010
0100
0001
0010
0001
1000
0010
1000
0001
1000
0000
0100
0000
,
1000
0010
0100
0001
0010
0100
1000
0001
0100
0010
1000
0100
0010
0000
0001
0000
,
0202
0000
0000
0303
,
0001
0000
0010
0000
0100
0000
1000
0001
0000
0001
0100
0000
0010
0000
0100
0000
,
0001
0000
0010
0000
0001
0000
1000
0010
0000
0010
1000
0000
0001
0000
0100
0000
,
1000
0000
0100
0000
0001
0000
1000
0100
0000
0100
1000
0000
0010
0000
0100
0000
,
0001
0000
0010
0000
0001
0000
1000
0010
0100
0001
1000
0000
2002
0000
3003
0000
,
0001
0000
0100
0001
0100
0000
0010
1000
0010
0000
1000
0100
1000
0000
0001
0100
,
0010
0000
0100
0001
0010
0000
0100
1000
0001
0000
0100
0001
1000
0000
0010
0100
,
0001
0000
1000
0100
0010
0000
0001
0100
0010
0100
0001
0010
0100
1000
0010
0100
,
0002
0000
2000
3003
,
1001
0000
0010
0000
1001
0000
0001
0100
0010
0100
0001
0000
1000
0000
0100
0000
,
1100
0000
1000
0000
1010
0000
0010
1000
0100
0010
0001
0000
0100
0000
0010
0000
,
0110
0000
0100
0000
0101
0000
0001
0010
0001
0100
0010
0000
0100
0000
0001
0000
,
1001
0000
0100
0000
1001
0000
0010
0100
0001
1000
0010
0000
0100
0000
0001
0000
,
0011
0000
0100
0000
0011
0000
0001
0100
0010
0100
0001
0000
1000
0000
0100
0000
,
1100
0000
0010
0000
1100
0000
1000
0010
1000
0100
1000
0000
0001
0000
0100
0000
,
0010
0000
0100
0001
0100
0000
0001
1000
0001
0000
1000
0010
0100
0001
1000
0200
,
0020
0000
0000
0330
,
0001
0010
0100
0010
0001
0100
0010
1000
0100
0010
0001
1000
0010
0100
0001
0010
,
0001
1000
0010
1000
0001
1000
0100
0010
0100
1000
0001
0100
0001
1000
0010
0100
,
0001
0010
0100
0010
0001
0100
0010
0100
0001
1000
0010
1000
0001
1000
0100
0010
,
0001
0100
0000
0100
0001
0000
0001
1000
0000
1000
0010
0000
1001
0000
0110
0000
,
0010
1000
0100
1000
0010
0100
0001
1000
0001
0100
0001
0010
0100
1000
0010
0100
,
0001
1000
0010
1000
0010
0100
0010
0100
0001
0010
0001
0100
0001
0100
0010
1000
,
0100
0010
0001
0100
0010
0100
0001
0010
0100
1000
0001
1000
0010
1000
0001
1000
,
0010
1000
0000
1000
0010
0000
0010
0100
0000
0100
0001
0000
2002
0000
3003
0000
,
1001
0000
1001
0000
1001
0000
0001
0100
0001
0000
0101
0000
0101
0000
0110
0000
,
0110
0000
0110
0000
0010
1000
0100
0010
0001
1000
0010
0100
0101
0000
1001
0000
,
1001
0000
1001
0000
0010
1000
0001
0000
0011
0000
0011
0000
0101
0000
0101
0000
,
0110
0000
0010
1000
0100
0010
0001
0100
0010
0100
0220
0000
0000
0000
0000
0000
,
0000
0000
0000
0000
0000
0330
0000
0000
;
