#TITLE:U Got 2 Know;
#SUBTITLE:;
#ARTIST:MAX;
#TITLETRANSLIT:;
#SUBTITLETRANSLIT:;
#ARTISTTRANSLIT:;
#GENRE:;
#CREDIT:;
#MUSIC:U Got 2 Know.ogg;
#BANNER:U Got 2 Know.png;
#BACKGROUND:U Got 2 Know-BG.png;
#CDTITLE:;
#SAMPLESTART:22.634;
#SAMPLELENGTH:11.161;
#SELECTABLE:YES;
#OFFSET:-0.035;
#BPMS:0.000=127.000;
#STOPS:114.500=0.285
,122.000=0.240
,129.500=0.232
,137.000=0.247
;
#BGCHANGES:;
#FGCHANGES:;

//--------------- dance-single - Alex ----------------
#NOTES:
     dance-single:
     Alex:
     Beginner:
     1:
     0,0,0,0,0:
0000
0000
0000
0000
,
0000
0000
0000
0000
,
0000
0000
0000
0000
,
0000
0000
0000
0000
,
0001
0000
0000
0000
,
0100
0000
0000
0000
,
0001
0000
0000
0000
,
1000
0000
0000
0000
,
0010
0000
0000
0000
,
0010
0000
0000
0000
,
1000
0000
0000
0000
,
0001
0000
0000
0000
,
1001
0000
0000
0000
,
0001
0000
0000
0000
,
1000
0000
0000
0000
,
0100
0000
0000
0000
,
1000
0000
0000
0000
,
0010
0000
0000
0000
,
1000
0000
0000
0000
,
0001
0000
0000
0000
,
1001
0000
0000
0000
,
0010
0000
0000
0000
,
1000
0000
0000
0000
,
0100
0000
0000
0000
,
1000
0000
0000
0000
,
0001
0000
0000
0000
,
0001
0000
0000
0000
,
0100
0000
0000
0000
,
0020
0000
0000
0000
0030
0000
0000
1000
,
0000
0000
0000
1000
0000
0000
0000
2000
,
0000
0000
0000
3000
0000
0000
0001
0000
,
0000
0001
0000
0002
,
0000
0000
0003
0000
0000
0100
0000
0000
,
0000
0100
0000
0000
0000
0200
0000
0000
,
0000
0300
0000
0000
2002
0000
0000
0000
,
3003
0000
0110
0000
,
0000
0000
0010
0000
,
0000
0000
1000
0000
,
0000
0000
0001
0000
,
0000
0000
1000
0000
,
0000
0000
0100
0000
,
0000
0000
0100
0000
,
0000
0000
0020
0000
,
0030
0000
1001
0000
,
0000
0000
0010
0000
,
0000
0000
1000
0000
,
0000
0000
0002
0000
,
0003
0000
0100
0000
,
0000
0000
0001
0000
,
0000
0000
1000
0000
,
0000
0000
0020
0000
,
0030
0000
1001
0000
,
0000
0000
0001
0000
,
0000
0000
0100
0000
,
0000
0000
0010
0000
,
0000
0000
1000
0000
,
0000
0000
0100
0000
,
0000
0000
0100
0000
,
0000
0000
1000
0000
,
0000
0000
1001
0000
;

//--------------- dance-single - Alex ----------------
#NOTES:
     dance-single:
     Alex:
     Easy:
     3:
     0,0,0,0,0:
0000
0000
0000
0000
,
0000
0000
0000
0000
,
0000
0000
0000
0000
,
0000
0000
0000
0000
,
1001
0000
0100
0000
,
0001
0000
1000
0000
,
0010
0000
0010
0000
,
0200
0000
0300
0000
,
0001
0000
1000
0000
,
0001
0000
0010
0000
,
0001
0001
1000
1000
,
0002
0000
0003
0000
,
1001
0000
1001
0000
,
0110
0000
0110
0000
,
0001
0000
0100
0000
,
0010
0000
1000
0000
,
1100
0000
1100
0000
,
0011
0000
0011
0000
,
0001
0000
1000
0000
,
0010
0000
0100
0000
,
1001
0000
1001
0000
,
0110
0000
0110
0000
,
0010
0000
1000
0000
,
0001
0000
0001
0000
,
0011
0000
0011
0000
,
1100
0000
1100
0000
,
1000
0000
0001
0000
,
1000
0000
0010
0000
,
2002
0000
0000
0000
3003
0000
0000
0001
,
0000
0001
0000
0001
0000
0000
0000
2002
,
0000
0000
0000
3003
0000
0000
1000
0000
,
1000
1000
0000
2002
,
0000
0000
3003
0000
0000
0010
0000
0010
,
0000
0010
0000
0000
0000
0220
0000
0000
,
0000
0330
0000
0000
0001
0000
1000
0000
,
0001
1000
1001
0000
,
0001
0000
1000
0000
,
0010
0000
1000
0000
,
0100
0000
2000
0000
,
3000
0000
0001
0000
,
1000
0000
0001
0000
,
0010
0000
0001
0000
,
0100
0000
0020
0000
,
0030
0000
1001
0000
,
0001
0000
0100
0100
,
0100
0000
0001
0000
,
1000
0000
0020
0000
,
0030
0000
1001
0000
,
1000
0000
0001
0001
,
0001
0000
0100
0000
,
0010
0000
0200
0000
,
0300
0000
1001
0000
,
1001
0000
0110
0000
,
0110
0000
0010
0000
,
0001
0000
0100
0000
,
0010
0000
1010
0000
,
1010
0000
1100
0000
,
1100
0000
1000
0000
,
0001
0000
1000
0000
,
0010
0010
0100
0000
;

//--------------- dance-single - Alex ----------------
#NOTES:
     dance-single:
     Alex:
     Medium:
     5:
     0,0,0,0,0:
0000
0000
0000
0000
,
0000
0000
0000
0000
,
0000
0000
0000
0000
,
0000
0000
0000
0000
,
0001
1000
0010
0100
,
0001
1000
0100
1000
,
0001
0001
1000
0010
,
2020
0000
3030
0000
,
1000
0001
1000
1000
,
0001
0100
0001
0001
,
0100
0010
0100
0001
,
0202
0000
0303
0000
,
0001
0001
1000
1000
,
0010
0000
0100
0000
0001
0100
0001
0000
,
1000
0010
1000
1000
,
0001
0000
1000
0000
0100
1000
0100
0000
,
1000
0010
0100
0010
,
1000
0000
0001
0000
0010
0001
0010
0000
,
0001
0100
0010
0100
,
0001
1000
1001
0000
,
0001
0001
1000
0010
,
1000
0000
0100
0000
0010
0100
0010
0000
,
0001
0100
0010
1000
,
0001
0000
1000
0000
0100
1000
0100
0000
,
1000
1000
0001
0100
,
0010
0000
1000
0000
0001
0010
0001
0000
,
0100
0010
0010
0100
,
0001
1000
1001
0000
,
0001
0000
0100
0000
0020
0030
0000
1000
,
0000
0001
0000
1000
0000
1000
0000
0001
,
0000
0100
0000
0020
0030
0000
0100
0000
,
0100
0001
0001
0010
,
0100
0000
2000
3000
0000
0001
0000
1000
,
0000
0010
0000
1000
0000
0001
0000
0001
,
0000
0200
0300
0000
0001
0000
1000
0000
,
2002
3003
0110
0010
,
1000
1000
0100
1000
,
0001
0001
0100
0010
,
0100
0001
0202
0000
,
0303
0000
0001
0001
,
0100
0010
1000
0001
,
1000
0100
0010
0100
,
1000
0001
0202
0000
,
0303
0000
1001
0001
,
0100
0010
1010
1000
,
0001
1000
1100
1000
,
0001
0100
0220
0000
,
0330
0000
0110
0100
,
0001
1000
1001
0001
,
0010
0001
0101
0100
,
0010
1000
2020
0000
,
3030
0000
1010
0010
,
1000
0001
1000
0100
,
1000
0001
1000
0000
0001
0000
0100
0000
,
0010
0100
0001
1000
,
0001
1000
0001
0000
1000
0000
0010
0000
,
1000
0001
1000
0100
,
0010
0001
0010
0000
0001
0000
0001
0000
,
0100
0010
0100
0001
,
1000
0001
1000
0000
2002
0000
0000
0000
,
3003
0000
0000
0000
;

//--------------- dance-single - Alex ----------------
#NOTES:
     dance-single:
     Alex:
     Hard:
     8:
     0,0,0,0,0:
0000
0000
0000
0000
,
0000
0000
0000
0000
,
0000
0000
0000
0000
,
0000
0000
0000
0000
,
0001
0100
0010
0100
0001
0010
0100
0000
,
1000
0010
1000
0001
1000
0010
0100
0000
,
0001
0100
0010
0100
0001
0010
0100
1000
,
2002
0000
3003
0000
,
0000
0001
0100
0020
0030
1000
0100
0020
,
0030
0001
0100
0010
0100
0001
1000
0200
,
0300
1000
0001
0100
0010
1000
0001
0010
,
0022
0000
0033
0000
,
0001
0000
0100
0000
0010
0000
0100
0001
0000
0001
0100
0000
0010
0000
0000
0000
,
1000
0000
0010
0000
1000
0000
0001
1000
0000
1000
0001
0000
1000
0000
0000
0000
,
0100
0000
1000
0000
0010
0000
0100
0001
0000
0001
0100
0000
0010
0000
0000
0000
,
1000
0000
0001
0000
0010
0000
0001
0200
0000
0000
0010
0000
0310
0000
1000
0000
,
0001
0000
0100
0000
0010
0000
0100
0001
0000
0001
0100
0000
0010
0000
0000
0000
,
1000
0000
0001
0000
0010
0000
0001
1000
0000
1000
0010
0000
0100
0000
0000
0000
,
0001
0000
1000
0000
0100
0000
1000
0001
0000
0001
0100
0000
0010
0000
0000
0000
,
0100
0000
0001
0000
1000
0000
0010
2000
0000
0000
0100
0000
3100
0000
1000
0000
,
0001
0000
0100
0000
0010
0000
0100
0001
0000
0001
0100
0000
0010
0000
0000
0000
,
1000
0000
0001
0000
1000
0000
0001
1000
0000
1000
0010
0000
0100
0000
0000
0000
,
0001
0000
1000
0000
0001
0000
0100
0010
0000
0010
0100
0000
0001
0000
0000
0000
,
1000
0000
0100
0000
1000
0000
0001
2000
0000
0000
0001
0000
3001
0000
0100
0000
,
0010
0000
1000
0000
0001
0000
0010
0001
0000
0001
1000
0000
0010
0000
0000
0000
,
1000
0000
0001
0000
1000
0000
0100
1000
0000
1000
0100
0000
1000
0000
0000
0000
,
0001
0000
0001
0000
0100
0000
0010
1000
0000
1000
0010
0000
0100
0000
0000
0000
,
0001
0000
0010
0000
0100
0000
0010
0002
0000
0000
1000
0000
1003
0000
0010
0000
,
1010
0000
0010
0100
0001
1001
0000
1000
,
0010
1000
0000
0001
0100
0001
0000
1001
,
0000
0001
1000
0010
1010
0000
0010
1000
,
0001
0000
0100
0001
1000
0000
1001
0000
,
0001
0100
0010
0110
0000
0100
0001
0100
,
0000
0001
1000
0001
0000
1001
0000
0001
,
1000
0010
1010
0000
1000
0010
1000
0001
,
1000
0010
2002
3003
0100
0001
0100
0010
,
0100
0001
0010
0000
0100
1000
0001
0001
,
1000
0010
1000
0000
0001
0100
0010
0100
,
0001
0010
0100
1000
2002
0000
0000
0000
,
3003
0000
0000
0000
0001
0100
0010
0100
,
0001
1000
0010
0000
1000
0010
1000
0001
,
1000
0010
0100
0000
0001
0010
0100
1000
,
0001
0100
0001
1000
2002
0000
0000
0000
,
3003
0000
0000
0000
0001
1000
0100
0010
,
0100
1000
0001
0100
0010
0100
0001
0010
,
0100
1000
0001
1000
0010
1000
0001
1000
,
0010
0100
0001
0010
0022
0000
0000
0000
,
0000
0000
0033
0000
0001
1000
0100
0100
,
1000
0010
0010
1000
0001
0100
0010
0010
,
0100
0001
0010
0100
1000
0001
0001
1000
,
0010
0100
0001
1000
2200
0000
0000
0000
,
0000
0000
0000
0000
3300
0000
0000
0000
1000
0000
0001
0000
1000
0000
0010
1000
,
0000
1000
0010
0000
0100
0000
0001
0000
0100
0000
0010
0000
0100
0000
0001
1000
,
0000
1000
0001
0000
0010
0000
0001
0000
0100
0000
0010
0000
0100
0000
0001
1000
,
0000
1000
0100
0000
0010
0000
0001
0000
0100
0000
0010
0000
0100
0000
0001
0020
,
0000
0000
0001
0000
0031
0000
0100
0000
0010
0000
0100
0000
0001
0000
1000
0100
,
0000
0100
1000
0000
0001
0000
1000
0000
0010
0000
1000
0000
0001
0000
0010
0001
,
0000
0001
0010
0000
0001
0000
0100
0000
0010
0000
0100
0000
0001
0000
1000
0100
,
0000
0100
1000
0000
0001
0000
0100
0000
0010
0000
0100
0000
0001
0000
1000
0000
,
0010
0100
0001
1000
2002
0000
0000
0000
,
3003
0000
0000
0000
;

//--------------- dance-single - Alex ----------------
#NOTES:
     dance-single:
     Alex:
     Challenge:
     11:
     0,0,0,0,0:
0000
0000
0000
0000
,
0000
0000
0000
0000
,
0000
0000
0000
0000
,
0002
0203
0320
2030
0000
3002
0023
0032
,
0103
0010
0100
0001
0010
0100
1000
0001
1000
0010
1000
0001
1000
0000
0001
0000
,
0100
0001
0010
0100
1000
0001
0100
0010
1000
0100
0010
0001
0100
0000
0001
0000
,
1000
0010
1000
0001
1000
0001
0100
0001
0010
0100
1000
0001
0100
0010
1000
0001
,
2000
0000
3020
0000
0230
0000
0302
0023
0000
0000
0230
0000
2000
0000
3300
0000
,
1000
0001
0100
0010
1000
0001
0020
0000
0000
0030
0001
0100
0010
0100
0002
0000
,
0003
1000
0100
1000
0010
1000
0001
0010
0100
1000
0001
0100
0010
0000
1000
0000
,
0001
0100
0010
0100
0001
0010
0100
1000
0001
1000
0010
1000
0100
0010
0001
0100
,
0220
0000
0000
0330
,
0101
0000
0010
0000
1010
0000
0010
1000
0000
1000
0001
0000
1000
0001
0100
0001
,
0101
0000
0001
0000
1001
0000
0001
1000
0000
1000
0010
0000
1000
0010
0100
0001
,
0101
0000
0100
0000
0110
0000
0010
1000
0000
1000
0100
0000
1000
0001
0100
0010
,
0110
0000
0100
0000
0101
0000
0001
2000
0000
0000
0010
0000
0001
0000
3100
0000
,
1001
0000
0001
0000
0101
0000
0100
0001
0000
0001
0100
0000
0010
1000
0010
1000
,
1010
0000
0010
0000
1010
0000
0010
1000
0000
1000
0001
0000
0001
0100
0010
0100
,
0101
0000
0001
0000
0011
0000
0001
1000
0000
1000
0001
0000
1000
0010
1000
0100
,
1100
0000
1000
0000
1001
0000
0001
0200
0000
0000
0010
0000
0001
0000
0310
0000
,
1001
0000
0001
0000
1001
0000
0001
0100
0000
0100
0010
0000
1000
0001
0010
0100
,
1100
0000
1000
0000
1010
0000
0010
1000
0000
1000
0001
0000
0001
0100
0010
0100
,
0101
0000
0010
0000
1001
0000
0001
1000
0000
1000
0010
0000
1000
0001
1000
0100
,
1100
0000
1000
0000
1001
0000
0001
0200
0000
0000
0010
0000
0001
0000
0310
0000
,
1001
0000
0001
0000
0101
0000
0100
0001
0000
0001
0100
0000
0010
1000
0001
1000
,
1001
0000
1000
0000
1010
0000
0010
1000
0000
1000
0100
0000
1000
0001
0010
0001
,
0011
0000
0010
0000
0011
0000
0001
0100
0000
0100
0010
0000
1000
0001
1000
0100
,
1000
0001
1000
0010
0100
0001
0010
0100
1000
0001
0100
0010
0100
0001
1000
0000
,
1001
0000
0001
0100
0010
0000
1000
0001
0100
0000
1001
0000
1001
0000
0010
0000
,
0100
0001
1000
0000
0001
0000
0010
0100
1000
0001
0100
0000
0010
0000
0110
0000
,
0100
0001
1000
0000
0001
0010
0001
0000
0101
0000
0110
0000
0010
0000
1000
0100
,
1000
0000
0001
0000
1000
0010
0100
0001
1000
0000
0001
0000
0101
0000
0100
0010
,
0100
0000
0001
0010
0001
0000
1001
0000
0110
0000
0100
0000
0001
0010
0001
0000
,
0100
0000
0010
1000
0100
0010
0001
0000
1000
0000
1001
0000
0001
1000
0010
0000
,
1000
0001
0010
0000
0011
0000
1001
0000
0001
0100
0010
0100
0001
0010
0100
1000
,
0001
1000
0010
0100
0002
0000
0000
0003
0100
0010
0100
0001
0010
0100
1000
0001
,
1000
0001
0100
0001
1000
0000
0010
0000
1000
0001
0010
0100
1000
0001
0100
0010
,
0100
0001
0010
0001
1000
0000
0010
0000
1000
0100
1000
0001
1000
0010
0100
0001
,
0010
0001
0100
0010
0100
0001
0010
0100
2000
0000
3002
0000
0203
0000
0320
2030
,
0000
0000
3002
0000
0200
0000
0303
0000
0001
0010
0001
0100
0010
0100
0001
0010
,
0100
1000
0001
1000
0010
0000
0100
0000
0001
0100
0001
0100
0001
0100
0010
0100
,
0001
0010
0100
1000
0100
0000
1000
0000
0001
1000
0010
0100
0001
0010
0001
1000
,
0010
1000
0001
1000
0100
0010
0001
1000
2002
0000
0000
0000
0000
0000
0000
0000
,
0000
0000
3003
0000
0000
0000
0000
0000
0001
0100
0010
1000
0100
0010
0100
1000
,
0001
0100
0010
0100
0001
0010
0001
1000
0001
0100
0001
1000
0010
1000
0001
1000
,
0100
0010
0001
0100
0010
0100
0001
0010
0001
0100
0010
1000
0001
0010
0100
1000
,
0001
1000
0010
1000
0001
0100
0001
1000
2002
0000
0000
0000
0000
0000
0000
0000
,
0000
0000
3003
0000
0000
0000
0000
0000
0001
1000
0010
0100
0001
0010
0100
1000
,
0001
0100
0010
0100
0001
0010
0001
1000
0100
0010
0100
1000
0001
1000
0001
0100
,
0001
1000
0010
1000
0001
0010
0100
1000
0001
1000
0010
0100
0001
0010
0001
0100
,
0001
0100
0010
1000
0100
0010
0001
0100
0202
0000
0000
0000
0000
0000
0000
0000
,
0000
0000
0303
0000
0000
0000
0000
0000
1001
0000
0001
0000
0101
0000
0100
0010
,
0000
0010
0100
0000
0001
0010
0100
1000
1001
0000
0001
0000
1001
0000
1000
0100
,
0000
0100
1000
0000
1000
0010
1000
0001
0011
0000
0001
0000
0101
0000
0100
0010
,
0000
0010
0100
0000
0001
0010
0100
1000
1001
0000
0001
0000
0101
0000
0100
0020
,
0000
0000
1000
0000
0100
0000
1030
0000
1001
0000
0001
0000
0011
0000
0001
0100
,
0000
0100
0001
0000
0010
0100
1000
0001
1001
0000
0001
0000
1001
0000
1000
0100
,
0000
0100
1000
0000
1000
0010
1000
0001
1001
0000
0001
0000
0101
0000
0100
0010
,
0000
0010
0100
0000
0100
0001
0010
0100
1000
0001
0010
0001
1000
0010
1000
0001
,
0100
0001
1000
0010
0100
0001
1000
0001
2002
0000
0000
0000
0000
0000
0000
0000
,
3003
0000
0000
0000
;
