#TITLE:Turkey March;
#SUBTITLE:;
#ARTIST:Banya;
#TITLETRANSLIT:;
#SUBTITLETRANSLIT:;
#ARTISTTRANSLIT:;
#GENRE:;
#CREDIT:;
#MUSIC:Turkey March.ogg;
#BANNER:Turkey March.png;
#BACKGROUND:Turkey March-BG.png;
#CDTITLE:;
#SAMPLESTART:34.230;
#SAMPLELENGTH:13.767;
#SELECTABLE:YES;
#OFFSET:-0.280;
#BPMS:0.000=150.000;
#STOPS:;
#BGCHANGES:;
#FGCHANGES:;

//--------------- dance-single - Alex ----------------
#NOTES:
     dance-single:
     Alex:
     Beginner:
     1:
     0,0,0,0,0:
0000
0000
0000
0000
,
0000
0000
0000
0000
,
0000
0000
0000
0000
,
0000
0000
0000
0000
,
0000
0010
0000
0000
,
0000
0100
0000
0000
,
0000
0001
0000
0000
,
0000
1000
0000
0000
,
0000
0010
0000
0000
,
0000
0100
0000
0000
,
0000
0001
0000
0000
,
0000
1000
0000
0000
,
0000
0001
0000
0000
,
0000
0001
0000
0000
,
0000
1000
0000
0000
,
0000
1000
0000
0000
,
0000
0010
0000
0000
,
0000
0100
0000
0000
,
0000
0010
0000
0010
,
0000
0010
0000
0000
,
0000
0000
0000
0000
,
0000
1001
0000
0000
,
0000
0001
0000
0000
,
0000
1000
0000
0000
,
0000
1000
0000
0000
,
0000
0010
0000
0000
,
0000
0010
0000
0000
,
0000
1000
0000
0000
,
0000
0001
0000
0000
,
0000
0000
0000
0000
,
0000
0000
0000
0000
,
0000
1001
0000
0000
,
0000
0000
0000
0000
,
0000
0110
0000
0000
,
0000
0010
0000
0000
,
0000
0010
0000
0000
,
0000
0100
0000
0000
,
0000
0100
0000
0000
,
0000
0001
0000
0000
,
0000
0010
0000
0000
,
0000
0001
0000
0000
,
0000
1000
0000
0000
,
0000
1000
0000
0000
,
0000
0001
0000
0000
,
0000
0001
0000
0000
,
0000
0100
0000
0000
,
0000
0010
0000
0000
,
0000
0010
0000
0000
,
0000
1000
0000
0000
,
0000
0001
0000
0000
,
0000
0001
0000
0000
,
0000
1000
0000
0000
,
0000
1000
0000
0000
,
0000
0010
0000
0000
,
0000
0010
0000
0000
,
0000
0100
0000
0100
,
0000
0100
0000
0000
,
0000
0000
0000
0000
,
0000
1001
0000
0000
;

//--------------- dance-single - Alex ----------------
#NOTES:
     dance-single:
     Alex:
     Easy:
     4:
     0,0,0,0,0:
0000
0000
0000
0000
,
0000
0000
0000
0000
,
0000
0000
0000
0000
,
0000
0000
0000
0000
,
0000
1001
0000
1001
,
0000
1001
1001
1001
,
0000
0001
1000
0010
,
0100
0100
0001
1000
,
0000
1001
0000
1001
,
0000
1001
1001
1001
,
0000
0001
0100
0100
,
0001
1000
0010
1000
,
0000
0001
0010
0001
,
0000
1000
0100
1000
,
0000
0010
0100
0010
,
0000
0100
0001
0100
,
0000
1001
0000
1001
,
0000
1001
1001
1001
,
0000
0001
1000
1000
,
0001
0100
0010
0100
,
0000
0001
0000
1000
,
0000
1001
0001
0100
,
0010
0100
0001
1000
,
0100
1000
1000
0010
,
0100
0001
1000
0010
,
0000
1001
0001
1000
,
1000
0001
0100
0100
,
0001
0010
0001
0001
,
1000
0010
0010
1000
,
0000
1001
0000
0000
,
0000
0001
0000
1000
,
0000
0010
0000
0010
,
0000
0100
0100
0100
,
0000
0001
0001
0001
,
0001
1000
1000
1000
,
1000
0010
0010
0100
,
0100
0001
1000
0001
,
0000
1000
1000
0010
,
0010
0100
0100
0001
,
0001
0010
0001
0100
,
0001
1000
0000
0001
,
0000
1001
0000
1001
,
0000
1001
1001
1001
,
0000
0001
1000
0010
,
1000
0001
0010
0001
,
0000
1001
0000
1001
,
0000
1001
1001
1001
,
0000
0001
0100
0010
,
0100
0001
1000
0100
,
0000
1000
1000
0010
,
0000
0100
0001
0100
,
0000
0001
0001
0001
,
0000
1000
1000
0001
,
0000
1001
0000
1001
,
0000
1001
1001
1001
,
0000
0001
1000
0001
,
1000
0010
0100
0001
,
0000
1000
0000
0001
,
0000
1001
0000
0000
;

//--------------- dance-single - Alex ----------------
#NOTES:
     dance-single:
     Alex:
     Medium:
     6:
     0,0,0,0,0:
0000
0000
0000
0000
,
0000
0000
0000
0000
,
0000
0000
0000
0000
,
0000
0001
1000
0001
,
1000
0010
1000
0000
0001
0000
0100
0000
,
0010
0100
0010
0000
0100
0000
0001
0000
,
1000
0100
0010
0000
0001
0000
0100
0000
,
0010
0100
0100
0001
,
1000
0010
1000
0000
0001
0000
0010
0000
,
0001
0010
0001
0000
0100
0000
0001
0000
,
1000
0001
1000
0000
0001
0000
0100
0000
,
0010
0100
0001
1000
,
0100
0010
0100
0000
0001
0000
1001
0000
,
1000
0010
1000
0000
0001
0000
0011
0000
,
0001
0100
0001
0000
0100
0000
0110
0000
,
0010
1000
0010
0000
1000
0000
1010
0000
,
0010
1000
0010
0000
1000
0000
0001
0000
,
1000
0001
1000
0000
0001
0000
0100
0000
,
0010
0100
0001
0000
0010
0000
0100
0000
,
1000
0001
0100
0010
,
0MM0
1000
0000
0001
,
0000
1001
0001
0100
,
0010
0000
0100
0000
0001
0000
1000
0100
,
1000
0100
1000
0000
0001
0000
0100
0000
,
0010
0000
1000
0010
1000
0010
1000
0000
,
0001
0011
0001
0100
,
0010
0000
0100
0000
0001
1000
0001
1000
,
0001
1000
0010
0100
,
0001
0000
1000
0100
1000
0100
1000
0000
,
0000
1001
0001
0100
,
0010
0100
0001
0010
,
0100
1000
1000
0001
,
0001
1000
0010
1010
,
0000
0000
0010
1000
0010
0000
1000
0010
,
1000
0000
0001
0100
0001
0000
0100
0001
,
0100
0000
0001
1000
0001
0000
1000
0001
,
1000
0001
1000
0001
,
0000
0000
1000
0010
1000
0000
0001
0010
,
0001
0000
1000
0100
1000
0000
0001
0100
,
0001
0000
1000
0100
1000
0100
1000
0100
,
1000
0100
1000
0000
0000
0000
0001
0000
,
1000
0001
1000
0000
0001
0000
0100
0000
,
0010
0100
0010
0000
0100
0000
0001
0000
,
0010
0001
0010
0000
0001
0000
1000
0000
,
0010
1000
0001
0100
,
0010
0100
0010
0000
1000
0000
1000
0000
,
0001
0010
0001
0000
0100
0000
0001
0000
,
1000
0100
1000
0000
0001
0000
0100
0000
,
0010
0100
0001
1000
,
0010
1000
0010
0000
1000
0000
1010
0000
,
0010
1000
0001
0000
1000
0000
1001
0000
,
0001
0100
0001
0000
0100
0000
0110
0000
,
0100
0001
0100
0000
0001
0000
0011
0000
,
0001
1000
0001
0000
1000
0000
0010
0000
,
1000
0010
1000
0000
0001
0000
1000
0000
,
0100
0010
0100
0000
0010
0000
0001
0000
,
0100
0010
0100
0001
,
0000
1001
0000
0110
,
0000
1001
0000
0000
;

//--------------- dance-single - Alex ----------------
#NOTES:
     dance-single:
     Alex:
     Hard:
     9:
     0,0,0,0,0:
0000
0000
0000
0000
,
0000
0000
0000
0000
,
0000
0000
0000
0000
,
0000
0000
0000
0000
0001
0000
1000
0000
0010
1000
0000
1000
0010
0000
0100
0000
,
0001
0100
0000
0100
0001
0000
0000
0000
0001
0000
1000
0000
0010
0000
0000
0000
,
0010
1000
0001
0100
0001
1000
0100
0000
,
1000
0001
0010
0001
0100
0010
0100
0001
,
0010
0100
1000
0001
0100
0010
1000
0000
,
0001
0100
0001
0000
1000
0100
1000
0000
,
0001
0010
0001
0100
0001
0010
0100
0000
,
1000
0010
1000
0001
1000
0100
0010
0001
,
1000
0010
0100
0100
0001
0010
0001
0000
,
1000
0000
0010
0000
1000
0000
0001
0000
1000
0010
0000
0010
1000
0000
0000
0000
,
0001
0000
0100
0000
0010
0000
0100
0000
0001
0010
0000
0010
0001
0000
0000
0000
,
0001
0000
1000
0000
0010
0000
0010
0000
1000
0001
0000
0001
1000
0000
0000
0000
,
0001
0000
0100
0000
0010
0000
0100
0000
0001
0100
0000
0100
0001
0000
0000
0000
,
1000
0100
1000
0000
0001
0100
0001
0000
,
1000
0010
1000
1000
0001
0100
0010
0000
,
0100
0100
0001
0010
0100
1000
0001
0100
,
0010
1000
0001
0000
1000
0000
1001
0000
,
MMMM
0110
0MM0
1001
,
M00M
0000
1001
0000
0001
0100
0010
0100
,
0001
1000
0100
0010
0001
1000
0010
0100
,
0001
0010
0011
0000
0001
0100
0010
0100
,
0001
0010
0100
1000
0001
0100
0010
0000
,
1000
0100
1100
0000
1000
1000
0001
0100
,
0001
1000
0010
0100
0001
0010
0100
0010
,
0001
1000
1001
0000
0001
1000
0010
0100
,
0001
0010
0001
1000
0100
0010
1001
0000
,
0000
0001
0100
0010
,
0100
0000
0000
0000
0001
1000
0000
0000
1000
0001
0000
0000
0001
0100
0000
0000
,
0100
0010
0000
0000
1000
0000
0000
0000
0100
0000
0000
0000
0010
0000
0000
0000
,
0001
1000
0001
1000
,
0001
0100
0010
1000
0100
0010
0001
0100
,
0010
0000
1000
0010
1000
0000
0001
0000
0100
0000
0001
0100
0001
0000
0100
0000
,
0010
0000
0100
0010
0100
0000
0001
0000
0010
0000
0100
0000
1000
0000
0001
0000
,
0100
0010
1000
0000
0001
0000
1001
0000
,
M00M
0000
0001
0100
0010
0100
0001
1000
,
0010
0000
1000
0010
1000
0000
0001
0000
1000
0000
0100
0010
0001
0000
0100
0000
,
0010
0000
0100
0001
0100
0000
0001
0000
0010
0000
0100
0000
1000
0000
0001
0000
,
0100
0010
1000
0000
0001
0000
1000
0000
,
0001
0100
0001
0000
1000
0100
1000
0000
,
0001
0100
0010
0100
0001
1000
0010
0000
,
1000
0001
0010
0001
1000
0010
1000
0001
,
1000
0100
0010
0001
0100
0010
0100
0000
,
0001
0010
0001
0000
1000
0100
1000
0000
,
0001
0100
0001
1000
0010
1000
0010
0000
,
1000
1000
0001
0100
0010
0100
0001
0010
,
0100
1000
0001
0100
0010
1000
0001
0000
,
1000
0000
0001
0000
0010
0000
0001
0000
0100
0010
0000
0010
0100
0000
0000
0000
,
0001
0000
1000
0000
0100
0000
1000
0000
0001
1000
0000
1000
0001
0000
0000
0000
,
0100
0000
0010
0000
0100
0000
0001
0000
0010
0001
0000
0001
0010
0000
0000
0000
,
0001
0000
0100
0000
0010
0000
0100
0000
0001
1000
0000
1000
0001
0000
0000
0000
,
1000
0100
1000
0000
0001
0100
0001
0000
,
1000
0010
1000
0001
0010
0100
1000
0000
,
0001
0100
0010
0100
0001
1000
1000
0001
,
0001
0100
0010
0100
0001
1000
1010
0000
,
0000
0000
0000
0000
0010
0000
1000
0000
0001
1000
0000
1000
0001
0000
1000
0000
,
0010
0100
0000
0100
0010
0000
0000
0000
0000
0000
0000
0000
0000
0000
0000
0000
;

//--------------- dance-single - Alex ----------------
#NOTES:
     dance-single:
     Alex:
     Challenge:
     11:
     0,0,0,0,0:
0000
0000
0000
0000
,
0000
0000
0000
0000
,
0000
0000
0000
0000
,
0000
0000
0000
0000
0001
0000
0100
0000
0010
1000
0010
1000
0010
0000
1000
0000
,
0001
1000
0001
1000
0001
0000
0000
0000
0001
0100
0001
0100
0001
0000
0000
0000
,
0001
0100
0010
0100
0010
0100
0001
0100
0001
1000
0001
1000
0001
0000
0000
0000
,
0001
0010
0001
0100
0110
0100
0001
1000
,
1010
1000
0001
0010
0011
1001
0110
0000
,
0010
0100
0010
0100
0010
0000
0000
0000
0010
1000
0010
1000
0010
0000
0000
0000
,
1000
0010
1000
0010
1000
0001
1000
0001
0100
0001
0100
0001
0100
0000
0000
0000
,
0010
1000
0100
0010
0011
0001
0100
0010
,
0110
0100
0001
1000
1010
1001
0101
0000
,
0001
0000
1000
0000
0100
0000
0010
0000
0001
0100
0010
0100
0001
0000
0000
0000
,
0001
0000
1000
0000
0010
0000
1000
0000
0001
0010
0001
0100
0001
0000
0000
0000
,
1000
0000
0100
0000
0010
0000
0100
0000
1000
0010
1000
0100
1000
0000
0000
0000
,
0001
0000
1000
0000
0010
0000
1000
0000
0001
0100
0001
0010
0001
0000
0000
0000
,
0001
0100
0010
0100
0010
0000
0000
0000
1000
0100
1000
0100
1000
0000
0000
0000
,
0010
1000
0010
1000
0001
1000
0001
0010
0001
0010
0001
0100
0010
0000
0000
0000
,
0010
1000
0001
0100
0101
0100
0010
1000
,
0100
1000
1010
0000
0101
0000
1111
0000
,
MMMM
1001
M00M
0110
,
0MM0
0000
1001
0000
0001
0100
0010
0100
,
0101
0001
1000
0010
1010
1000
0001
0010
,
0001
0100
0110
0000
0010
1000
0001
0010
,
0011
0001
1000
0010
1010
1000
1001
0000
,
0001
1000
1001
0000
0001
0100
0010
0100
,
0101
0001
0010
0001
1001
1000
0010
1000
,
1001
0001
0101
0000
0110
0100
0001
0010
,
0011
0000
0001
0000
1000
0000
0010
0000
1010
0000
1000
0000
1001
0000
0001
1000
,
0001
1000
0001
1000
0001
0000
0100
0000
0001
0000
0010
0001
0010
0000
0001
0000
,
0100
0000
0010
0100
0010
0000
1000
0000
0001
0000
1000
0001
1000
0000
0001
0000
,
0100
0000
0010
0100
0010
0000
1000
0000
0100
0000
0010
0001
0010
0000
0001
0000
,
0100
0000
0010
0100
0010
0000
1000
0000
0001
0000
1000
0000
0100
0000
0000
0000
,
1000
0000
0001
0000
0100
0010
0100
0010
0100
0001
0100
0001
0100
0010
0100
0010
,
0100
0001
0100
0001
0010
0001
0100
0001
1000
0001
1000
0010
1000
0010
1000
0001
,
1000
0010
1000
0010
1000
0001
0100
0001
1000
0010
0100
0001
0010
0100
1000
0001
,
0100
0010
0100
0001
0010
0000
0001
0000
1000
0000
0010
0000
1010
0000
0000
0000
,
M00M
0000
0000
0000
0001
1000
0001
1000
0001
0100
0001
0100
0001
0010
0001
0100
,
0001
1000
0001
1000
0010
1000
0010
1000
0010
0100
0010
0100
0001
0010
0001
0100
,
0001
1000
0010
0100
0001
1000
0100
0010
0001
0100
0010
1000
0001
1000
0100
1000
,
0001
0100
0001
0010
0001
0000
0000
0000
1000
0000
0000
0000
0010
0000
0000
0000
,
1000
0001
1000
0001
1000
0000
0001
0000
0100
0001
0100
0001
0100
0000
0010
0000
,
1000
0010
1000
0010
1000
0001
1000
0001
0010
0001
0010
0001
0010
0000
0000
0000
,
0001
0100
0001
1000
1010
0010
1000
0001
,
0011
0001
0100
0010
0110
0101
0011
0000
,
0001
1000
0001
1000
0001
0000
1000
0000
0010
1000
0010
1000
0010
0000
1000
0000
,
0100
0010
0100
0010
0001
0010
0001
0100
0001
0100
0001
1000
0001
0000
0000
0000
,
1000
0010
1000
0001
1001
0001
0100
0010
,
0110
0100
0001
1000
1001
0110
1001
0000
,
0001
0000
0100
0000
0010
0000
1000
0000
0010
1000
0100
0010
0001
0000
0000
0000
,
0100
0000
0001
0000
0010
0000
0001
0000
0001
0100
0001
1000
0001
0000
0000
0000
,
1000
0000
0010
0000
0010
0000
1000
0000
0001
1000
0100
1000
0001
0000
0000
0000
,
0001
0000
1000
0000
0001
0000
0100
0000
0010
0100
0010
0100
0010
0000
0000
0000
,
0100
0001
0100
0001
0100
0000
0001
0000
1000
0010
1000
0010
1000
0000
0001
0000
,
0001
1000
0001
1000
0001
1000
0100
0010
0001
1000
0010
0100
0001
0000
0000
0000
,
0001
1000
0010
0100
0101
0001
0010
0100
,
1100
1000
1001
0001
0101
0100
0110
0000
,
0MM0
0000
0000
0000
0001
0000
1000
0000
0001
0100
0010
0100
0001
0000
1000
0000
,
0010
0100
0001
1000
2002
0000
0000
0000
0000
0000
0000
0000
0000
0000
0000
0000
,
0000
0000
0000
0000
,
0000
0000
0000
0000
,
0000
0000
0000
0000
,
3003
0000
0000
0000
;
