#TITLE:Turkey March;
#SUBTITLE:-Minimal Tunes-;
#ARTIST:Banya Production;
#TITLETRANSLIT:;
#SUBTITLETRANSLIT:;
#ARTISTTRANSLIT:;
#GENRE:;
#CREDIT:;
#MUSIC:Turkey March -Minimal Tunes-.ogg;
#BANNER:Turkey March -Minimal Tunes-.png;
#BACKGROUND:Turkey March -Minimal Tunes--BG.png;
#CDTITLE:;
#SAMPLESTART:73.466;
#SAMPLELENGTH:9.740;
#SELECTABLE:YES;
#OFFSET:-0.139;
#BPMS:0.000=130.000
,43.000=65.000
,45.000=130.000
,49.000=65.000
,51.000=130.000
;
#STOPS:;
#BGCHANGES:;
#FGCHANGES:;

//--------------- dance-single - Alex ----------------
#NOTES:
     dance-single:
     Alex:
     Beginner:
     1:
     0,0,0,0,0:
0000
0000
0000
0000
,
0000
0000
0000
0000
,
0001
0000
0000
0000
,
0001
0000
0000
0000
,
1000
0000
0000
0000
,
0010
0000
0000
0000
,
0100
0000
0000
0000
,
0010
0000
0000
0000
,
1000
0000
0000
0000
,
1000
0000
0000
0000
,
0001
0000
0000
0000
0000
0000
0000
1001
,
0000
0000
1000
0000
,
0000
0000
0000
1001
0000
0000
0000
0000
,
0010
0000
0000
0000
,
1000
0000
0000
0000
,
0100
0000
0000
0000
,
1000
0000
1000
0000
,
2000
0000
3000
0000
,
1001
0000
0000
0000
,
0010
0000
0010
0000
,
0010
0000
0000
0000
,
0100
0000
0100
0000
,
0100
0000
0000
0000
,
0010
0000
0010
0000
,
0010
0000
0000
0000
,
0001
0000
0001
0000
,
0001
0000
0000
0000
,
0001
0000
0000
0000
,
1000
0000
0000
0000
,
1000
0000
0000
0000
,
0010
0000
0000
0000
,
1000
0000
0000
0000
,
0100
0000
0000
0000
,
0100
0000
0000
0000
,
1001
0000
0000
0000
,
0010
0000
0000
0000
,
1000
0000
0000
0000
,
0001
0000
0000
0000
,
0000
0000
0000
0000
,
0110
0000
0000
0000
,
0010
0000
0000
0000
,
0001
0000
0000
0000
,
0001
0000
0000
0000
,
1000
0000
0000
0000
,
1000
0000
0000
0000
,
0100
0000
0000
0000
,
0100
0000
0000
0000
,
0001
0000
0000
0000
,
0001
0000
0000
0000
,
1000
0000
0000
0000
,
1000
0000
0000
0000
,
1001
0000
0000
0000
,
1001
0000
0000
0000
,
0100
0000
0100
0000
,
0200
0000
0300
0000
,
1001
0000
0000
0000
,
0010
0000
0000
0000
,
0001
0000
0000
0000
,
1000
0000
0000
0000
,
0001
0000
0000
0000
,
0100
0100
0100
0000
;

//--------------- dance-single - Alex ----------------
#NOTES:
     dance-single:
     Alex:
     Easy:
     3:
     0,0,0,0,0:
0000
0000
0000
0000
,
0000
0000
0000
0000
,
0001
0000
1000
0000
,
0001
0001
0001
0000
,
1000
0000
0001
0000
,
1000
0000
1001
0000
,
0010
0000
0100
0000
,
0010
0010
0010
0000
,
1000
0000
0100
0000
,
1000
0000
1001
0000
,
1000
0000
1000
0000
1000
0000
0000
2002
,
3003
0000
0001
0001
,
0001
0000
0000
2002
3003
0000
0000
0000
,
0100
0000
0010
0000
,
0100
0100
0100
0000
,
0001
0000
1000
0000
,
0001
0001
0002
0003
,
1000
0000
0001
0000
,
1001
0000
1001
0000
,
0010
0100
0010
0000
,
0110
0000
0110
0000
,
0100
0001
0100
0000
,
1001
0000
1001
0000
,
0010
1000
0010
0000
,
1010
0000
1010
0000
,
1000
0100
2000
3000
,
0001
0000
0001
0000
,
1000
0000
1000
0000
,
0010
0010
0100
0100
,
0001
0001
2000
3000
,
0001
0000
0010
0000
,
0001
0000
0100
0000
,
0001
0001
0100
0100
,
0010
0010
2000
3000
,
1001
0000
0110
0000
,
0001
1000
0001
0000
,
1001
0000
0110
0000
,
0010
0100
0020
0000
,
0030
0000
0000
0000
,
1000
0000
0001
0000
,
1000
1000
1000
0000
,
0001
0000
1000
0000
,
0010
0000
1010
0000
,
0100
0000
0100
0000
,
0010
0010
0010
0000
,
1000
0000
0001
0000
,
0010
0000
0001
0000
,
0100
0100
0100
0000
,
2002
0000
3003
0000
,
1000
1000
1000
0000
,
2002
0000
3003
0000
,
0001
0000
1000
0000
,
0010
0010
0010
0000
,
1000
0000
0100
0000
,
1000
0000
0001
0000
,
0101
0000
0101
0000
,
0100
0100
0100
0000
,
0010
0000
1000
0000
,
0001
0000
1000
0000
,
0010
0000
0100
0000
,
0001
1000
0001
0000
;

//--------------- dance-single - Alex ----------------
#NOTES:
     dance-single:
     Alex:
     Medium:
     6:
     0,0,0,0,0:
0000
0000
0000
0000
,
0000
0000
0000
0001
,
0001
1000
1000
0010
,
0010
0100
0010
0100
0020
0000
0030
0000
,
0100
0001
0010
0100
,
1000
0001
1001
1000
,
1000
0001
0001
1000
,
0100
1000
0100
1000
0200
0000
0300
0000
,
1000
0010
0100
0001
,
0010
0001
0101
0100
,
0100
0000
0010
1000
0010
0000
1000
0001
,
1000
0001
1000
0000
0001
0000
0000
0000
0100
0000
0000
0000
0010
0000
0100
0000
,
0010
0000
0000
0000
0100
0000
0001
0000
1000
0100
1000
0000
0001
0000
0000
0000
,
0001
0100
0100
0010
,
1000
0010
1000
0010
2000
0000
3000
0000
,
0001
0100
0010
1000
,
0001
0100
0110
0000
,
1001
M00M
0110
0MM0
,
1001
0001
0100
0010
,
1000
0100
1000
0001
,
0101
0100
0010
0100
,
0001
0010
0001
1000
,
1010
0010
0010
1000
,
0001
0100
0010
1000
,
1100
1000
0001
0100
,
0010
0100
0002
0003
,
1000
0001
0010
0100
,
1000
0100
1000
0000
0001
0100
0001
0000
,
1000
0010
1000
0001
,
0010
0001
0202
0303
,
0100
0001
0010
0001
,
0100
0010
0100
0000
0001
1000
0001
0000
,
1000
0100
1000
0010
,
1000
0001
2002
3003
,
0001
0000
0001
0000
0100
0001
0100
0000
,
0010
0000
0010
0000
1000
0100
1000
0000
,
0001
0100
0010
0100
,
0001
1000
2002
0000
,
3003
0000
0000
0001
,
0001
0100
0100
0010
,
0100
0010
0100
0010
0200
0000
0300
0000
,
0001
1000
0010
1000
,
0001
0100
0101
0100
,
0100
0010
0010
1000
,
0100
1000
0100
1000
0200
0000
0300
0000
,
1000
0001
0100
0010
,
1000
0001
1001
0001
,
0100
0000
0010
0100
0010
0000
1000
0000
,
0100
0000
1000
0100
1000
0000
0001
0000
,
0100
0000
0010
0100
0010
0000
1000
0000
,
0001
0000
0010
0001
0010
0000
0001
0000
,
0001
1000
1000
0010
,
0100
0010
0100
0010
0200
0000
0300
0000
,
0001
0010
0001
0100
,
0110
1001
0220
0330
,
0100
0001
0010
0100
,
1000
0001
0100
0010
,
1000
1000
0001
0001
,
0100
0010
0100
0001
,
0010
0100
1000
0001
,
0101
0110
2020
3030
;

//--------------- dance-single - Alex ----------------
#NOTES:
     dance-single:
     Alex:
     Hard:
     8:
     0,0,0,0,0:
0000
0000
0000
0000
,
0000
0000
0000
0000
0000
0000
1000
0001
,
2000
3000
0001
1000
0002
0003
1000
0001
,
0100
0001
1000
0010
0200
0300
0001
0010
,
0100
0010
0001
0100
0010
0100
0001
1000
,
0010
0100
0001
1000
0100
0000
1000
0001
,
2000
3000
0001
1000
0002
0003
0100
0001
,
0010
0100
1000
0001
0100
0000
0010
0010
,
0100
0001
0010
0100
1000
0001
1000
0010
,
1000
0001
1000
0100
2000
3000
0001
1000
,
0010
0000
0100
0000
0001
0010
0001
0000
0200
0000
0300
0000
0010
1000
0010
0100
,
0001
1000
0001
0000
0200
0000
0300
0000
0001
0000
0000
0000
0010
0000
0000
0000
0100
0000
0000
0000
1000
0000
0000
0000
0001
0000
0100
0000
0001
0000
0000
0000
,
2000
0000
0000
0000
3000
0000
0000
0000
0001
0000
0100
0000
0010
0000
0100
0000
0001
1000
0001
0000
2000
0000
3000
0000
0010
0000
0000
0000
0100
0000
0000
0000
,
0020
0030
0100
0010
0200
0300
0001
0010
,
0001
0100
0010
1000
0002
0003
1000
0100
,
1000
0001
0100
0010
0100
0001
0010
0100
,
1000
0001
0200
0300
,
1010
M0M0
0101
0M0M
,
1001
0000
0001
0100
0010
0100
0001
0010
,
0100
1000
0001
0100
0010
1000
0001
1000
,
1001
0000
0001
0001
0100
0010
1000
1000
,
0100
1000
0010
1000
0100
0000
1000
0010
,
1010
0000
0010
1000
0001
1000
0010
1000
,
0001
0010
0001
0100
0010
0100
0001
0100
,
0101
0000
0001
0001
0100
0010
0100
0001
,
0010
0100
1000
0001
0200
0000
0300
0000
,
0001
0000
1000
0000
0010
0000
0100
0000
0001
0000
1000
0000
0100
0000
1000
0100
,
1000
0000
0001
0000
0100
0000
0010
0100
0010
0000
0100
0000
0001
0000
0010
0001
,
0010
0001
0100
0010
0100
0001
0010
0100
,
1000
0001
0100
0010
0200
0000
0300
0000
,
0010
0000
0100
0000
0001
0000
0010
0000
0001
0000
1000
0000
0010
0000
1000
0010
,
1000
0000
0001
0000
1000
0000
0001
1000
0001
0000
0100
0000
0001
0000
0010
0100
,
1000
0001
0100
0010
0100
0001
1000
0010
,
0100
0001
0010
0001
2000
0000
3000
0000
,
0001
0000
0100
0000
0010
0000
0100
0001
0100
0000
0001
0000
1000
0000
0010
1000
,
0010
0000
1000
0000
0001
0000
0010
0001
0010
0000
0001
0000
0100
0000
0010
0000
,
0100
0000
0001
0000
1000
0000
0100
1000
0100
0000
1000
0000
0001
0000
1000
0001
,
1000
0000
0001
0000
0100
0000
0010
0100
0020
0000
0000
0000
0030
0000
0000
0000
,
1001
0000
0110
0000
1001
0000
0010
0100
,
0002
0003
1000
0100
2000
3000
0001
0010
,
0100
1000
0001
0100
0020
0030
0100
0100
,
0001
1000
0010
1000
0001
0010
0001
0100
,
0010
0100
0001
0010
0100
0000
1000
0001
,
2000
3000
0001
0010
0002
0003
1000
0010
,
1000
0001
1000
0100
2000
3000
0001
0001
,
1000
0010
1000
0001
0010
0001
0100
0010
,
0100
0001
0010
0100
1000
0000
0001
0100
,
0010
0000
0100
0000
0001
1000
0001
0000
2000
0000
3000
0000
0010
0000
0010
0000
,
1000
0000
0001
0000
0010
0001
0010
0000
0002
0000
0003
0000
0100
0000
0100
0000
,
0001
0000
1000
0000
0010
1000
0010
0000
2000
0000
3000
0000
0001
0000
1000
0000
,
0100
0000
0100
0000
1000
0001
1000
0000
0002
0000
0003
0000
0100
0000
0001
0000
,
0020
0030
0001
1000
0020
0030
1000
0001
,
0010
0100
1000
0001
0200
0300
0010
0010
,
1000
0001
0010
0001
1000
0010
1000
0001
,
0101
0110
2020
3030
,
1000
0100
0010
0000
0001
0100
0010
0000
,
0100
0001
0010
0100
1000
0001
0100
0010
,
0100
0100
0001
1000
0001
1000
0010
0100
,
0001
0001
1000
0100
0010
0001
0100
0010
,
0100
0001
0010
0100
1000
0001
0100
0010
,
0110
1001
0220
0330
;

//--------------- dance-single - Alex ----------------
#NOTES:
     dance-single:
     Alex:
     Challenge:
     11:
     0,0,0,0,0:
0000
0000
0000
0000
,
0000
0000
0000
0000
0000
0000
0000
0000
0000
0000
0000
0000
0001
1000
0010
0100
,
0002
0000
0003
0000
1000
0100
0010
0001
2000
0000
3000
0000
0001
0100
0010
0100
,
0001
0010
0100
1000
0001
1000
0010
0100
0002
0000
0003
0000
0100
0000
0010
0000
,
0100
0001
1001
0001
1000
0010
1010
1000
,
0001
0000
0100
0000
0010
0000
1000
0000
1001
0000
M00M
0000
0001
1000
0010
0100
,
0002
0000
0003
0000
1000
0100
0010
0001
2000
0000
3000
0000
0010
1000
0010
1000
,
0010
0100
0001
0010
0100
1000
0001
0100
0020
0000
0030
0000
0100
0000
0001
0000
,
1000
0010
1010
0010
1000
0001
0011
0001
,
0100
0010
0100
0001
0101
0M0M
0001
0100
,
0010
0000
0100
0000
0001
0010
0100
1000
0020
0000
0030
0000
1000
0010
0100
0001
,
1000
0001
0100
0010
0200
0000
0300
0000
0001
0000
0000
0000
0100
0000
0000
0000
0010
0000
0000
0000
1010
0000
0000
0000
1000
0000
0001
0000
0010
0000
0100
0000
,
2000
0000
0000
0000
3000
0000
0000
0000
0001
0000
1000
0000
0001
0000
0100
0000
0001
1000
0001
0100
0020
0000
0030
0000
0100
0000
0001
0000
0010
0000
0100
0000
,
2000
0000
3000
0000
0010
1000
0010
0100
0020
0000
0030
0000
0100
0001
0010
0100
,
1000
0001
0100
0001
1000
0010
1000
0001
0020
0000
0030
0000
0001
0000
0100
0000
,
0010
0100
0101
0001
0010
0100
1100
1000
,
1010
0000
0000
0010
0000
0000
0110
0000
0000
0100
0001
0100
0002
0000
0000
0000
0000
0000
0003
0000
0000
0000
0000
0000
,
2000
0000
3000
0000
0020
0000
0030
MMMM
,
1111
0000
1001
0001
0101
0100
0110
0010
,
1010
1000
1100
0100
0110
0100
1100
1000
,
1001
M00M
0101
0100
0110
0100
0101
0001
,
0011
0001
1001
1000
1010
M0M0
0110
0100
,
0101
0M0M
1001
1000
1001
0001
0101
0100
,
0110
0010
0110
0100
0101
0001
1001
1000
,
1010
M0M0
1010
1000
1100
1000
1001
0001
,
0011
0000
0001
0000
0101
0000
0100
0000
0220
0000
0330
0000
0001
0010
0100
1000
,
0001
0100
0010
0100
0001
1000
0010
1000
0001
0010
0001
1000
0010
0100
0001
1000
,
0100
0010
0100
1000
0001
0100
0010
0100
0001
0010
0100
1000
0001
0100
0010
0100
,
0001
0010
0001
1000
0010
1000
0001
1000
0100
1000
0001
0100
0001
0100
0010
0100
,
0001
0010
0100
1000
0010
0100
0010
1000
0002
0000
0000
0003
1000
0100
0010
0001
,
1000
0010
1000
0010
0100
0001
0100
0001
0010
0001
0100
0010
0100
0001
1000
0001
,
0100
0010
1000
0100
0010
0100
1000
0001
0100
0010
0100
0001
0010
0100
1000
0001
,
0100
0001
0100
0010
1000
0010
1000
0100
1000
0001
0100
0001
1000
0010
1000
0001
,
0010
0100
1000
0001
0100
0010
1000
0100
0020
0000
0000
0030
0001
0100
0010
0100
,
0001
1000
0001
0100
0001
0100
0010
1000
0100
0010
0100
1000
0001
1000
0010
1000
,
0001
0010
0001
0100
0001
0100
0010
0100
0002
0003
2000
3000
0010
1000
0010
1000
,
0100
0010
0001
0100
0010
0100
0001
0010
0100
1000
0001
0100
0010
0100
0001
0100
,
0001
1000
0010
1000
0001
0010
0001
0100
0020
0000
0000
0000
0030
0000
0000
0000
,
1000
0001
0000
0001
1000
0000
0001
0100
0001
0100
0000
0100
0010
1000
0001
0100
,
0020
0000
0000
0030
0100
0001
0010
0001
2000
0000
0000
3000
1000
0010
1000
0010
,
0100
0001
0010
0001
1000
0010
0100
0001
2000
0000
0000
3000
0001
0000
0100
0000
,
0010
0100
0101
0001
1000
0010
1010
1000
,
0001
0000
0100
0000
0010
0000
1000
0000
1001
0000
M00M
0000
0001
1000
0100
0010
,
0002
0000
0000
0003
0100
0001
0010
0100
2000
0000
0000
3000
0001
0100
0010
0100
,
0001
0010
0001
1000
0010
1000
0001
1000
0200
0000
0000
0300
1000
0000
0001
0000
,
0100
0010
0110
0100
0001
0100
0110
0010
,
1000
0001
1000
0001
1001
M00M
0001
0100
,
0010
0000
0100
0000
0001
1000
0010
0100
0002
0000
0000
0003
1000
0000
0100
0000
,
0010
0000
0100
0000
1000
0001
0100
0001
2000
0000
0000
3000
0010
0000
0010
0000
,
1000
0000
0001
0000
0010
0001
0010
0001
0020
0000
0000
0030
0001
0000
0100
0000
,
0010
0000
0100
0000
0001
1000
0001
1000
0002
0000
0000
0003
0100
0010
1000
0100
,
0020
0000
0000
0030
0001
1000
0010
1000
0020
0000
0000
0030
1000
0001
0010
0100
,
1000
0001
0100
0010
1000
0100
0010
0001
0200
0000
0000
0300
0001
0000
1000
0000
,
0010
1000
1100
1000
0001
0100
0110
0100
,
0001
0000
0000
1000
0000
0000
1001
0000
0000
0001
1000
0001
2000
0000
0000
3000
0000
0000
0001
0000
0000
0100
0000
0000
,
0110
0000
0010
1000
0100
0000
0010
0000
0001
0000
0100
0010
0100
0000
0001
0000
,
0010
0001
0100
0010
0100
0001
0010
0100
2000
0000
0000
3000
0002
0000
0000
0003
,
1000
1000
1001
0001
0100
0001
0101
0100
,
0010
0100
0101
0001
1000
0010
1010
1000
,
1001
0001
0010
0001
0101
0100
0110
0100
,
0101
0001
1001
1000
1111
0000
0000
0000
;
