#TITLE:The Devil;
#SUBTITLE:;
#ARTIST:Banya Production;
#TITLETRANSLIT:;
#SUBTITLETRANSLIT:;
#ARTISTTRANSLIT:;
#GENRE:;
#CREDIT:;
#MUSIC:The Devil.ogg;
#BANNER:The Devil.png;
#BACKGROUND:The Devil-BG.png;
#CDTITLE:;
#SAMPLESTART:79.750;
#SAMPLELENGTH:11.830;
#SELECTABLE:YES;
#OFFSET:-0.203;
#BPMS:0.000=130.000
,18.000=145.000
,20.000=130.000
,35.500=101.500
,36.000=140.000
,68.000=150.000
,100.000=160.000
,132.000=170.000
,164.000=180.000
,196.000=190.000
,212.000=200.000
,228.000=210.000
,244.000=220.000
,260.000=230.000
,268.000=240.000
;
#STOPS:;
#BGCHANGES:;
#FGCHANGES:;

//--------------- dance-single - Alex ----------------
#NOTES:
     dance-single:
     Alex:
     Beginner:
     2:
     0,0,0,0,0:
0000
0000
0000
0000
,
0010
0000
0000
0000
,
1000
0000
0000
0000
,
0001
0000
0010
0000
,
0001
0000
0000
0000
,
0100
0000
0000
0000
,
0010
0000
0000
0000
,
1000
0000
0010
0000
,
1000
0000
0000
0000
,
0001
0000
0000
0000
,
1000
0000
0000
0000
,
0001
0000
0100
0000
,
0001
0000
0000
0000
,
1000
0000
0000
0000
,
1000
0000
0000
0000
,
0001
0000
0100
0000
,
0001
0000
0000
0000
,
1001
0000
0000
0000
,
0010
0000
0000
0000
,
1000
0000
0010
0000
,
1000
0000
0000
0000
,
0001
0000
0000
0000
,
1000
0000
0000
0000
,
0100
0000
0100
0000
,
0100
0000
0000
0000
,
1001
0000
0000
0000
,
0010
0000
0000
0000
,
0001
0000
1000
0000
,
0001
0000
0000
0000
,
1000
0000
0000
0000
,
0001
0000
0000
0000
,
1000
0000
0100
0000
,
1000
0000
0000
0000
,
0001
0000
0000
0000
,
0001
0000
0000
0000
,
1000
0000
0000
0000
,
1000
0000
0010
0000
,
1000
0000
0000
0000
,
0001
0000
0000
0000
,
0100
0000
0000
0000
,
0010
0000
0010
0000
,
1001
0000
0000
0000
,
0001
0000
0000
0000
,
1000
0000
0000
0000
,
1000
0000
0001
0000
,
1000
0000
0000
0000
,
0100
0000
0000
0000
,
0010
0000
0000
0000
,
0001
0000
0100
0000
,
0001
0000
0000
0000
,
0000
1000
0000
0000
,
1001
0000
0000
0000
,
0110
0000
0000
0000
,
0010
0000
0010
0000
,
0010
0000
0000
0000
,
1000
0000
0000
0000
,
0001
0000
0000
0000
,
1000
0000
1000
0000
,
1000
0000
0000
0000
,
0001
0000
0000
0000
,
0100
0000
0000
0000
,
0110
0000
0000
0000
,
0000
1001
0000
0000
,
0001
0000
0000
0000
,
1000
0000
0000
0000
,
0001
0000
0001
0000
,
0001
0000
0000
0000
,
1000
0000
1000
0000
,
1000
0000
0000
0000
,
1001
0000
0000
0000
;

//--------------- dance-single - Alex ----------------
#NOTES:
     dance-single:
     Alex:
     Easy:
     4:
     0,0,0,0,0:
0000
0000
0000
0000
,
1000
0010
1000
0000
,
0001
0000
0100
0000
,
0010
0100
0001
0100
,
0010
0000
1001
0000
,
0001
1000
0001
0000
,
1000
0000
0001
0000
,
1000
0010
1000
0001
,
0100
0000
0110
0000
,
0100
0100
0001
0000
,
1000
0000
0001
0000
,
0001
0100
0001
0100
,
0010
0000
1010
0000
,
1000
1000
1000
0000
,
0001
0000
1000
0000
,
0001
0001
0100
0001
,
0010
0000
0011
0000
,
0001
0100
0001
0000
,
0100
0000
0010
0000
,
1000
0010
1000
0010
,
0100
0000
0110
0000
,
0100
0100
0100
0000
,
0010
0000
0010
0000
,
1000
1000
0001
0001
,
1000
0001
0100
0000
,
0001
0100
0001
0000
,
1000
0000
0010
0000
,
1000
0010
0100
0010
,
1000
0000
1010
0000
,
0010
0010
1000
0000
,
0001
0000
0100
0000
,
0001
0100
0010
0100
,
0001
0000
1001
0000
,
0001
1000
0001
0000
,
1000
0000
0001
0000
,
0010
0001
1000
0010
,
0100
0000
0110
0000
,
0010
0010
0010
0000
,
0100
0000
0001
0000
,
1000
0001
0010
0001
,
1000
0000
1001
0000
,
0001
0001
0100
0000
,
0010
0010
1000
0000
,
1000
0100
1000
0010
,
1000
0000
1010
0000
,
0010
0100
0010
0000
,
0100
0001
0100
0000
,
0001
1000
0001
0100
,
0010
0000
1001
0000
,
0001
2002
3003
0000
,
1000
2002
3003
0000
,
0001
0001
0100
0100
,
0010
0100
0001
0000
,
1000
0100
1000
0000
,
0001
0000
0100
0000
,
0010
0100
0001
0100
,
0010
0000
0110
0000
,
0010
0100
0010
0000
,
1000
0000
0010
0000
,
1000
0010
0100
0001
,
0010
0000
0011
0000
,
0001
2002
3003
0000
,
1000
2002
3003
0000
,
0001
1000
0001
0100
,
0001
1000
0010
0000
,
0100
0100
0001
0000
,
1000
0010
1000
0000
,
0001
0010
0100
0010
,
0001
0100
0010
0100
,
0001
1001
0000
0000
;

//--------------- dance-single - Alex ----------------
#NOTES:
     dance-single:
     Alex:
     Medium:
     7:
     0,0,0,0,0:
0000
0000
0000
0000
,
0001
0100
0001
0001
,
1000
1000
0010
0010
,
1000
0001
0010
0100
,
1000
0001
0100
0001
2000
0000
3000
0000
,
0001
0100
0010
0100
,
0001
0001
1000
1000
,
0001
0010
0100
0010
,
0001
0100
0001
0100
0002
0000
0003
0000
,
1000
0010
1000
0001
,
0100
0010
0100
0000
0010
0100
0010
0000
,
1000
0001
0010
0100
,
1000
0001
1000
0000
0002
0000
0003
0000
,
0100
0100
0001
0001
,
1000
0010
1000
0000
0001
0010
0001
0000
,
0100
0010
1000
0001
,
0100
0010
0100
0000
0020
0000
0030
0000
,
1000
1000
0001
0001
,
0010
0010
0001
0001
,
0100
0010
0100
0001
,
0010
0100
1000
0001
0200
0000
0300
0000
,
0010
0010
1000
1000
,
0001
0001
0010
0010
,
0001
0010
0001
0000
1000
0100
1000
0000
,
0001
0100
0010
0100
0002
0000
0003
0000
,
1001
0000
0110
0000
0010
0100
0001
0000
,
1000
0100
0010
0000
0001
0100
0010
0000
,
0100
0001
1000
0010
,
1000
0001
0010
0001
2000
0000
3010
0000
,
1010
0000
0101
0000
0001
0100
0001
0000
,
1000
0100
1000
0000
0010
0100
0010
0000
,
0100
0001
1000
0010
,
1000
0001
0010
0001
2000
0000
3000
0000
,
0101
0000
0101
0000
0100
0010
0100
0000
,
0001
0001
1000
1000
,
0100
1000
0100
0000
1000
0000
0010
0000
,
1000
0010
1000
0000
0220
0000
0330
0000
,
0001
0000
0001
0000
0100
0001
0100
0000
,
0001
0000
1000
0000
0010
1000
0010
0000
,
1000
1000
0001
0001
,
0010
0001
0100
0000
0220
0000
0330
0000
,
0010
0100
0001
1000
,
0001
0001
1000
1000
,
0100
1000
0010
0100
,
0001
1000
0010
0100
0002
0000
0003
0000
,
1000
0100
0001
0100
,
1000
1000
0001
0001
,
0100
0010
0100
0001
,
0010
0100
1000
0001
0200
0000
0300
0000
,
1000
0000
0001
0000
1000
0001
1000
0000
,
0001
0000
0100
0000
0010
0100
0010
0000
,
1000
0100
0010
0001
,
0101
0110
2020
3030
,
1000
0010
1000
0010
1000
0000
0001
0000
,
0100
0001
0100
0000
0001
1000
0001
0000
,
0010
0001
1000
0010
,
0100
0010
0100
0010
0200
0000
0300
0000
,
0001
1000
0001
1000
0001
0000
1000
0000
,
0010
1000
0010
0000
1000
0100
1000
0000
,
0001
0100
0010
0100
,
0001
1000
0010
0100
0002
0000
0003
0000
,
0001
0000
0100
0000
0001
0100
0001
0000
,
0100
0000
0010
0000
0100
0010
0100
0000
,
0001
0010
0100
0010
,
0001
0100
0020
0030
,
1000
0001
0010
0001
,
0100
0010
0100
0001
,
0100
0001
0100
0000
0010
1000
0010
0000
,
1000
0001
1000
0000
0001
0100
0010
0100
,
0001
2002
3003
0000
;

//--------------- dance-single - Alex ----------------
#NOTES:
     dance-single:
     Alex:
     Hard:
     9:
     0,0,0,0,0:
0000
0000
0000
0000
,
0001
0010
0100
1000
0001
0100
0010
0000
,
1000
0010
1000
0000
0001
0100
0001
0000
,
1000
0100
0010
0100
1000
0001
0100
0010
,
0100
0001
0010
0100
2000
0000
3000
0000
,
0001
0001
1000
1000
0010
0100
0001
0000
,
1000
0100
0010
0000
0001
0100
0010
0000
,
0100
0001
0100
0001
0010
0100
1000
0001
,
1000
0010
1000
0001
0020
0000
0030
0000
,
0001
0100
0001
1000
0010
0100
0001
0000
,
0001
1000
0100
0000
1000
0001
0100
0000
,
0010
1000
0001
0010
0001
1000
0010
0000
,
1000
0001
0100
0000
2002
0000
3003
0000
,
0001
0001
1000
1000
0010
0100
0001
0000
,
1000
0100
0010
0000
0001
0100
0001
0000
,
0100
0010
0100
0001
0010
0100
1000
0000
,
0001
1000
0010
0000
0220
0000
0330
0000
,
0010
0100
0010
0100
0001
0100
0010
0000
,
1000
0100
0010
0000
0001
0100
0010
0000
,
0100
0001
0100
0001
0100
0001
0100
0010
,
1000
0001
0010
0100
2000
0000
3000
0000
,
0001
1000
0001
1000
0001
0100
0001
0000
,
1000
0010
1000
0000
0001
0010
0001
0000
,
0100
0010
0100
0001
0010
0100
0010
0001
,
0100
0010
0100
0001
1000
0000
1001
0000
,
0001
0100
0001
0100
0010
1000
0100
0000
,
0010
0001
0100
0000
0010
0100
0001
0000
,
0100
0001
0100
0010
1000
0001
0010
0100
,
1000
0001
0100
0010
0100
0000
1001
0000
,
0001
0001
1000
1000
0010
0100
0001
0000
,
1000
0100
0010
0000
0001
0100
0010
0000
,
0100
0001
0100
0001
0010
0100
0010
0001
,
0100
0010
0100
0001
2000
0000
3000
0000
,
0001
0100
0001
1000
0010
0100
0001
0000
,
1000
0100
0010
0000
0001
1000
0010
0000
,
0100
0001
0010
0100
1000
0001
0100
0000
,
0010
0100
0001
0000
0202
0000
0303
0000
,
0001
0001
1000
1000
0010
0100
0001
0000
,
1000
0100
0010
0000
0001
0100
0010
0100
,
0001
0010
0100
1000
0001
1000
0010
0000
,
1000
0001
0010
0000
0001
0100
0010
0100
,
0001
0001
1000
1000
0010
0100
0001
0000
,
1000
0100
0010
0000
0001
0100
0010
0000
,
0100
0001
0100
0001
0010
0100
1000
0001
,
1000
0010
0100
0001
1000
0000
1001
0000
,
0001
0001
1000
1000
0010
0100
0001
0000
,
0010
0001
1000
0000
0010
1000
0001
0000
,
0100
0001
1000
0100
0010
0100
1000
0001
,
0100
0010
0100
0001
2000
0000
3000
0000
,
1001
0000
0110
0000
0010
0100
0001
0000
,
0101
0000
1010
0000
0010
1000
0010
0100
,
0001
0001
1000
1000
0001
0010
0001
1000
,
0010
0100
0001
1000
0200
0000
0300
0000
,
1000
0001
0100
0010
0100
0001
1000
0000
,
0001
0010
0001
0000
1000
0010
1000
0000
,
0001
0100
0010
0100
0001
0010
0100
1000
,
0001
0100
0010
0100
0001
0000
1001
0000
,
0001
0001
0100
0100
0010
0100
0001
0000
,
1000
0100
0010
0000
0001
0100
0010
0000
,
0100
0001
0100
0001
0010
0100
1000
0010
,
1000
0010
0100
0001
2000
0000
3000
0000
,
1001
0000
0110
0000
0010
0100
0001
0000
,
0101
0000
1010
0000
0010
1000
0010
0100
,
0010
0010
0100
0100
0001
0010
0100
1000
,
0001
0100
0010
1000
0002
0000
0003
0000
,
0100
0101
0001
1001
,
1000
1010
0010
0110
,
0100
0001
0010
0001
1000
0010
1000
0001
,
1000
0100
0010
0001
0100
0010
0100
0001
,
1000
2002
3003
0000
;

//--------------- dance-single - Alex ----------------
#NOTES:
     dance-single:
     Alex:
     Challenge:
     12:
     0,0,0,0,0:
0000
0000
0000
0000
,
0001
0100
0010
0100
0001
1000
1010
M0M0
,
0010
0100
0101
0M0M
0001
0010
0011
00MM
,
0001
0100
0010
0100
0001
0010
0100
0010
,
0001
0100
0010
0100
2MM2
0000
3MM3
M00M
,
0001
1000
0100
1000
0010
0100
0101
0M0M
,
0001
1000
1010
M0M0
0010
1000
1001
M00M
,
0001
0010
0100
0010
0001
0100
1000
0100
,
0001
0010
0001
1000
2M2M
0000
3M3M
M00M
,
0010
1000
0001
0100
0010
0100
0101
0M0M
,
0001
1000
1100
MM00
1000
0001
0011
00MM
,
0001
0100
0010
0100
0001
1000
1010
M0M0
,
0010
0100
0101
0M0M
2MM2
0000
3003
M00M
,
0001
0001
1000
1000
0010
1000
1010
M0M0
,
1000
0001
0011
00MM
0001
0100
0110
0MM0
,
0100
0001
0010
0100
1000
0001
1001
M00M
,
0001
0100
0101
0M0M
M22M
0000
0330
0MM0
,
0110
0000
0010
0000
0100
0001
0100
0001
0100
0000
0001
0000
1000
0000
M00M
0000
,
0001
0000
0010
0000
0100
1000
0001
0100
0010
0000
0100
0000
0001
0000
M00M
0000
,
1000
0000
0010
0000
1000
0001
0010
0100
1000
0000
0001
0000
0100
0000
0001
0000
,
0100
0010
1000
0001
2MM2
0000
3003
M00M
,
0001
0000
1000
0000
0010
0100
0001
0100
0020
0000
0030
00M0
1000
0001
0010
0100
,
2000
0000
3000
M000
0001
0100
0010
0100
0002
0000
0003
000M
0010
0001
0100
0010
,
0200
0000
0300
0M00
0001
1000
0010
0100
0001
0010
0100
1000
0001
0100
0010
0100
,
0001
0010
0100
1000
0001
1000
0010
0100
0001
0000
1000
0000
0001
0000
0100
0000
,
0101
0001
0100
0010
1000
0001
0011
00MM
,
0001
0100
0110
0MM0
0010
1000
1100
MM00
,
1000
1000
0001
0100
0010
0100
0001
1000
,
0001
0000
0010
0000
0100
0000
1000
0000
0001
1000
0010
0100
0001
1000
0100
0010
,
0001
0100
0001
1000
0010
0010
1010
M0M0
,
1000
0001
0101
0M0M
0001
0010
0011
00MM
,
0001
0100
0010
0100
0001
0010
0100
0010
,
0001
0000
0100
0000
0010
0000
0100
0000
0001
0010
0100
1000
0001
0100
0010
1000
,
0100
1000
0001
0100
0010
0100
0101
0M0M
,
0001
1000
1010
M0M0
1000
0001
0011
00MM
,
0001
0100
0010
0100
0001
1000
1001
M00M
,
0001
0000
0010
0000
0011
0000
00MM
0000
0101
0000
0M0M
0000
0010
1000
0001
0010
,
0001
0100
0001
1000
0010
1000
1001
M00M
,
0001
0000
0100
0000
0101
0000
0M0M
0000
0001
0000
0100
0010
0100
0001
0010
0100
,
1000
0001
0100
0010
1000
0001
1001
M00M
,
0001
0000
1000
0000
1100
0000
MM00
0000
1000
0001
0010
0001
0100
0010
1000
0001
,
0010
0001
0100
0010
0100
0001
1001
M00M
,
1000
0100
1100
MM00
1000
0010
1010
M0M0
,
0010
1000
0100
0010
0100
1000
0010
0001
,
0010
0000
1000
0000
0001
0000
0010
0000
0001
1000
0010
0100
0001
0010
0100
1000
,
0001
0100
0010
0100
0001
0010
0011
00MM
,
0001
1000
1010
M0M0
0010
0100
0101
0M0M
,
0001
1000
0100
0001
0100
1000
0010
0100
,
0001
1000
0010
0100
0001
0010
0100
1000
0001
0100
0010
0100
0001
1000
0100
0000
,
1001
M00M
0110
0MM0
0010
1000
1010
M0M0
,
0010
0100
0001
0100
0010
0000
00M0
0000
1000
0000
0001
0010
0001
0000
1000
0000
,
1010
0010
0100
0001
0101
0001
1000
0001
,
0010
0100
1000
0001
0100
0010
0100
0001
0010
0001
1000
0010
1000
0001
1000
0000
,
1001
0001
0100
0010
0100
0001
0101
0M0M
,
0001
1000
1010
M0M0
0010
1000
1100
MM00
,
1000
0001
0010
0001
1000
0010
0100
0100
,
0001
0000
0010
0000
0100
0000
1000
0000
0001
0010
0100
1000
0001
0100
0010
0100
,
0001
1000
0001
0100
0010
0100
0110
0MM0
,
0010
1000
1001
M00M
0001
0010
0011
00MM
,
0001
0100
0010
0100
0001
0010
0100
1000
,
0001
0010
0100
1000
0001
0100
0010
1000
0100
0010
0001
0100
0010
0100
0001
0000
,
1001
M00M
0110
0MM0
0010
1000
1010
M0M0
,
0010
1000
0010
1000
0010
0000
00M0
0000
0100
0000
0001
0100
0001
0000
0100
0000
,
0010
1000
0001
0010
0100
1000
0001
0100
,
0010
0100
0001
0010
0100
1000
0001
0100
0020
0000
0000
0000
0030
00M0
0000
0000
,
0100
0001
0010
0100
1000
0001
0100
0010
,
1000
0001
0010
0001
1000
0010
1000
0001
,
1000
0001
1000
0001
1000
0001
1000
0001
0100
0001
0100
0001
0100
0010
0100
0010
,
0100
0010
0100
0010
1000
0010
1000
0010
1000
0100
1000
0100
1000
0100
1000
0100
,
1000
M00M
2002
0000
3003
0000
0000
0000
;
