#TITLE:Terminal Depository;
#SUBTITLE:;
#ARTIST:Ururbu Project;
#TITLETRANSLIT:;
#SUBTITLETRANSLIT:;
#ARTISTTRANSLIT:;
#GENRE:;
#CREDIT:;
#MUSIC:Terminal Depository.ogg;
#BANNER:Terminal Depository.png;
#BACKGROUND:Terminal Depository-BG.png;
#CDTITLE:;
#SAMPLESTART:73.136;
#SAMPLELENGTH:11.966;
#SELECTABLE:YES;
#OFFSET:-0.216;
#BPMS:0.000=101.000
,76.000=138.000
,108.000=69.000
,116.000=138.000
,180.000=69.000
,184.000=138.000
;
#STOPS:;
#BGCHANGES:;
#FGCHANGES:;

//--------------- dance-single - Alex ----------------
#NOTES:
     dance-single:
     Alex:
     Beginner:
     1:
     0,0,0,0,0:
0000
0000
0000
0000
,
0000
0000
0000
0000
,
0000
0000
0000
0000
,
0100
0000
0000
0000
,
0001
0000
0000
0000
,
1000
0000
0000
0000
,
0010
0000
0000
0000
,
1000
0000
0000
0000
,
0001
0000
0000
0000
,
0200
0000
0000
0000
,
0300
0000
0000
0000
,
0001
0000
0000
0000
,
0100
0000
0000
0000
,
0001
0000
0000
0000
,
1000
0000
0000
0000
,
0010
0000
0000
0000
,
1000
0000
0000
0000
,
0002
0000
0000
0000
,
0003
0000
0000
0000
,
0110
0000
0000
0000
,
0010
0000
0000
0000
,
1000
0000
0000
0000
,
0001
0000
0000
0000
,
1000
0000
0000
0000
,
0100
0000
0000
0000
,
1000
0000
0000
0000
,
0010
0000
0000
0000
,
0200
0000
0300
0000
,
0020
0000
0030
0000
,
0001
0000
0000
0000
,
1000
0000
0000
0000
,
0001
0000
0000
0000
,
0100
0000
0000
0000
,
0110
0000
0000
0000
,
1000
0000
0000
0000
,
0001
0000
0000
0000
,
1000
0000
0000
0000
,
0001
0000
0000
0000
,
0010
0000
0000
0000
,
0010
0000
0000
0000
,
0001
0000
0000
0000
,
1001
0000
0000
0000
,
0001
0000
0000
0000
,
1000
0000
0000
0000
,
0100
0000
0000
0000
,
1000
0000
0000
0000
,
0010
0000
0000
0000
,
0100
0000
0000
0000
,
0020
0000
0030
0000
,
1001
0000
0000
0000
;

//--------------- dance-single - Alex ----------------
#NOTES:
     dance-single:
     Alex:
     Easy:
     3:
     0,0,0,0,0:
0000
0000
0000
0000
,
0000
0000
0000
0000
,
0000
0000
0000
0000
,
0001
0000
1000
0000
,
0002
0000
0003
0000
,
0100
0000
0010
0000
,
0200
0000
0300
0000
,
0020
0000
0030
0000
,
2000
0000
3000
0000
,
0001
0000
1000
0000
,
0002
0000
0003
0000
,
1000
0000
0100
0000
,
2000
0000
3000
0000
,
0010
0000
1000
0000
,
0002
0000
0003
0000
,
0200
0000
0300
0000
,
0020
0000
0030
0000
,
0000
1000
0000
1000
0000
1000
0000
0000
,
1001
0000
0000
0000
,
0010
0000
0100
0000
,
0001
0000
1000
0000
,
0001
0001
1000
1000
,
2002
0000
3003
0000
,
0010
0000
0100
0000
,
0010
0000
1000
0000
,
0100
0100
1000
1000
,
2002
0000
3003
0000
,
1001
0000
0110
0000
,
0011
0000
1100
0000
,
1000
0000
1000
0001
,
1000
0000
0001
0100
,
0001
0000
0100
0010
,
0200
0000
0300
0000
,
0110
0000
1001
0000
,
0011
0000
1100
0000
,
1000
1000
0001
0001
,
0200
0000
0300
0000
,
0110
0000
0110
0000
,
1010
0000
1100
0000
,
1000
1000
0001
0001
,
0020
0000
0030
0000
,
0001
0001
1000
1000
,
0200
0000
0300
0000
,
1000
1000
0010
0010
,
0200
0000
0300
0000
,
1001
0000
0000
0000
,
0001
0000
0001
0000
,
1000
1000
1000
1000
,
1001
0000
0000
0000
,
0110
0000
0000
0000
;

//--------------- dance-single - Alex ----------------
#NOTES:
     dance-single:
     Alex:
     Medium:
     5:
     0,0,0,0,0:
0000
0000
0000
0000
,
0000
0000
0000
0000
,
0000
0000
0000
0000
,
0010
0100
0001
1000
,
2002
0000
3003
0000
,
0001
0100
0010
1000
,
2200
0000
3300
0000
,
0022
0000
0033
0000
,
0202
0000
0303
0000
,
0100
0010
1000
0001
,
2002
0000
3003
0000
,
1000
1000
0001
0001
,
0202
0000
0303
0000
,
0100
0100
0010
0010
,
2020
0000
3030
0000
,
2002
0000
3003
0000
,
0022
0000
0033
0000
,
0000
0100
0000
0100
0000
0100
0000
0010
,
0100
0000
0000
0000
,
0011
0001
0100
0010
,
1000
0001
1000
1000
,
0001
0100
0010
0100
,
0001
0000
1000
0010
1000
0010
1000
0000
,
0001
1000
0001
0001
,
1000
0010
0100
0100
,
0001
0010
0100
0010
,
0001
0000
0100
0001
0100
0001
0100
0000
,
0220
0330
2020
3030
,
2200
0000
3300
0000
0022
0033
1000
0001
,
1001
0000
0001
0000
0100
0000
0010
1000
,
0001
0000
0010
0000
0001
0000
1000
0010
,
0100
0000
0001
0000
1000
0000
0100
0010
,
0002
0000
0100
0103
,
1001
0001
1000
1000
,
0010
1000
0001
0001
,
0100
0010
0100
0001
,
1000
0000
0100
1000
0100
1000
0100
0000
,
1000
1000
0010
1000
,
0001
0001
1000
1000
,
0010
0100
0001
0001
,
0100
0000
0010
0100
0010
0100
0010
0000
,
0110
0000
0010
0000
0100
0001
0100
0001
,
0100
0001
1000
0010
,
1010
0000
1000
0000
0001
1000
0001
1000
,
0001
0100
0010
1000
,
2002
0000
3003
0000
,
0001
0001
1000
1000
,
0010
0100
0010
0000
0100
0010
0100
0000
,
0220
0000
0330
0000
,
1000
0001
0000
0000
0000
0000
0000
0000
;

//--------------- dance-single - Alex ----------------
#NOTES:
     dance-single:
     Alex:
     Hard:
     8:
     0,0,0,0,0:
0000
0000
0000
0000
,
0000
0000
0000
0000
,
0000
0000
0000
0000
,
0001
0000
0000
0000
0001
0000
0000
0000
0001
0000
0000
0000
0001
0000
0001
1000
,
0020
0030
0000
0000
,
1000
0000
0000
0000
1000
0000
0000
0000
1000
0000
0000
0000
1000
0000
1000
0001
,
0020
0030
0000
0000
,
0022
0033
0000
0000
,
2200
3300
0000
0000
,
0010
0000
0000
0000
0010
0000
0000
0000
0010
0000
0000
0000
0010
0000
0010
1000
,
0002
0003
0000
0000
,
1000
0000
0000
0000
1000
0000
0000
0000
1000
0000
0000
0000
1000
0000
1000
0001
,
2000
3000
0000
0000
,
0001
0000
0000
0000
0001
0000
0000
0000
0001
0000
0000
0000
0001
0000
0001
1000
,
0200
0300
0000
0000
,
2002
3003
0000
0000
,
0220
0330
0000
0000
,
0000
0010
0100
0010
0100
0010
0100
0010
,
0220
0330
0000
0000
,
0001
0000
0001
1000
0010
0100
0002
0003
,
2000
3000
0001
0010
0100
1000
0020
0030
,
0200
0300
0001
0010
0001
0100
0010
0100
,
0001
0100
0001
1000
0010
1000
0001
1000
,
0200
0300
1000
0001
0100
0010
2000
3000
,
0020
0030
0100
0001
0010
0001
0200
0300
,
0002
0003
1000
0010
0100
0001
1000
0100
,
1000
0010
1000
0010
1000
0001
0100
0010
,
2000
0000
0000
3000
0002
0000
0000
0003
,
0200
0000
0000
0300
0020
0030
2000
3000
,
0001
0000
0001
0000
0001
0100
0010
0100
,
0001
0000
0001
0000
1000
0100
1000
0010
,
1000
0000
1000
0000
0010
0100
0001
1000
,
0010
0100
2002
3003
,
0001
0000
1000
0010
0100
0001
2000
3000
,
0002
0003
0010
0001
0100
0010
0200
0300
,
0002
0003
1000
0100
0010
0001
1000
0010
,
0100
0010
0100
0001
0100
0001
1000
0010
,
1000
0000
0001
1000
0010
0100
0002
0003
,
2000
3000
0001
0100
0001
0010
0002
0003
,
2000
3000
0010
1000
0100
1000
0010
1000
,
0001
1000
0001
0100
0010
0100
0001
1000
,
0020
0030
0100
0001
0010
0100
1000
0001
,
0200
0300
0002
0003
2000
3000
0020
0030
,
0200
0300
0001
0010
0100
1000
0001
0100
,
0020
0030
2000
3000
0002
0003
0020
0030
,
2002
0000
0000
3003
,
0001
1000
0001
1000
0001
1000
0010
0100
,
0010
0000
0000
0010
1000
0000
0000
1000
0001
0000
0000
0001
0100
0000
0000
0100
,
0020
0000
0030
0000
,
1001
1001
0000
0000
0000
0000
0000
0000
;

//--------------- dance-single - Alex ----------------
#NOTES:
     dance-single:
     Alex:
     Challenge:
     9:
     0,0,0,0,0:
0000
0000
0000
0000
,
0000
0000
0000
0000
,
0000
0000
0000
0000
,
1001
0000
0000
0000
1010
0000
0000
0000
0101
0000
0000
0000
0011
0000
0001
0100
,
0220
0000
0330
0000
,
0101
0000
0000
0000
0011
0000
0000
0000
1001
0000
0000
0000
1010
0000
1000
0010
,
2020
0000
3030
0000
,
2002
0000
3003
0000
,
0220
0000
0330
0000
,
0011
0000
0000
0000
0101
0000
0000
0000
0110
0000
0000
0000
1010
0000
1000
0001
,
2002
0000
3003
0000
,
0011
0000
0000
0000
0101
0000
0000
0000
1010
0000
0000
0000
1100
0000
0010
0001
,
0022
0000
0033
0000
,
0101
0000
0000
0000
0110
0000
0000
0000
1010
0000
0000
0000
1001
0000
0001
1000
,
2002
0000
3003
0000
,
0022
0000
0033
0000
,
2200
0000
3300
0000
,
0001
1000
0001
0100
0010
0100
0001
1000
,
2200
0000
3300
0000
,
1001
0000
0001
0000
0100
0000
0010
0000
0100
0000
0001
0000
1000
0000
0010
0100
,
0001
0000
0010
0000
0100
0000
1000
0000
0001
0000
0100
0000
0010
0000
1000
0100
,
1000
0000
0001
0000
0100
0000
0010
0000
0100
0000
0001
0000
1000
0010
1000
0001
,
0100
0000
0001
0010
0100
0000
1000
0000
1010
0000
1000
0000
1001
0000
0001
1000
,
0010
0000
0100
0000
0001
0000
0010
0000
0100
0000
1000
0000
0001
0000
0100
0001
,
0100
0000
0001
0000
0100
0000
0010
0000
0100
0000
0001
0000
1000
0000
0010
1000
,
0010
0000
1000
0000
0001
0000
1000
0000
0010
0000
0100
0000
0001
1000
0001
1000
,
0100
0000
0010
0001
0100
0000
0001
0000
0001
0000
0101
0000
0001
0100
0010
0100
,
0002
0003
2000
0000
3000
0010
1000
0001
0200
0300
0020
0000
0030
0100
0001
0010
,
0200
0300
2000
0000
3000
0001
1000
0010
0200
0000
0000
0300
0001
0010
0100
1000
,
0001
1000
0020
0030
0100
0001
0020
0030
0001
1000
0020
0030
1000
0100
0020
0030
,
0001
0100
0002
0003
0010
0001
0020
0030
0001
1000
0002
0003
1000
0010
2000
3000
,
0001
1000
0200
0300
0010
0001
0020
0030
0001
0100
0020
0030
0100
0001
2000
3000
,
0010
1000
0200
0300
1000
0001
2000
3000
0001
0100
0002
0003
1000
0010
0200
0300
,
1001
0000
0001
0000
0100
0000
0010
0000
0100
0000
0001
0000
1000
0000
0010
1000
,
0100
0000
0010
0000
0001
0000
0100
0000
0010
0000
0100
0000
0001
0000
1000
0001
,
0100
0000
0001
0000
0100
0000
0010
0000
0100
0000
0001
0000
0010
0100
1000
0001
,
0100
0000
0010
0100
0001
0000
0100
0000
0110
0000
0010
0000
1010
0000
1000
0001
,
1000
0000
0001
0000
0100
0000
0010
0000
1000
0000
0001
0000
0010
0000
0100
1000
,
0100
0000
1000
0000
0010
0000
1000
0000
0001
0000
1000
0000
0010
0000
0100
0001
,
0010
0000
0001
0000
0100
0000
0010
0000
0100
0000
0001
0000
1000
0010
1000
0001
,
1000
0000
0001
0100
0001
0000
0100
0000
0001
0000
1001
0000
0001
1000
0010
0100
,
0001
0000
1000
0001
0100
0000
0001
0000
1000
0000
0010
0100
0001
0000
0010
0000
,
0100
0000
1000
0100
1000
0000
0010
0000
1000
0000
1001
0000
0001
1000
0010
0100
,
0001
0000
0100
0001
0100
0000
0001
0000
1000
0000
0010
1000
0001
0000
0010
0000
,
0001
0000
1000
0010
0100
0000
0001
0000
1000
0000
1010
0000
0010
1000
0001
0100
,
0220
0000
0330
0000
,
1000
0100
0010
0001
0100
0010
0100
0001
,
1000
0000
0010
0100
0010
0000
1000
0001
1000
0000
0001
0100
0001
0000
1000
0010
,
0220
0000
0330
0000
,
1001
1001
0000
0000
0000
0000
0000
0000
;
