#TITLE:Tepris;
#SUBTITLE:;
#ARTIST:Doin;
#TITLETRANSLIT:;
#SUBTITLETRANSLIT:;
#ARTISTTRANSLIT:;
#GENRE:;
#CREDIT:;
#MUSIC:Tepris.ogg;
#BANNER:Tepris.png;
#BACKGROUND:Tepris-BG.png;
#CDTITLE:;
#SAMPLESTART:43.100;
#SAMPLELENGTH:13.000;
#SELECTABLE:YES;
#OFFSET:-0.117;
#BPMS:0.000=145.000
,112.000=72.500
,128.000=145.000
,224.000=72.500
;
#STOPS:;
#BGCHANGES:;
#FGCHANGES:;

//--------------- dance-single - Alex ----------------
#NOTES:
     dance-single:
     Alex:
     Beginner:
     1:
     0,0,0,0,0:
0000
0000
0000
0000
,
0000
0000
0000
0000
,
0000
0000
0000
0000
,
0000
0000
0000
0000
,
1000
0000
0000
0000
,
0001
0000
0000
0000
,
1000
0000
0000
0000
,
0010
0000
0000
0000
,
0100
0000
0000
0000
,
0010
0000
0000
0000
,
0001
0000
0000
0000
,
0001
0000
0000
0000
,
1001
0000
0000
0000
,
1000
0000
0000
0000
,
0010
0000
0000
0000
,
0010
0000
0000
0000
,
1000
0000
0000
0000
,
0100
0000
0000
0000
,
1000
0000
0000
0000
,
2002
0000
3003
0000
,
0110
0000
0000
0000
,
0001
0000
0000
0000
,
1000
0000
0000
0000
,
0100
0000
0000
0000
,
1000
0000
0000
0000
,
0010
0000
0000
0000
,
1000
0000
0000
0000
,
0001
0000
0000
0000
,
1001
0000
0000
0000
,
0110
0000
0000
0000
,
0110
0000
0000
0000
,
1001
0000
0000
0000
,
0010
0000
0000
0000
,
1000
0000
0000
0000
,
0001
0000
0000
0000
,
0001
0000
0000
0000
,
1000
0000
0000
0000
,
0010
0000
0000
0000
,
0100
0000
0000
0000
,
0220
0000
0330
0000
,
1001
0000
0000
0000
,
0001
0000
0000
0000
,
1000
0000
0000
0000
,
0010
0000
0000
0000
,
0010
0000
0000
0000
,
1000
0000
0000
0000
,
1000
0000
0000
0000
,
0100
0000
0000
0000
,
1001
0000
0000
0000
,
0001
0000
0000
0000
,
1000
0000
0000
0000
,
0010
0000
0000
0000
,
1000
0000
0000
0000
,
0001
0000
0000
0000
,
0001
0000
0000
0000
,
0100
0000
0000
0000
,
0110
0000
0000
0000
,
1001
0000
0000
0000
,
1001
0000
0000
0000
,
0110
0000
0000
1001
;

//--------------- dance-single - Alex ----------------
#NOTES:
     dance-single:
     Alex:
     Easy:
     3:
     0,0,0,0,0:
0000
0000
0000
0000
,
0000
0000
0000
0000
,
0000
0000
0000
0000
,
0000
0000
0000
0000
,
0001
0000
1000
0000
,
0010
0000
0100
0000
,
0010
0000
1000
0000
,
0001
0001
0001
0000
,
1000
0000
0100
0000
,
1000
0000
0010
0000
,
1000
0000
1000
0000
,
0100
0100
0100
0000
,
2000
0000
3000
0001
,
0200
0300
0020
0030
,
1000
1000
0001
0001
,
0020
0000
0030
0000
,
0002
0003
0100
0100
,
0020
0030
1000
0001
,
2000
3000
0001
0100
,
0020
0000
0030
0000
,
1001
0000
0001
0000
,
0100
0000
0001
0000
,
1000
0000
1000
0000
,
0010
0000
0100
0000
,
0010
0000
1000
0000
,
0100
0000
0100
0000
,
1000
0000
0001
0000
,
0100
0100
0100
0100
,
0100
0010
0100
0001
,
1000
0010
0200
0300
,
0001
0001
0100
0100
,
0010
0010
2000
3000
,
0002
0003
0200
0300
,
0020
0030
0200
0300
,
0001
1000
0001
0010
,
0200
0000
0300
0000
,
2000
0000
3000
0001
,
0002
0000
0003
0100
,
0200
0300
0020
0030
,
0200
0000
0300
0000
,
0110
0000
0010
0000
,
1000
0000
0001
0000
,
1000
0000
0100
0000
,
1000
0000
1000
0000
,
0001
0000
0010
0000
,
0001
0000
0100
0000
,
0010
0000
0100
0000
,
2002
0000
3003
0000
,
1001
0000
0001
0000
,
0100
0000
0010
0010
,
0010
0000
1000
0000
,
0001
0000
1000
1000
,
1000
0000
0001
0000
,
0100
0000
0010
0010
,
0010
0000
0100
0000
,
0001
0000
1000
1000
,
1000
0001
1000
0010
,
0100
0010
0200
0300
,
0001
1000
0002
0003
,
1000
0010
0100
0200
,
0300
0000
0000
0000
;

//--------------- dance-single - Alex ----------------
#NOTES:
     dance-single:
     Alex:
     Medium:
     5:
     0,0,0,0,0:
0000
0000
0000
0000
,
0000
0000
0000
0000
,
0000
0000
0000
0000
,
0000
0000
0000
0000
,
0001
0001
1000
1000
,
0010
0010
0100
0100
,
0001
0010
0100
0010
,
0001
0100
0110
0000
,
0010
1000
0100
0010
,
0001
1000
0001
0001
,
1000
0010
0100
0001
,
1000
0001
0101
0000
,
0200
0300
0010
1000
,
0002
0003
2000
3000
,
0001
0010
0100
1000
,
0020
0000
0100
0130
,
0002
0003
1000
0100
,
2000
3000
0010
0100
,
0020
0030
1000
0001
,
2002
0000
3003
0000
,
1001
0001
0100
0010
,
1000
0100
0010
0000
,
0001
0100
0010
0100
,
0001
1000
0001
0000
,
1000
1000
0100
1000
,
0010
1000
0001
0000
,
1000
1000
0001
0100
,
0010
1000
0001
0010
,
0011
0101
0110
1010
,
1100
0000
0110
0000
1001
1001
1001
0000
,
0101
0110
1010
1100
,
1001
0000
0011
0000
0110
0110
0110
0000
,
2000
3000
0002
0003
,
0200
0300
0020
0030
,
1000
0001
0010
0100
,
2000
3000
1001
0000
,
0002
0000
0003
0100
,
0020
0000
0030
1000
,
0002
0003
2000
3000
,
2002
0000
3003
0000
,
1001
0001
1000
0010
,
1000
0001
0010
0000
,
0001
0100
0010
0100
,
0001
0001
1000
0000
,
0100
1000
0010
1000
,
0001
0100
0010
0000
,
1000
0001
0010
0001
,
0100
0100
0110
0000
,
1001
0001
0001
1000
,
1000
0010
1000
0001
,
0100
0100
0010
0010
,
1000
0100
0010
0100
,
1000
0001
0100
0100
,
0001
0010
0001
1000
,
0010
1000
0001
0100
,
0010
0010
0100
0100
,
1001
0011
0101
0110
,
1010
0000
1100
0000
1001
1001
1001
0000
,
0110
0000
0101
0000
1010
0000
0101
0101
,
0101
0000
0110
0000
1001
1001
1001
0000
;

//--------------- dance-single - Alex ----------------
#NOTES:
     dance-single:
     Alex:
     Hard:
     8:
     0,0,0,0,0:
0000
0000
0000
0000
,
0000
0000
0000
0000
,
0000
0000
0000
0000
,
0000
0000
0000
0000
,
0002
0003
1000
0100
2000
3000
0010
0100
,
0020
0030
0100
0001
0200
0300
0001
0010
,
0002
0003
1000
0010
2000
3000
0002
0003
,
0200
0300
0020
0030
2000
0000
3000
0000
,
0001
0100
0000
0100
0001
0000
1000
0010
,
0200
0000
0300
0001
0020
0030
0001
1000
,
0020
0030
1000
0001
0020
0030
0002
0003
,
0200
0300
0020
0030
2002
0000
3003
0000
,
0001
0000
1000
0000
0001
0100
0001
0100
,
0010
0000
1000
0100
0010
0000
0001
0000
,
1000
1000
0001
0001
0100
0010
1000
0001
,
0010
0000
2002
3003
,
2000
0000
3000
0001
1000
0100
1000
0010
,
0200
0000
0300
0001
0010
0000
0010
0001
,
2000
0000
3000
0001
1000
0010
0100
0002
,
2000
0000
3003
0000
,
0001
1000
0010
1000
0001
0100
0001
0010
,
0100
1000
0001
1000
0010
1000
0001
0000
,
1000
0100
1000
0010
0100
0001
0010
0100
,
0010
0001
0100
0010
0100
0001
1000
0000
,
0001
0001
1000
0010
1000
0001
1000
0100
,
0010
0100
1000
0001
0100
0010
1000
0000
,
0001
0010
0100
0010
0001
0100
0010
0100
,
0001
0001
1000
1000
0001
1000
0010
0100
,
0001
0000
1000
0100
1000
0000
0010
0100
0010
0000
0100
0001
0100
0000
0001
0010
,
0001
0000
1000
0010
1000
0000
0001
0000
0100
0000
0010
0000
0200
0000
0300
0000
,
0001
0000
1000
0100
1000
0000
0001
0100
0001
0000
0100
0010
0100
0000
0001
1000
,
0001
0000
1000
0010
1000
0000
0001
0000
1000
0000
0100
0000
0020
0000
0030
0000
,
0002
0103
2000
3010
,
0002
0013
2000
3100
,
1000
0000
0001
0000
0100
0000
0010
0000
1000
0000
0001
1000
0001
0000
0100
0000
,
0010
1000
0001
0100
,
0020
0000
1030
0000
2000
0000
3100
0010
,
0002
0000
0203
0000
0310
1000
0001
0010
,
0002
0000
0000
0003
2000
0000
0000
3000
,
2002
0000
3003
0000
,
0001
0100
0010
0100
0001
0010
0100
0010
,
0001
0100
0010
0100
0001
1000
0010
0000
,
1000
1000
0001
0100
0010
0100
0001
1000
,
0100
0010
0100
1000
0001
1000
0001
0000
,
0100
0100
0001
0010
0100
0010
0001
1000
,
0010
1000
0001
1000
0001
0100
0010
0000
,
1000
0001
0010
0100
1000
0001
0100
0010
,
0100
0100
0001
0001
1000
0010
0100
0000
,
0001
0010
0100
1000
0001
0100
0010
1000
,
0001
0010
0001
1000
0010
1000
1001
0000
,
0001
0100
0010
0100
0001
0010
0100
0010
,
0001
1000
0010
1000
0100
1000
1010
0000
,
0010
0010
1000
0001
0100
0100
0001
0001
,
1000
0100
0010
0100
1000
0001
0101
0000
,
0100
0100
0001
1000
0010
0010
1000
0001
,
0010
0100
1000
0001
0100
0010
1000
0001
,
0010
0000
0001
0010
0001
0000
0100
0001
0100
0000
0010
0100
0010
0000
1000
0010
,
1000
0000
0001
1000
0001
0000
0100
0000
0010
0000
1000
0000
0002
0000
0003
0000
,
0100
0001
0000
0001
0100
0000
0100
0010
0200
0000
0300
0010
1000
0001
0100
0010
,
1000
0000
0001
0100
0001
0000
1000
0000
0010
0000
0100
0000
2002
0000
0000
0000
,
3003
0000
0000
0000
;

//--------------- dance-single - Alex ----------------
#NOTES:
     dance-single:
     Alex:
     Challenge:
     11:
     0,0,0,0,0:
0000
0000
0000
0000
,
0000
0000
0000
0000
,
0000
0000
0000
0000
,
0000
0000
0000
0000
,
0002
0000
0000
0003
2000
3000
0020
0030
0200
0000
0000
0300
0002
0003
0020
0030
,
0002
0000
0000
0003
0200
0300
0020
0030
2000
0000
0000
3000
0002
0003
2000
3000
,
0200
0000
0000
0300
2000
3000
0020
0030
0200
0000
0000
0300
0002
0000
0000
0003
,
0020
0000
0000
0030
0200
0000
0000
0300
2000
0000
0000
0000
0000
0000
0000
3000
,
0110
0202
0303
1001
2020
3030
0001
0100
,
0220
0000
0330
0000
0020
0030
2000
3000
0200
0000
0000
0300
2000
3000
0020
0030
,
0002
0000
0000
0003
0200
0300
2000
3000
0200
0000
0000
0300
0002
0000
0000
0003
,
0020
0000
0000
0030
2000
0000
0000
3000
0001
0010
0100
1000
0001
0010
0001
1000
,
2020
0000
3030
0100
0001
0000
0100
0000
0010
0000
0100
0000
0001
0000
1000
0000
,
0002
0000
0003
1000
0100
0000
1000
0000
0010
0000
0100
0000
0100
0000
0001
0000
,
2002
0000
0000
3003
0220
0000
0000
0330
0022
0000
0000
0033
2200
0000
0000
3300
,
0202
0000
0000
0303
2020
0000
0000
3030
0001
0100
0010
0100
0001
0010
0100
1000
,
0002
0000
0003
1000
0010
0000
1000
0000
0001
0000
0100
0000
1000
0000
0100
0000
,
0002
0000
0003
0010
0001
0000
0100
0000
0010
0000
0100
0000
0001
0000
1000
0000
,
0200
0000
0300
1000
0010
0000
1000
0000
0001
0000
1001
0000
1000
0000
1100
0000
,
1000
0001
1000
0010
0100
0001
0100
0001
0010
0100
1000
0001
0200
0000
0000
0300
,
0010
1000
0010
1000
0010
1000
0001
0100
0010
0100
0001
0100
0001
0010
0001
1000
,
0010
1000
0001
1000
0100
0010
0001
0100
0010
0100
0001
0010
0100
1000
0001
0000
,
1000
0010
1000
0001
1000
0010
0100
0010
1000
0100
0010
0100
1000
0001
0100
0001
,
0100
0010
0100
0001
0010
0001
1000
0001
0100
0001
1000
0010
0100
0001
0100
0000
,
0010
0100
0001
0010
0001
1000
0010
1000
0001
1000
0100
0010
0001
1000
0010
0100
,
0001
0100
0001
1000
0010
1000
0010
0100
0010
0100
0001
0010
0100
1000
0001
0000
,
1000
0010
1000
0010
1000
0001
0100
0001
0100
0010
0100
0001
0010
0100
1000
0001
,
0100
0010
1000
0100
0010
0001
1000
0010
0100
0001
0010
0100
1000
0001
0100
0010
,
M11M
0000
0001
1000
1MM1
0000
0001
0100
M1M1
0000
1000
0001
1MM1
0000
0010
1000
,
1MM1
0000
0001
0100
M11M
0000
1M1M
0000
11MM
0000
MM11
0000
2222
0000
3333
0000
,
1MM1
0000
0001
0010
MM11
0000
0001
1000
11MM
0000
1000
0010
1M1M
0000
0010
0100
,
M11M
0000
1000
0100
11MM
0000
MM11
0000
M1M1
0000
M11M
0000
2222
0000
3333
0000
,
0001
0000
0100
0010
0100
0000
1000
0000
0100
0000
0010
0000
0100
0000
1000
0000
,
0010
0000
0001
0010
0001
0000
0010
0000
1000
0000
0100
0000
1000
0000
0010
0000
,
0110
0000
0100
0000
0101
0000
0100
0000
1001
0000
0001
1000
0010
0000
1000
0000
,
1001
0000
0001
0000
0101
0000
0100
0000
0010
0100
0010
0100
0001
0010
0100
1000
,
0001
0000
1000
0010
1000
0000
0001
0000
0100
0000
1000
0000
0100
0000
0001
0000
,
0010
0000
0001
0010
0001
0000
0100
0000
0010
0000
0100
0000
0001
0000
0010
0000
,
0100
0000
1000
0001
0100
0000
0010
0000
0110
0000
0100
0001
1000
0000
0001
0000
,
1001
0000
0001
1000
0010
0000
0100
0000
0001
0010
0100
1000
0001
0010
0001
0000
,
0100
0001
0100
0010
0100
0001
0010
0001
1000
0010
1000
0001
1000
0100
1000
0010
,
0100
0001
0010
0100
1000
0001
0100
0010
0100
0001
0010
0001
1000
0010
0100
0000
,
0001
0100
0001
1000
0001
0010
0001
1000
0010
1000
0100
1000
0010
0100
0001
0010
,
0100
0010
0001
0100
0010
0100
0001
1000
0001
0100
0001
0100
0010
0100
0001
0000
,
1000
0100
0010
0001
1000
0010
1000
0001
0010
0001
0100
0001
0100
0010
1000
0100
,
0010
0100
1000
0001
0100
0010
0100
0001
0010
0100
1000
0010
0100
0010
0100
0000
,
0001
0100
0001
0100
0001
0010
0100
0010
0001
0100
0010
0100
0001
0010
0100
1000
,
0001
1000
0010
1000
0001
1000
0100
0010
0001
0100
0010
0100
0001
1000
0001
0000
,
0010
0001
0100
0010
1000
0100
0010
0100
1000
0001
0100
0010
0100
0001
0010
0100
,
1000
0001
0010
0001
1000
0010
1000
0001
1000
0100
0010
0001
0100
0010
0100
0001
,
0010
0100
1000
0001
0100
0010
1000
0100
0010
0100
1000
0001
1000
0001
0100
0001
,
0100
0010
0100
0010
1000
0010
1000
0001
0010
0100
1000
0001
0100
0010
0100
0001
,
0010
0100
0010
0001
1000
0100
0010
0001
1000
0010
1000
0001
0100
0010
1000
0100
,
0010
0001
1000
0001
0010
0100
1000
0001
1000
0001
0100
0001
1000
0010
1000
0001
,
0010
0001
0100
0010
0100
0001
0010
0100
1000
0001
0100
0001
1000
0010
0100
0001
,
0010
0100
1000
0001
0100
0010
1000
0100
0010
0001
0100
0010
0100
0001
1000
0001
,
M1M1
0000
0100
0010
M11M
0000
0100
0001
1MM1
0000
1000
0010
1M1M
0000
0010
0100
,
M1M1
0000
0001
1000
1MM1
0000
MM11
0000
M1M1
0000
M11M
0000
2M2M
0000
3030
0000
,
1M1M
0000
1001
0000
0000
0000
0101
0000
M11M
0000
0000
0000
0010
0000
1000
0000
11MM
0000
0000
0000
0010
0000
0001
0000
M100
0000
0010
0100
0001
0000
0100
0000
,
M11M
0000
1000
0001
MM11
0000
M1M1
0000
1MM1
0000
11MM
0000
2222
0000
0000
0000
,
3333
0000
0000
0000
;
