#TITLE:Tek -Club Copenaghen-;
#SUBTITLE:;
#ARTIST:Banya Production;
#TITLETRANSLIT:;
#SUBTITLETRANSLIT:;
#ARTISTTRANSLIT:;
#GENRE:;
#CREDIT:;
#MUSIC:Tek -Club Copenaghen-.ogg;
#BANNER:Tek -Club Copenaghen-.png;
#BACKGROUND:Tek -Club Copenaghen--BG.png;
#CDTITLE:;
#SAMPLESTART:44.000;
#SAMPLELENGTH:12.448;
#SELECTABLE:YES;
#OFFSET:0.089;
#BPMS:0.000=132.000
,14.000=264.000
,18.000=132.000
,25.000=264.000
,26.000=132.000
,33.000=264.000
,34.000=132.000
,41.000=264.000
,42.000=132.000
,94.000=264.000
,97.750=132.000
,105.000=264.000
,105.750=132.000
,117.000=264.000
,121.000=132.000
,125.000=264.000
,129.000=132.000
,133.000=264.000
,137.000=132.000
,141.000=264.000
,145.000=132.000
,193.000=264.000
,194.000=132.000
,197.000=264.000
,198.000=132.000
,201.000=264.000
,202.000=132.000
,205.000=264.000
,206.000=132.000
;
#STOPS:14.000=0.056
,14.250=0.055
,14.500=0.056
,14.750=0.055
,15.000=0.056
,15.250=0.055
,15.500=0.056
,15.750=0.055
,16.000=0.056
,16.250=0.055
,16.500=0.056
,16.750=0.055
,17.000=0.056
,17.250=0.055
,17.500=0.056
,17.750=0.072
,25.000=0.056
,25.250=0.055
,25.500=0.056
,25.750=0.060
,33.000=0.056
,33.250=0.055
,33.500=0.056
,33.750=0.070
,41.000=0.056
,41.250=0.055
,41.500=0.056
,41.750=0.070
,94.000=0.056
,94.250=0.055
,94.500=0.056
,94.750=0.055
,95.000=0.056
,95.250=0.055
,95.500=0.056
,95.750=0.055
,96.000=0.042
,96.167=0.041
,96.333=0.042
,96.500=0.041
,96.667=0.042
,96.833=0.041
,97.000=0.056
,97.250=0.055
,97.500=0.056
,105.000=0.056
,105.250=0.055
,105.500=0.056
,117.000=0.115
,117.500=0.114
,118.000=0.215
,119.000=0.115
,119.500=0.114
,120.000=0.115
,120.500=0.114
,125.000=0.115
,125.500=0.114
,126.000=0.215
,127.000=0.115
,127.500=0.114
,128.000=0.115
,128.500=0.114
,133.000=0.115
,133.500=0.114
,134.000=0.216
,135.000=0.116
,135.500=0.056
,135.750=0.115
,136.250=0.056
,136.500=0.115
,141.000=0.115
,141.500=0.114
,142.000=0.115
,142.500=0.114
,143.000=0.115
,143.500=0.056
,143.750=0.115
,144.250=0.056
,144.500=0.115
,193.000=0.115
,193.500=0.114
,197.000=0.115
,197.500=0.114
,201.000=0.115
,201.500=0.114
,205.000=0.115
,205.500=0.114
;
#BGCHANGES:;
#FGCHANGES:;

//--------------- dance-single - Alex ----------------
#NOTES:
     dance-single:
     Alex:
     Beginner:
     1:
     0,0,0,0,0:
0000
0000
0000
0000
,
0000
0000
0000
0000
,
0000
0000
0000
0000
,
0000
2002
0000
0000
,
0000
3003
0000
0000
,
0000
0001
0000
0000
,
0000
1000
0000
0000
,
0000
0010
0000
0000
,
0000
1000
0000
0000
,
0000
0100
0000
0000
,
0000
0100
0000
0000
,
0000
1000
0000
0000
,
0000
0001
0000
0000
,
0000
0001
0000
0000
,
0000
0100
0000
0000
,
0000
0010
0000
0000
,
0000
0010
0000
0000
,
0000
0001
0000
0000
,
0000
0100
0000
0000
,
0000
1000
0000
0000
,
0000
2002
0000
3003
,
0000
0220
0000
0330
,
0000
2002
0000
3003
,
0000
0220
0000
0000
,
0000
0330
0000
0000
,
0000
0010
0000
0000
,
0000
0001
0000
0000
,
0000
1000
0000
0000
,
0000
1001
0000
0000
,
0000
0100
0000
0100
,
0000
0100
0000
0000
,
0000
0001
0000
0001
,
0000
0001
0000
0000
,
0000
1000
0000
1000
,
0000
1000
0000
0000
,
0000
0010
0000
0010
,
0000
0020
0000
0000
,
0000
0030
0000
0000
,
0000
0200
0000
0000
,
0000
0300
0000
0000
,
0000
0110
0000
0000
,
0000
0001
0000
0000
,
0000
0001
0000
0000
,
0000
0100
0000
0000
,
0000
0010
0000
0000
,
0000
1000
0000
0000
,
0000
0100
0000
0000
,
0000
1000
0000
0000
,
0000
1001
0000
0000
,
0000
0110
0000
0000
,
0000
1001
0000
0000
,
0000
0110
0000
0000
;

//--------------- dance-single - Alex ----------------
#NOTES:
     dance-single:
     Alex:
     Easy:
     3:
     0,0,0,0,0:
0000
0000
0000
0000
,
0000
0000
0000
0000
,
0000
0000
0000
0000
,
0000
0020
0000
0000
,
0030
0010
0000
1000
,
0000
0001
0100
0001
,
0000
1000
0000
0100
,
0000
1000
0100
1000
,
0000
0001
0000
1000
,
0000
0001
0010
0001
,
0000
1000
0000
1000
,
0000
0010
0100
0010
,
0100
0010
0000
1000
,
0010
1000
0000
0001
,
0100
0001
0000
0010
,
0001
0010
0000
1001
,
0000
0010
0000
0100
,
0010
0100
0000
0001
,
0100
0001
0000
1000
,
0100
1000
0000
1010
,
0000
0010
0010
0020
,
0030
1000
1000
2000
,
3000
0001
0001
0001
,
0000
2002
0000
0000
,
3003
0001
0000
1000
,
0000
0001
0010
0001
,
0000
0100
0000
0010
,
0000
1000
0010
1000
,
0000
1001
0000
1001
,
0000
0100
0100
0200
,
0300
0010
0000
0010
,
0000
1000
1000
2000
,
3000
0001
0000
0001
,
0000
0010
0010
0020
,
0030
0001
0000
0100
,
0000
0010
0010
0010
,
0010
0200
0000
0300
,
0000
0002
0000
0003
,
0000
1000
0000
0001
,
0000
1000
0000
0010
,
0000
0110
0000
0100
,
0100
0100
0000
0001
,
0001
0001
0000
1000
,
1000
1000
0000
1001
,
0000
0010
0000
1000
,
1000
1000
0000
0100
,
0100
0100
0000
1000
,
1000
1000
0000
1001
,
0000
0010
0000
0020
,
0030
1000
0000
2000
,
3000
0001
0000
0002
,
0003
1001
1001
0000
;

//--------------- dance-single - Alex ----------------
#NOTES:
     dance-single:
     Alex:
     Medium:
     5:
     0,0,0,0,0:
0000
0000
0000
0000
,
0000
0000
0000
0000
,
0000
0000
0000
0000
,
0000
2002
0000
0000
,
3003
0001
1000
0001
,
0001
0000
0100
0000
0010
0000
0100
0001
,
0100
0001
0001
1000
,
1000
0000
0010
0000
1000
0000
0100
1000
,
0100
1000
1000
0001
,
0001
0000
0100
0000
0010
0000
0100
0010
,
0100
0001
0001
0100
,
0100
0000
0010
1000
0010
0000
0110
0000
,
0110
1001
0001
1000
,
1000
0001
0100
0010
,
0010
1000
0100
0010
,
0100
0000
1000
0000
0001
0000
0100
0010
,
0100
0010
0100
0000
0001
0000
0010
0000
,
0010
0001
1000
0010
,
0010
1000
0001
0100
,
0100
0000
0001
0000
1000
0000
0001
0100
,
0001
0000
1001
0000
0000
0000
0001
1000
,
0001
0000
0110
0000
0000
0000
0100
0010
,
0100
0000
0110
0000
0000
0000
0010
1000
,
0001
2002
0000
0000
,
3003
0001
1000
0001
,
0001
0000
0100
0000
0010
0000
0100
0010
,
0100
0001
1000
0001
,
0010
0000
0001
0000
0100
0000
0010
1000
,
0100
1001
0001
0100
,
0010
0000
0100
0010
0100
0000
0001
1000
,
0001
1001
1000
0010
,
1000
0000
0001
0010
0001
0000
1000
0010
,
1000
1001
0001
0100
,
0010
0000
0100
0010
0100
0000
0001
0010
,
0001
1001
1000
0010
,
1000
0000
0001
1000
0001
0000
1000
0001
,
1000
2002
0000
3003
,
0000
0220
0000
0330
,
0000
0011
0000
0011
,
0000
1100
0000
1100
,
0000
1000
0100
1000
,
1000
0010
0100
0001
,
0001
0100
0010
1000
,
0001
0010
0001
0100
,
0001
1001
0001
0001
,
0100
0010
1000
0100
,
1000
0010
0010
0100
,
0100
0001
1000
0001
,
0100
0000
0110
0000
0000
0000
0010
0100
,
0010
0000
1001
0000
0000
0000
1000
0001
,
1000
0000
1001
0000
0000
0000
0001
0100
,
0001
2002
0000
0000
,
0000
0000
3003
0000
;

//--------------- dance-single - Alex ----------------
#NOTES:
     dance-single:
     Alex:
     Hard:
     8:
     0,0,0,0,0:
0000
0000
0000
0000
,
0000
0000
0000
0000
,
0000
0000
0000
0000
,
0000
0000
1000
2002
0000
0000
0000
0000
,
0000
0000
3003
0000
4000
0004
0000
3003
0000
0000
0000
0000
0100
0000
0010
0000
,
0100
0000
0001
0010
0001
1000
0000
1000
,
1001
0000
0000
0000
0004
0400
0000
0303
0000
0000
0000
0000
0010
0000
1000
0000
,
0010
0000
1000
0100
0010
0100
0000
1000
,
1001
0000
0000
0000
0040
0400
0000
0330
0000
0000
0000
0000
0001
0000
0010
0000
,
0001
0000
1000
0010
1000
0001
0000
0100
,
0110
0000
0000
0000
0040
4000
0000
3030
0000
0000
0000
0000
0001
0000
0100
0000
,
0001
0000
1000
0100
0010
0001
0000
0100
,
0001
0100
0001
0000
1000
0000
0000
0000
0001
0000
0100
0000
0010
0000
0000
1000
,
0000
0001
1000
0000
0001
0000
0000
0000
0100
0000
0001
0000
0010
0000
0000
0001
,
0000
0100
0010
0000
0100
0000
0000
0000
0010
0000
1000
0000
0100
0000
0000
1000
,
0000
0010
1000
0000
0001
0000
0000
0000
0100
0000
0001
0000
1000
0010
0000
1000
,
0000
0000
0001
0000
0101
0000
0000
0000
0100
0000
0010
0000
0100
0000
0000
0001
,
0000
1000
0001
0000
0010
0000
0000
0000
0001
0000
1000
0000
0010
0000
0000
0010
,
0000
1000
0001
0000
1000
0000
0000
0000
0001
0000
0100
0000
0001
0000
0000
1000
,
0000
0100
1000
0000
0010
0000
0000
0000
0100
0000
0001
0000
0010
0001
0000
0100
,
0000
0000
0010
0000
1000
0000
0001
0000
1001
0000
0000
0001
0000
0000
0100
0000
,
0010
0000
1000
0000
0001
0000
0001
0000
0011
0000
0000
0001
0000
0000
0100
0000
,
0010
0000
0100
0000
0001
0000
1000
0000
1100
0000
0000
1000
0000
0000
0010
0000
,
0010
1000
0001
2002
0000
0000
0000
0000
,
0000
0000
0000
3003
0004
0040
0000
0033
0000
0000
0000
0000
0001
0000
0100
0000
,
0010
0000
1000
0001
0100
0001
0000
1000
,
1001
0000
0000
0000
0004
4000
0000
3003
0000
0000
0000
0000
0001
0000
0100
0000
,
0010
0000
1000
0100
0010
0100
0000
1000
,
1010
0000
0101
0000
1001
0000
0001
0100
,
0001
0000
0001
0001
0001
0000
1000
1000
,
1000
1000
1000
0000
1001
0000
0010
0000
,
1001
0000
0100
0100
0100
0000
0010
0010
,
0010
0000
0010
0000
0010
0000
0000
0000
1000
0000
0001
0000
0100
0000
0000
0001
,
0000
0100
0001
0000
0100
0000
0100
0000
0100
0000
0000
0000
0010
0000
0010
1000
,
0000
1000
0010
0000
1000
0000
0000
0000
0001
0000
1000
0000
0001
0000
0000
1000
,
0000
0001
0100
0000
0010
0000
0010
0000
0010
0000
1000
0000
1000
0000
0001
1000
,
0000
1000
0001
0000
2002
0000
0000
0000
0000
0000
0000
0000
3003
0000
0000
0000
,
0000
0220
0000
0330
,
0000
0000
0000
0000
0100
0000
0000
0001
0000
0000
0100
0000
0001
0000
0000
1000
,
0000
0000
0010
0000
1000
0000
0000
0001
0000
0000
0010
0000
0100
0000
0000
1000
,
0000
0000
0001
0000
1001
0000
0000
0000
0110
0000
0000
0000
0100
0000
0001
0100
,
0000
0100
0001
0000
1000
0000
0000
0000
0001
0000
0000
0000
1000
0000
0010
1000
,
0000
1000
0010
0000
0100
0000
0000
0000
0001
0000
0000
0000
0010
0000
0001
0100
,
0000
0100
0001
0000
1000
0000
0000
0000
0001
0000
1000
0000
0010
0000
1000
0010
,
0000
0010
1000
0000
0001
0000
0000
0000
0100
0000
0000
0000
0010
0000
1000
0100
,
0000
0100
1000
0000
0001
0000
0000
0000
0100
0000
0000
0000
0010
0000
0100
0001
,
0000
0001
0100
0000
0010
0000
0000
0000
1000
0000
0000
0000
0001
0000
0010
0001
,
0000
0001
0010
0000
0001
0000
0000
0000
0100
0000
0010
0000
0100
0000
0001
0100
,
0000
0100
0001
0000
1000
0000
0001
0000
1001
0000
0000
0001
0000
0000
0100
0000
,
0010
0000
1000
0000
0001
0000
0100
0000
0101
0000
0000
0010
0000
0000
1000
0000
,
0001
0000
0100
0000
0001
0000
1000
0000
1001
0000
0000
0001
0000
0000
1000
0000
,
0010
1000
0001
0100
0220
0000
0000
0000
,
0000
0000
0330
0000
;

//--------------- dance-single - Alex ----------------
#NOTES:
     dance-single:
     Alex:
     Challenge:
     9:
     0,0,0,0,0:
0000
0000
0000
0000
,
0000
0000
0000
0000
,
0000
0000
0000
0000
,
0000
0000
0000
0000
1000
0000
1001
0000
0001
1000
0001
1000
0001
1000
0001
1000
,
0001
1000
0001
1000
0001
0010
0100
1000
0000
MMMM
0000
0000
0001
0000
0100
0000
,
0010
0100
0010
0000
1000
0000
0001
0010
0001
0000
1000
0010
1000
0000
0001
0000
,
1001
0000
0000
0000
0001
0100
0010
0100
0000
MMMM
0000
0000
0001
0000
1000
0000
,
0100
1000
0100
0000
1000
0000
0010
1000
0010
0000
1000
0001
1000
0000
0001
0000
,
0101
0000
0000
0000
0001
1000
0010
1000
0000
MMMM
0000
0000
0001
0000
0100
0000
,
0010
0100
0010
0000
1000
0000
0001
0010
0001
0000
1000
0010
1000
0000
0010
0000
,
1001
0000
0000
0000
0001
1000
0100
0010
0000
MMMM
0000
0000
0001
0000
0100
0000
,
0001
0100
0001
0000
1000
0000
0010
1000
0010
0000
1000
0001
1000
0000
0001
0000
,
0100
0010
0100
0010
0100
0000
0000
0000
0001
0000
1000
0000
0010
1000
0000
0001
,
0000
0100
0001
0000
0101
0000
0000
0000
0001
0000
0010
0000
0001
0100
0000
0010
,
0000
1000
0001
0000
1001
0000
0000
0000
0001
0000
1000
0000
0100
1000
0000
0010
,
0000
0100
0001
0000
0011
0000
0000
0000
0001
0000
0100
0000
0010
0100
0000
0001
,
0000
1000
0010
0000
1010
0000
0000
0000
1000
0000
0001
0000
0100
0001
0000
0100
,
0000
0010
1000
0000
1010
0000
0000
0000
0010
0000
1000
0000
0100
1000
0000
0001
,
0000
0100
0001
0000
0101
0000
0000
0000
0001
0000
0010
0000
0001
0100
0000
0010
,
0000
1000
0001
0000
1001
0000
0000
0000
0001
0000
0100
0000
0010
1000
0000
0001
,
0000
0010
0001
0000
0101
0000
0110
0000
1010
0000
0000
0010
0000
1000
0100
0000
,
1000
0001
0100
0010
0110
0000
0110
0000
0110
0000
0000
0001
0000
0010
0001
0000
,
0100
0001
1000
0001
1001
0000
1001
0000
1001
0000
0000
0001
0000
1000
0010
0000
,
1000
0010
1000
0010
1010
0000
1010
0000
0010
1000
0010
1000
0010
1000
0010
1000
,
0010
0000
0100
0000
0010
0000
0100
0000
0010
0000
0100
0000
0010
0000
0000
0100
0000
0000
0001
0000
0000
1000
0000
0000
0000
0000
0000
MMMM
0000
0000
0000
0000
0000
0000
0000
0000
0001
0000
0000
0000
0000
0000
0100
0000
0000
0000
0000
0000
,
0010
0100
0010
0000
1000
0000
0001
0010
0001
0000
1000
0100
1000
0000
0001
0000
,
0101
0000
0000
0000
0001
1000
0010
1000
0000
MMMM
0000
0000
0001
0000
1000
0000
,
0010
1000
0010
0000
1000
0000
0001
0010
0001
0000
0100
0001
0100
0000
0010
0000
,
1001
0000
0000
0000
0001
1000
0000
0000
1001
0000
0000
0100
0010
0000
0100
0000
,
0001
1000
1010
1001
0101
0000
0010
1010
,
1001
0000
0101
0000
0100
0010
0000
0000
0101
0000
0000
0001
1000
0000
0001
0000
,
0100
0010
1010
1001
0011
0000
0101
0110
,
0101
0000
0011
0000
1001
0000
0000
0000
1000
0000
0001
0000
0100
0001
0000
1000
,
0000
0010
1000
0000
1001
0000
0110
0000
1001
0000
0000
0000
1000
0000
0010
0100
,
0000
0100
0010
0000
0110
0000
0000
0000
0010
0000
1000
0000
0001
0010
0000
0001
,
0000
1000
0010
0000
1010
0000
1000
0000
1001
0000
0001
0000
0101
0000
0100
0010
,
0000
0010
0100
0000
0110
0000
0000
0101
0000
0000
1001
0000
0001
0100
0000
0110
,
0000
0000
0101
0000
0011
0000
0000
1001
0000
0000
1010
0000
0000
0010
0000
1000
,
0010
0000
1000
0000
1001
0000
0000
0101
0000
0000
0110
0000
1000
0010
0000
1010
,
0000
0000
0101
0000
0011
0000
0000
1001
0000
0000
0101
0000
1000
0010
1000
0010
,
1000
0001
1000
0010
0100
0000
0000
0000
0101
0000
0001
0000
1000
0010
0000
1000
,
0000
0001
0010
0000
0011
0000
0000
0000
0001
0000
0100
0000
0010
0100
0000
0001
,
0000
1000
0010
0000
1010
0000
0000
0000
1000
0000
0001
0000
0100
0001
0000
0100
,
0000
0010
1000
0000
1010
0000
0000
0000
0010
0000
0100
0000
0001
0010
0000
0001
,
0000
1000
0010
0000
1010
0000
0000
0000
1001
0000
0001
0000
0100
0001
0000
0100
,
0000
0010
1000
0000
1100
0000
0000
0000
0100
0000
1000
0000
1000
0001
0000
0100
,
0000
0100
0001
0000
0011
0000
0000
0000
0001
0000
0100
0000
0010
1000
0000
1000
,
0000
0001
0100
0000
0101
0000
0000
0000
0001
0000
0100
0000
0010
0100
0000
0001
,
0000
1000
0001
0000
1001
0000
0110
0000
1001
0000
0000
0001
0000
0100
0001
0000
,
0100
0010
1000
0001
0011
0000
0011
0000
0101
0000
0000
0100
0000
0010
1000
0000
,
0001
1000
0001
1000
1001
0000
1001
0000
0110
0000
0000
0100
0000
0001
0100
0000
,
0010
1000
0100
1000
1010
0000
1010
0000
2002
0000
0000
0000
0000
0000
0000
0000
,
0000
0000
3003
0000
;
