#TITLE:Take Out;
#SUBTITLE:;
#ARTIST:SHK;
#TITLETRANSLIT:;
#SUBTITLETRANSLIT:;
#ARTISTTRANSLIT:;
#GENRE:;
#CREDIT:;
#MUSIC:Take Out.ogg;
#BANNER:Take Out.png;
#BACKGROUND:Take Out-BG.png;
#CDTITLE:;
#SAMPLESTART:68.178;
#SAMPLELENGTH:13.235;
#SELECTABLE:YES;
#OFFSET:-0.100;
#BPMS:0.000=170.000
,113.000=1360.000
,117.000=22.500
,118.000=42.500
,126.000=85.000
,144.000=127.500
,147.000=170.000
;
#STOPS:;
#BGCHANGES:;
#FGCHANGES:;

//--------------- dance-single - Alex ----------------
#NOTES:
     dance-single:
     Alex:
     Beginner:
     2:
     0,0,0,0,0:
0000
0000
0000
0000
,
0000
0000
0000
0000
,
0000
0000
0000
0000
,
0000
1001
0000
0000
,
0000
0001
0000
1000
,
0000
0001
0000
0000
,
0000
0100
0000
0010
,
0000
0100
0000
0000
,
0000
0001
0000
0100
,
0000
0001
0000
0000
,
0000
1000
0000
0010
,
0000
1000
0000
0000
,
0000
1001
0000
0000
,
0000
0010
0000
0000
,
0000
1000
0000
0000
,
0000
0001
0000
0100
,
0000
0010
0000
0000
,
0000
1000
0000
0000
,
0000
0100
0000
0000
,
0000
1000
0000
0000
,
0000
0010
0000
0100
,
0000
0010
0000
0000
,
0000
1000
0000
0001
,
0000
1000
0000
0000
,
0000
0001
0000
0100
,
0000
0001
0000
0000
,
0000
1000
0000
0001
,
0000
1000
0000
0000
,
0000
1001
0000
0000
,
0000
0000
0001
0000
,
0001
0000
1000
0000
,
1000
0000
0010
0000
,
0010
0010
0010
0000
,
1000
1000
1000
0000
,
0001
0001
0001
0000
,
0100
0100
0100
0000
,
0000
0000
0000
0001
,
0000
0100
0000
0001
,
0000
0000
0000
1000
,
0000
0001
0000
1000
,
0000
0000
0000
0010
,
0000
1000
0000
0010
,
0000
0000
0000
0100
,
0000
0010
0000
0100
,
0000
0000
0000
1001
,
0000
0000
0000
0010
,
0000
0000
0000
1000
,
0000
0000
0000
0100
,
0000
0100
0000
0100
,
0000
0000
0000
1000
,
0000
0000
0000
0001
,
0000
0000
0000
0100
,
0000
0000
0000
0010
,
0000
0100
0000
0010
,
0000
0000
0000
1000
,
0000
0001
0000
1000
,
0000
0000
0000
0001
,
0000
0010
0000
0001
,
0000
0000
0000
0100
,
0000
0001
0000
0100
,
0000
0000
0000
1001
,
0000
0000
0000
0000
,
0000
0000
0000
0010
,
0000
0010
0000
0010
,
0000
0000
0000
0110
,
0000
0000
0000
0110
,
0000
0000
0000
0001
,
0000
0001
0000
0001
,
0000
0000
0000
1000
,
0000
0000
0000
0001
,
0000
0000
0000
1001
;

//--------------- dance-single - Alex ----------------
#NOTES:
     dance-single:
     Alex:
     Easy:
     4:
     0,0,0,0,0:
0000
0000
0000
0000
,
0000
0000
0000
0000
,
0000
0000
0000
0000
,
0000
2002
0000
3003
,
0000
0001
1000
0010
,
0100
0000
0002
0003
0000
0200
0300
0000
,
0010
0010
1000
0100
,
1000
0000
0002
0003
0000
2000
3000
0000
,
0010
0010
1000
0001
,
0010
0000
0002
0003
0000
2000
3000
0000
,
0001
0100
0010
1000
,
0100
0000
2000
3000
0000
0002
0003
0000
,
1000
0001
0100
0010
,
0110
0100
0100
0001
,
1001
1000
0100
1000
,
1010
0010
0010
1000
,
1000
0001
0100
0001
,
1001
1000
0010
0100
,
0101
0001
1000
0100
,
1100
1000
0010
0100
,
0001
1001
1000
0010
,
0100
0000
0002
0003
0000
0200
0300
0000
,
0010
0010
1000
0100
,
1000
0000
0020
0030
0000
2000
3000
0000
,
0001
0001
1000
0100
,
1000
0000
0002
0003
0000
2000
3000
0000
,
0010
0010
1000
0001
,
0010
0000
0002
0003
0000
0200
0300
0000
,
0010
1001
0000
0000
,
0000
0000
0000
0000
0000
0000
0000
0000
0001
0000
1000
0001
0000
0001
1000
0000
,
0010
0000
0100
0010
0000
0010
0100
0000
0001
0000
1000
0100
0000
0100
1000
0000
,
0001
0000
1000
0010
0000
0010
1000
0000
0002
0000
0003
0000
2000
0000
3000
0000
,
0001
1000
0001
0100
0020
0030
0200
0300
,
0001
0010
0001
0010
0002
0003
2000
3000
,
0010
1000
0010
1000
0020
0030
0200
0300
,
0001
1000
0001
1000
2002
0000
0000
0000
,
3003
0000
0000
0001
,
1000
0000
0010
0000
0100
0000
0002
0003
,
0000
2000
3000
0000
0010
0000
0010
0000
,
1000
0000
0100
0000
1000
0000
0002
0003
,
0000
0020
0030
0000
0001
0000
0001
0000
,
0100
0000
0010
0000
0100
0000
0002
0003
,
0000
2000
3000
0000
0010
0000
1000
0000
,
0100
0000
0010
0000
0100
0000
2000
3000
,
0000
0002
0003
0000
1000
0000
0001
0000
,
0100
0001
1001
1000
,
0010
1000
1100
1000
,
0001
0100
0101
0001
,
0001
0100
0100
0010
,
1000
0001
1001
0001
,
1000
0010
1010
1000
,
0001
0010
0011
0001
,
0100
0010
0100
0101
,
0001
0000
0001
0000
1000
0000
0020
0030
,
0000
0200
0300
0000
0001
0000
0001
0000
,
1000
0000
0100
0000
0010
0000
0002
0003
,
0000
0200
0300
0000
0001
0000
0001
0000
,
0010
0000
0001
0000
0100
0000
0020
0030
,
0000
0020
0030
0000
0100
0000
0100
0000
,
0001
0000
1000
0000
0100
0000
0200
0300
,
0000
2000
3000
0000
0001
0000
2002
0000
,
0000
0000
0000
3003
,
0000
0000
0000
0001
,
1000
0010
0100
0001
,
0010
0100
0010
0001
,
1000
0010
1000
2002
,
0000
3003
0000
0001
,
1000
0010
0100
0010
,
0010
0100
0100
0001
,
0010
0100
0010
0001
,
0100
0010
1000
0002
,
0000
0000
0000
0003
;

//--------------- dance-single - Alex ----------------
#NOTES:
     dance-single:
     Alex:
     Medium:
     7:
     0,0,0,0,0:
0000
0000
0000
0000
,
0000
0000
0000
0000
,
0000
0000
0000
0000
,
0000
0220
0000
0000
,
0330
0000
0000
0000
0100
0000
0000
0001
0000
0000
0100
0000
0010
0000
0000
0100
,
0000
0001
1000
0020
0030
1000
0002
0003
,
0100
0000
0001
0000
0010
0000
0000
0001
0000
0000
0100
0000
0001
0000
0000
1000
,
0000
0010
1000
0002
0003
0100
0020
0030
,
1000
0000
0100
0000
1000
0000
0000
0001
0000
0000
1000
0000
0010
0000
0000
1000
,
0000
0001
0010
0002
0003
0100
0002
0003
,
1000
0000
0010
0000
0100
0000
0000
0100
0000
0000
0001
0000
1000
0000
0000
0001
,
0000
0010
0001
0200
0300
0010
2000
3000
,
0001
0100
0010
0100
0001
0000
0101
0000
,
1010
0000
0010
1000
0100
0000
1100
0000
,
0011
0000
0001
0100
0010
0000
0110
0000
,
1001
0000
0001
0100
0001
0000
1000
0010
,
1000
0001
0100
0010
0100
0000
0101
0000
,
0110
0000
0010
1000
0100
0000
1100
0000
,
0011
0000
0001
1000
0010
0000
1010
0000
,
1001
0000
0001
0100
0010
0100
0001
0010
,
0100
0000
0000
0000
1000
0000
0000
1000
0000
0000
0001
0000
0100
0000
0000
0100
,
0000
0001
0010
0002
0003
0100
0020
0030
,
1000
0000
0001
0000
1000
0000
0000
1000
0000
0000
0001
0000
0100
0000
0000
0010
,
0000
1000
0100
0020
0030
0001
0200
0300
,
0001
0000
1000
0000
0010
0000
0000
1000
0000
0000
0001
0000
0100
0000
0000
0001
,
0000
0010
0100
2000
3000
0001
0200
0300
,
0010
0000
1000
0000
0001
0000
0000
1000
0000
0000
0001
0000
0100
0000
0000
0010
,
0000
0100
0001
0020
0030
0001
2000
3000
,
0001
0100
0010
0000
0000
0000
0000
0000
,
0000
0000
0000
0000
0000
0000
0000
0000
0002
0003
1000
0010
0000
0010
1000
0001
,
0200
0300
0001
0010
0000
0010
0001
0100
0002
0003
1000
0010
0000
0010
1000
0010
,
2000
3000
0001
0100
0000
0100
0001
1000
0200
0000
0300
0000
1000
0000
0001
0000
,
0100
0010
0100
0101
0002
0003
0100
0010
,
0100
0001
1000
1010
2000
3000
0001
1000
,
0010
0100
0001
1001
0002
0003
0100
0001
,
0010
0100
1000
1100
2002
0000
0000
0000
,
3003
0000
0000
0000
0000
0000
0000
0000
0000
0000
0000
0000
0001
0000
0000
1000
,
0000
0000
0001
0000
0100
0000
0000
0010
0000
0000
0100
0000
0001
0000
2000
0000
,
3000
0000
0001
0000
0020
0000
0030
0000
0001
0000
0100
0000
0010
0000
0000
0100
,
0000
0000
0001
0000
0010
0000
0000
0001
0000
0000
1000
0000
0001
0000
0200
0000
,
0300
0000
0001
0000
2000
0000
3000
0000
0001
0000
0010
0000
0001
0000
0000
0100
,
0000
0000
0010
0000
0010
0000
0000
1000
0000
0000
0001
0000
0001
0000
2000
0000
,
3000
0000
0001
0000
0200
0000
0300
0000
0010
0000
1000
0000
0100
0000
0000
0100
,
0000
0000
1000
0000
0001
0000
0000
0010
0000
0000
0001
0000
1000
0000
0020
0000
,
0030
0100
0002
0003
1000
0100
0010
0001
,
0100
0000
0101
0000
1010
0000
0010
1000
,
0001
0000
0011
0000
1001
0000
1000
0100
,
1000
0000
1010
0000
0110
0000
0010
0100
,
0010
0000
0100
0001
1000
0001
0100
0010
,
0100
0000
0101
0000
0110
0000
0010
1000
,
0100
0000
1100
0000
0011
0000
0001
1000
,
0010
0000
1010
0000
1001
0000
0001
1000
,
0001
0000
0100
0000
0010
0000
0100
0000
0001
0000
0000
0000
1000
0000
0000
1000
,
0000
0000
0001
0000
0100
0000
0000
0100
0000
0000
0001
0000
0010
0000
0200
0000
,
0300
0000
1000
0000
0002
0000
0003
0000
0100
0000
0010
0000
0100
0000
0000
0001
,
0000
0000
1000
0000
0010
0000
0000
1000
0000
0000
0001
0000
0010
0000
0002
0000
,
0003
0000
1000
0000
0020
0000
0030
0000
0100
0000
0001
0000
1000
0000
0000
1000
,
0000
0000
0001
0000
0100
0000
0000
0010
0000
0000
0010
0000
1000
0000
0002
0000
,
0003
0000
1000
0000
0200
0000
0300
0000
1000
0000
0010
0000
1000
0000
0000
0001
,
0000
0000
0100
0000
0100
0000
0000
0001
0000
0000
0010
0000
0010
0000
0002
0000
,
0003
1000
0020
0030
0100
0001
2002
0000
,
0000
0000
0000
3003
,
0000
0000
0000
0000
0000
0000
0001
0100
,
0001
0000
0100
0010
0100
0000
0010
1000
,
0100
0000
1000
0001
0100
0000
0010
1000
,
0001
0010
0100
1000
0010
0100
0020
0000
,
0000
0000
0030
0000
0000
0000
0100
0001
,
0100
0000
0001
0010
0001
0000
1000
0010
,
1000
0000
0001
1000
0010
0000
0100
0001
,
0010
0000
0100
1000
0001
0000
1000
0010
,
0100
0001
0010
0100
1000
0001
0200
0000
,
0000
0000
0000
0300
;

//--------------- dance-single - Alex ----------------
#NOTES:
     dance-single:
     Alex:
     Hard:
     9:
     0,0,0,0,0:
0000
0000
0000
0000
,
0000
0000
0000
0000
,
0000
0000
0000
0000
,
0000
2002
0000
0000
,
3003
0000
0000
0000
0001
0000
0000
1000
0000
0000
0010
0000
0100
0000
0000
0001
,
0000
0010
0001
2000
3010
0200
0301
0020
,
0031
0000
2000
0000
3010
0000
0000
0100
0000
0000
0001
0000
0010
0000
0000
0001
,
0000
0100
0001
0200
0301
2000
3010
2000
,
3001
0000
0020
0000
0031
0000
0000
0001
0000
0000
1000
0000
0010
0000
0000
0010
,
0000
1000
0001
2000
3100
0020
0031
0200
,
0310
0000
0200
0000
0301
0000
0000
0001
0000
0000
0100
0000
0001
0000
0000
1000
,
0000
0010
1000
0020
1030
0002
0103
0020
,
0130
0001
1001
0001
0100
0010
0100
0001
,
1000
0100
1000
0000
0001
0000
0100
0000
0010
0000
0100
0000
0001
0000
0010
0000
,
0001
0100
0001
0000
0100
0000
0001
0000
1000
0000
0010
0000
1000
0000
0001
0000
,
0010
0001
0010
0000
0001
0000
0100
0000
0010
0000
0100
0000
0001
0000
0010
0000
,
0100
1000
0001
0100
0010
1000
0100
0010
,
0001
1000
0001
0000
0100
0000
0001
0000
1000
0000
0010
0000
1000
0000
0001
0000
,
0010
0001
0010
0000
0001
0000
0100
0000
0010
0000
0100
0000
0001
0000
1000
0000
,
0100
1000
0100
0000
1000
0000
0010
0000
0100
0000
0001
0000
0010
0000
0100
0000
,
1000
0000
0001
0000
1001
0000
0000
0001
0000
0000
0100
0000
0010
0000
0000
0100
,
0000
0001
1000
0020
0130
0002
0013
0002
,
0103
0000
0020
0000
0130
0000
0000
0100
0000
0000
0001
0000
1000
0000
0000
0001
,
0000
0100
0010
2000
3001
0020
0031
0200
,
0310
0000
0200
0000
0310
0000
0000
0010
0000
0000
0100
0000
0001
0000
0000
0001
,
0000
1000
0010
2000
3001
0200
0301
0020
,
0031
0000
0200
0000
0310
0000
0000
1000
0000
0000
0100
0000
1000
0000
0000
0001
,
0000
0100
0001
1000
0010
0100
0001
0010
,
0100
1000
1001
0000
0000
0000
0000
0000
,
0000
0000
0000
0000
0000
0000
0000
0000
1001
0000
0001
0200
0300
0010
1000
0001
,
0010
0000
0010
0002
0003
0100
0001
0100
0010
0000
0010
2000
3000
0001
1000
0100
,
0010
0000
0001
2000
3000
0001
0100
0010
0220
0000
0330
0000
0010
0000
0100
0000
,
0001
0101
1000
1100
2002
3003
0001
1000
,
0010
1010
0100
0101
0022
0033
0001
0100
,
0010
1010
1000
1001
0202
0303
0010
1000
,
1000
1001
0001
0101
0220
0000
0000
0000
,
0330
0000
0000
0000
0000
0000
0000
0000
0000
0000
0000
0000
0001
0000
0000
1000
,
0000
0000
0001
0000
0010
0000
0000
0001
0000
0000
0100
0000
0010
0000
0200
0000
,
0301
0000
2000
0000
3001
0000
0020
0000
0031
0000
0200
0000
0310
0000
0000
0001
,
0000
0000
0100
0000
0010
0000
0000
1000
0000
0000
0001
0000
0100
0000
0002
0000
,
0013
0000
2000
0000
3010
0000
0002
0000
0103
0000
2000
0000
3100
0000
0000
0100
,
0000
0000
1000
0000
0010
0000
0000
1000
0000
0000
0001
0000
0010
0000
0002
0000
,
0103
0000
2000
0000
3010
0000
0200
0000
0301
0000
0020
0000
0031
0000
0000
0001
,
0000
0000
1000
0000
0010
0000
0000
0010
0000
0000
1000
0000
0001
0000
0200
0000
,
0310
2000
3001
0020
0031
0200
0301
1000
,
0010
0000
0100
0000
0001
0000
0010
0000
0001
0010
0001
0000
0100
0000
0010
0000
,
0100
0000
0001
0000
0010
0000
0001
0000
1000
0010
1000
0000
0001
0000
0100
0000
,
0010
0000
0100
0000
0001
0000
1000
0000
0100
1000
0100
0000
1000
0000
0010
0000
,
0100
0001
0010
0100
1000
0001
0100
0010
,
0100
0000
0001
0000
1000
0000
0010
0000
1000
0010
1000
0000
0001
0000
0100
0000
,
0010
0000
0100
0000
0001
0000
0010
0000
0001
0100
0001
0000
0100
0000
0010
0000
,
0100
0000
0001
0000
0010
0000
0100
0000
1000
0001
1000
0000
0001
0000
0100
0000
,
0010
0000
0100
0000
0001
0000
1000
0000
0010
0000
0100
0000
0101
0000
0000
0001
,
0000
0000
0001
0000
1000
0000
0000
0010
0000
0000
0010
0000
1000
0000
0020
0000
,
1030
0000
0002
0000
0103
0000
0020
0000
0130
0000
0002
0000
0013
0000
0000
0001
,
0000
0000
0100
0000
0010
0000
0000
1000
0000
0000
0100
0000
1000
0000
0020
0000
,
1030
0000
0002
0000
0103
0000
2000
0000
3100
0000
0020
0000
0031
0000
0000
1000
,
0000
0000
0010
0000
0100
0000
0000
0001
0000
0000
1000
0000
0010
0000
0200
0000
,
0310
0000
2000
0000
3001
0000
0020
0000
0031
0000
0200
0000
0310
0000
0000
0010
,
0000
0000
1000
0000
0001
0000
0000
0001
0000
0000
0100
0000
0010
0000
2000
0000
,
3001
0200
0301
0020
0130
1000
2002
0000
,
0000
0000
0000
3003
,
0000
0000
0000
0000
0000
0000
0001
0100
,
0010
0100
0010
0000
1000
0000
0001
0000
0010
0001
0010
0000
0001
0000
0100
0000
,
0010
0100
0010
0000
1000
0000
0100
0000
0010
0001
0100
0000
0010
0000
0100
0000
,
0001
0010
0001
0000
1000
0000
0010
0000
0100
0001
0100
0000
2002
0000
0000
0000
,
0000
0000
0000
0000
3003
0000
0001
1000
,
0010
1000
0010
0000
1000
0000
0100
0000
1000
0100
1000
0000
0001
0000
0100
0000
,
0010
0100
0010
0000
0100
0000
0001
0000
0010
0001
0010
0000
0001
0000
1000
0000
,
0010
1000
0001
0000
0100
0000
0001
0000
0010
0100
1000
0000
0001
0000
0100
0000
,
0010
0000
0100
0000
0001
0000
0010
0000
0100
1000
0001
0100
0020
0000
0000
0000
,
0000
0000
0000
0030
;

//--------------- dance-single - Alex ----------------
#NOTES:
     dance-single:
     Alex:
     Challenge:
     11:
     0,0,0,0,0:
0000
0000
0000
0000
,
0000
0000
0000
0000
,
0000
2002
0000
3003
,
1001
0000
0000
0000
0001
0100
0010
0100
0001
0010
0100
1000
0001
1000
0010
0100
,
0101
0000
MMMM
0000
0011
0000
0000
0101
0000
0000
0110
0000
0101
0000
0000
1001
,
0000
0000
1010
0000
0010
1000
0002
0003
2000
3000
0010
0100
0002
0003
2000
3000
,
0100
0010
0001
0000
0101
0000
0000
0110
0000
0000
1010
0000
1100
0000
0000
0011
,
0000
0000
0101
0000
0100
0010
0200
0300
0002
0003
1000
0010
0200
0300
0002
0003
,
1000
0100
0010
0000
0011
0000
0000
1001
0000
0000
1010
0000
1001
0000
0000
0101
,
0000
0000
0110
0000
0010
1000
0200
0300
2000
3000
0001
1000
0020
0030
0200
0300
,
0001
0010
0001
0000
1001
0000
0000
0101
0000
0000
0110
0000
1010
0000
0000
1100
,
0000
0000
0110
0000
0010
0001
0200
0300
0020
0030
1000
0010
2000
3000
0002
0003
,
0100
0010
0100
0001
0010
0100
1000
0001
1000
0010
1000
0001
1000
0100
0010
0001
,
1000
0010
0100
0001
0010
0100
1000
0001
0100
0010
0100
0010
1000
0001
0010
0001
,
1000
0001
1000
0100
1000
0001
0100
0001
0100
0010
0100
0001
0010
0100
0010
0001
,
1000
0010
1000
0001
1000
0001
0100
0001
0100
0010
1000
0010
0100
0001
0010
0100
,
1000
0001
0100
0000
0010
0100
0001
0010
0001
1000
0001
0100
0001
0100
0010
1000
,
0100
0010
0100
1000
0001
1000
0010
0100
0001
0010
0001
0100
0001
0100
0010
0100
,
0001
0010
0100
0010
0001
1000
0010
1000
0001
0100
0001
1000
0010
1000
0001
0010
,
0001
1000
0001
0100
0001
0100
0010
1000
0100
0010
0001
0100
0010
0100
0001
0010
,
0100
1000
0001
0000
1001
0000
0000
1010
0000
0000
1001
0000
0101
0000
0000
0110
,
0000
0000
1001
0000
0001
1000
0020
0030
2000
3000
0001
0100
0002
0003
0020
0030
,
0001
0100
0010
0000
0110
0000
0000
0101
0000
0000
0011
0000
0101
0000
0000
0110
,
0000
0000
1010
0000
0010
1000
0200
0300
2000
3000
0001
1000
0020
0030
0200
0300
,
0001
0010
0001
0000
1001
0000
0000
0101
0000
0000
0011
0000
1001
0000
0000
1010
,
0000
0000
1001
0000
0001
0100
0020
0030
0200
0300
0001
0010
0200
0300
0020
0030
,
0001
0100
0010
0000
0110
0000
0000
0101
0000
0000
1001
0000
1010
0000
0000
0101
,
0000
0000
1001
0000
0001
0100
0002
0003
2000
3000
0010
1000
0002
0003
2000
3000
,
0001
0100
0010
0100
0110
0000
0000
0000
0000
0000
0000
0000
0000
0000
0000
0000
,
0000
0000
0000
0000
0000
0000
0000
0000
2002
3003
0101
0110
0000
0101
0011
1001
,
2020
3030
0101
0011
0000
0101
0110
0101
2002
3003
1010
1100
0000
0110
0011
0101
,
0220
0330
1010
1001
0000
0101
0011
1001
0220
0000
0330
0000
0210
0000
0001
0000
,
0010
1000
0001
0310
0022
0033
0012
0100
,
1000
0100
0010
0103
2020
3030
2100
0010
,
0001
0100
0001
3010
2002
3003
0120
0100
,
1000
0100
0001
0130
2002
0000
0000
0000
,
3003
0000
0000
0000
0000
0000
0000
0000
0000
0000
0000
0000
0011
0000
0000
0101
,
0000
0000
0110
0000
0101
0000
0000
1001
0000
0000
1010
0000
0010
1000
0200
0300
,
0020
0030
0001
0100
0020
0030
2000
3000
0001
1000
0010
0000
0110
0000
0000
0101
,
0000
0000
0011
0000
1001
0000
0000
1010
0000
0000
1001
0000
0001
0100
0020
0030
,
2000
3000
0001
1000
0200
0300
2000
3000
0001
0100
0010
0000
0110
0000
0000
0101
,
0000
0000
0011
0000
1001
0000
0000
0101
0000
0000
0110
0000
0010
1000
0200
0300
,
0020
0030
0001
1000
0020
0030
0200
0300
0001
0010
0001
0000
0101
0000
0000
0110
,
0000
0000
0101
0000
0011
0000
0000
1001
0000
0000
1010
0000
0010
1000
0200
0300
,
2000
3000
0001
0100
0020
0030
0200
0300
0001
1000
0010
0100
0001
0010
0100
1000
,
0001
0010
0001
0100
0001
0100
0010
0100
0001
0010
0100
1000
0001
1000
0010
1000
,
0001
1000
0100
0010
0001
0100
0010
0100
0001
0010
0001
1000
0001
0100
0001
0100
,
0010
0100
0001
0010
0100
1000
0001
1000
0010
1000
0001
0010
0001
0100
0010
0100
,
0001
0010
0100
1000
0001
1000
0010
1000
0001
0100
0001
0000
1000
0010
1000
0001
,
1000
0100
0010
0001
0100
0010
0100
0001
0010
0100
1000
0001
1000
0010
1000
0001
,
0010
0001
0100
0001
0100
0010
0100
0001
0010
0100
1000
0001
0100
0010
0100
0001
,
1000
0010
1000
0001
0010
0001
0100
0010
1000
0100
0010
0001
0100
0010
0100
0001
,
0010
0100
1000
0001
1000
0010
0100
0001
0010
0001
1000
0000
1001
0000
0000
0101
,
0000
0000
0110
0000
1010
0000
0000
1100
0000
0000
0110
0000
0010
0001
0200
0300
,
0020
0030
1000
0001
0200
0300
0002
0003
1000
0010
1000
0000
1001
0000
0000
0011
,
0000
0000
0101
0000
0110
0000
0000
1100
0000
0000
0011
0000
0001
0100
0020
0030
,
2000
3000
0001
0010
0002
0003
2000
3000
0001
1000
0001
0000
1001
0000
0000
0101
,
0000
0000
0110
0000
1010
0000
0000
1100
0000
0000
0110
0000
0010
0001
0200
0300
,
0002
0003
0010
0001
0200
0300
0020
0030
1000
0010
0100
0000
0101
0000
0000
0110
,
0000
0000
1010
0000
1001
0000
0000
0011
0000
0000
1100
0000
0001
1000
0200
0300
,
0020
0030
0001
1000
0020
0030
0200
0300
0001
1000
0010
1000
2002
0000
0000
0000
,
0000
0000
0000
3003
,
0001
0000
0000
0000
0010
0000
0000
0000
0100
0000
0000
0000
1000
0000
0000
0000
0001
0000
0000
0000
0100
0000
0000
0000
0220
0000
0000
0000
0000
0000
0000
0000
0330
0000
0000
0000
0010
0000
0000
1000
0000
0000
0010
0000
0000
1000
0000
0000
,
0001
1000
0010
1000
0010
1000
0010
0100
0010
0100
0010
0100
0001
0100
0001
0010
,
0001
0100
0001
0100
0001
1000
0001
1000
0010
1000
0010
1000
0010
0100
0001
0100
,
0001
0010
0001
0010
0001
1000
0001
1000
0001
0100
0010
0100
0220
0000
0000
0000
,
0000
0000
0000
0000
0000
0000
0000
0000
0330
0000
0000
0000
0100
0001
0100
0001
,
0010
0001
0100
0001
0100
0001
0100
0010
0100
0010
1000
0010
1000
0001
1000
0001
,
0100
0001
0100
0010
0100
0010
1000
0100
1000
0100
0010
0001
0010
0001
0100
0010
,
0100
0001
0100
0001
1000
0001
1000
0010
1000
0001
1000
0001
1000
0001
0100
0001
,
0100
0010
0100
0010
0100
0010
1000
0001
1000
0001
0100
0001
2002
0000
0000
0000
,
0000
0000
0000
3003
;
