#TITLE:Super Fantasy;
#SUBTITLE:;
#ARTIST:SHK;
#TITLETRANSLIT:;
#SUBTITLETRANSLIT:;
#ARTISTTRANSLIT:;
#GENRE:;
#CREDIT:;
#MUSIC:Super Fantasy.ogg;
#BANNER:Super Fantasy.png;
#BACKGROUND:Super Fantasy-BG.png;
#CDTITLE:;
#SAMPLESTART:13.581;
#SAMPLELENGTH:15.466;
#SELECTABLE:YES;
#OFFSET:0.029;
#BPMS:0.000=145.000
,32.000=290.000
,33.000=145.000
,120.000=290.000
,121.000=145.000
,187.000=290.000
,189.000=145.000
,191.000=290.000
,193.000=145.000
,195.000=290.000
,197.000=145.000
,199.000=290.000
,201.000=145.000
,203.000=290.000
,205.000=145.000
,207.000=290.000
,209.000=145.000
,211.000=290.000
,213.000=145.000
,216.000=290.000
,217.000=145.000
;
#STOPS:32.000=0.063
,32.333=0.062
,32.667=0.063
,120.000=0.030
,120.125=0.030
,120.250=0.030
,120.375=0.030
,120.500=0.030
,120.625=0.030
,120.750=0.030
,120.875=0.030
,187.000=0.070
,187.333=0.069
,187.667=0.070
,188.000=0.069
,188.333=0.070
,188.667=0.069
,191.000=0.070
,191.333=0.069
,191.667=0.070
,192.000=0.069
,192.333=0.070
,192.667=0.069
,195.000=0.070
,195.333=0.069
,195.667=0.070
,196.000=0.069
,196.333=0.070
,196.667=0.069
,199.000=0.025
,199.125=0.024
,199.250=0.025
,199.375=0.024
,199.500=0.025
,199.625=0.024
,199.750=0.025
,199.875=0.024
,200.000=0.025
,200.125=0.024
,200.250=0.025
,200.375=0.024
,200.500=0.025
,200.625=0.024
,200.750=0.025
,200.875=0.024
,203.000=0.069
,203.333=0.068
,203.667=0.069
,204.000=0.068
,204.333=0.069
,204.667=0.068
,207.000=0.070
,207.333=0.069
,207.667=0.070
,208.000=0.069
,208.333=0.070
,208.667=0.069
,211.000=0.070
,211.333=0.069
,211.667=0.070
,212.000=0.069
,212.333=0.070
,212.667=0.069
,216.000=0.025
,216.125=0.024
,216.250=0.025
,216.375=0.024
,216.500=0.025
,216.625=0.024
,216.750=0.025
,216.875=0.024
;
#BGCHANGES:;
#FGCHANGES:;

//--------------- dance-single - Alex ----------------
#NOTES:
     dance-single:
     Alex:
     Beginner:
     1:
     0,0,0,0,0:
0000
0000
0000
0000
,
0000
0000
0000
0000
,
0000
0000
0000
0000
,
0000
0000
0000
0000
,
0000
0100
0000
0000
,
0000
0100
0000
0000
,
0000
0001
0000
0000
,
0000
1001
0000
0000
,
0000
0010
0000
0000
,
0000
1000
0000
0000
,
0000
0100
0000
0000
,
0000
0100
0000
0000
,
0000
1000
0000
0000
,
0000
0000
0000
0000
,
0000
1000
0000
0000
,
0000
0000
0000
0000
,
0000
0001
0000
0000
,
0000
0001
0000
0000
,
0000
1001
0000
0000
,
0000
0010
0000
0000
,
0000
1000
0000
0000
,
0000
1000
0000
0000
,
0000
0001
0000
0000
,
0000
0100
0000
0000
,
0000
0001
0000
0000
,
0000
0001
0000
0000
,
0000
1001
0000
0000
,
0000
0010
0000
0000
,
0000
0010
0000
0000
,
0000
1000
0000
0000
,
0000
0001
0000
0000
,
0000
0001
0000
0000
,
0000
1000
0000
0000
,
0000
1000
0000
0000
,
0000
0010
0000
0000
,
0000
0100
0000
0000
,
0000
0001
0000
0000
,
0000
0100
0000
0000
,
0000
0110
0000
0000
,
0000
0010
0000
0000
,
0000
0100
0000
0000
,
0000
0001
0000
0000
,
0000
1000
0000
0000
,
0000
0001
0000
0000
,
0000
0001
0000
0000
,
0000
1000
0000
0000
,
0000
2002
0000
3003
,
0000
0220
0000
0330
,
0000
2002
0000
3003
,
0000
0220
0000
0330
,
0000
0200
0000
0300
,
0000
0020
0000
0030
,
0000
2000
0000
3000
,
0000
0002
0000
0003
,
0000
1001
0000
0000
,
0000
0001
0000
0000
,
0000
0001
0000
0000
,
0000
1000
0000
0000
,
0000
0010
0000
0000
,
0000
0000
0000
0000
,
0000
0010
0000
0000
,
0000
0000
0000
0000
,
0000
0100
0000
0000
,
0000
0100
0000
0000
,
0000
1001
0000
0000
,
0000
0010
0000
0000
,
0000
1000
0000
0000
,
0000
0001
0000
0000
,
0000
0001
0000
0000
,
0000
1000
0000
0000
,
0000
0010
0000
0000
,
0000
0010
0000
0000
,
0000
0000
0000
0000
,
0000
1001
0000
0000
,
0000
0000
0000
0000
,
0000
0000
0000
0000
,
0000
M00M
0000
0000
;

//--------------- dance-single - Alex ----------------
#NOTES:
     dance-single:
     Alex:
     Easy:
     3:
     0,0,0,0,0:
0000
0000
0000
0000
,
0000
0000
0000
0000
,
0000
0000
0000
0000
,
0000
0000
0000
0000
,
0000
1000
0000
0001
,
0000
1000
0000
1000
,
0000
0001
0000
0100
,
0000
0000
0220
0000
0000
0000
0000
0330
,
0000
0100
0000
0100
,
0000
0001
0000
0001
,
0000
1000
0000
0010
,
0000
1000
0010
1000
,
0000
0001
0000
0001
,
0000
0000
0000
0000
,
0000
1000
0000
1000
,
0000
0000
0000
0000
,
0000
0001
0100
0001
,
0100
0020
0000
0030
,
0000
1001
0000
0001
,
0000
1000
0000
0001
,
0001
0001
0000
1000
,
0000
0100
0000
1000
,
1000
1000
0000
0010
,
0000
0100
0000
0010
,
0010
0010
0000
1000
,
0000
0001
0000
0011
,
0000
0001
0001
0002
,
0003
1000
1000
2000
,
3000
0010
0010
0020
,
0030
0100
0100
0200
,
0300
1001
0000
0001
,
0000
1000
0000
0010
,
0000
1000
0000
0001
,
0000
1000
0100
1000
,
0000
0001
0000
0100
,
0000
0001
0000
1000
,
0000
0001
0000
0010
,
0000
0001
0001
0002
,
0003
1001
0000
0010
,
0000
1001
0000
0100
,
0000
0110
0000
0001
,
0000
0110
0000
1000
,
0000
0011
0000
0100
,
0000
1010
0000
1000
,
0000
1001
0000
0110
,
0000
2002
0000
3003
,
0000
0001
0000
0100
,
0100
0100
0000
0010
,
0010
0010
0000
1000
,
1000
2000
3000
0002
,
0003
1000
0000
0001
,
0001
0001
0000
1000
,
1000
1000
0000
0010
,
0010
0020
0000
0000
,
0030
1001
0000
0001
,
0000
1000
0000
0001
,
0000
0001
0000
0100
,
0000
0010
0000
0100
,
0000
0001
0001
0001
,
0000
0000
0000
0000
,
0000
1000
1000
1000
,
0000
0000
0000
0000
,
0000
0010
0000
1000
,
0000
2002
0000
3003
,
0000
0001
0100
0001
,
0000
0100
0010
0100
,
0000
0010
1000
0010
,
0000
1000
0100
1000
,
0000
0001
1000
0001
,
0000
0100
0010
0100
,
0000
0001
0010
0001
,
0000
1000
0100
1000
,
0100
0000
0000
0000
,
0000
0220
0000
0000
,
0000
0000
0330
0000
,
0000
M00M
0000
0000
,
0000
1001
0000
0000
;

//--------------- dance-single - Alex ----------------
#NOTES:
     dance-single:
     Alex:
     Medium:
     5:
     0,0,0,0,0:
0000
0000
0000
0000
,
0000
0000
0000
0000
,
0000
0000
0000
0000
,
0000
0000
0000
0000
,
0000
1000
1000
0001
,
0001
0100
0100
0010
,
0010
1000
0001
0010
,
0001
2002
0000
0000
,
3003
0001
0100
0010
,
0010
0100
0001
1000
,
1000
0001
0010
0100
,
1000
0010
0100
0001
,
0100
0010
0010
1000
,
0000
0000
0000
0000
,
0000
0001
1000
0001
,
0000
0000
0000
0000
,
0000
1000
0001
1000
,
0010
0100
0100
0001
,
0001
2000
0000
3020
,
0000
0130
0001
0010
,
0100
2000
0000
3002
,
0000
0013
0001
1000
,
0010
0200
0000
0302
,
0000
0013
0001
0001
,
0100
0020
0000
0230
,
0000
0302
0000
2003
,
0000
3001
0001
1000
,
1000
0010
0100
0010
,
0100
0001
1000
0001
,
0010
0100
1000
2002
,
3003
0001
0001
1000
,
1000
0010
0010
0100
,
0100
0001
1000
0100
,
0010
0100
1000
0001
,
0100
0110
0010
1000
,
0001
0010
0001
1000
,
0010
0100
0001
0010
,
0100
0010
0001
2002
,
3003
0002
0100
0100
,
0103
2000
0100
0100
,
3100
0020
0100
0100
,
0130
0200
0010
0010
,
0310
2000
0010
0010
,
3010
0200
0001
0001
,
0301
0002
0010
0010
,
0013
0002
1000
1000
,
1003
2002
3003
0001
,
1000
2002
3003
0001
,
0100
0202
0303
0100
,
0010
0220
0330
1001
,
0110
2002
3003
0001
,
1000
2200
3300
1000
,
0010
2020
3030
0010
,
0100
0202
0303
2002
,
3003
0001
0001
1000
,
0010
0100
0100
0001
,
1000
0100
0010
0100
,
1000
0001
0100
0010
,
0100
0001
1000
0001
,
0000
0000
0000
0000
,
0000
1000
0001
1000
,
0000
0000
0000
0000
,
0000
0001
1000
0010
,
0100
0001
0100
0220
,
0330
0010
0010
0100
,
0100
0001
0001
1000
,
1000
0001
0010
0100
,
1000
0010
0100
0001
,
1000
1100
1000
0001
,
0100
0010
0100
0001
,
1000
0100
0100
1000
,
1000
0010
0100
0001
,
0010
0000
0000
0000
,
0000
0220
0000
0000
,
0000
0000
0000
0000
,
0000
0330
M00M
0000
0000
0000
0000
0000
,
0000
2002
0000
0000
,
3003
0000
0000
0000
;

//--------------- dance-single - Alex ----------------
#NOTES:
     dance-single:
     Alex:
     Hard:
     9:
     0,0,0,0,0:
0000
0000
0000
0000
,
0000
0000
0000
0000
,
0000
0000
0000
0000
,
0000
0000
0000
0000
,
0000
0001
0001
1000
,
1000
0010
0010
0100
,
0100
0000
0001
0100
0001
0100
0010
0100
,
0010
0100
0220
0000
0000
0000
0000
0000
,
0330
0000
1000
0001
0010
0001
1000
0010
,
0200
0300
0001
0010
0001
1000
0010
1000
,
0002
0003
1000
0100
0010
0100
1000
0001
,
0100
0010
0100
0001
0010
0100
0010
0001
,
0100
0010
1010
0010
1000
0001
0100
0010
,
0000
0000
0000
0000
,
MMMM
0000
0001
0010
0001
0100
0010
0100
,
0000
0000
0000
0000
,
0000
0000
0001
1000
0010
0100
0001
1000
,
0001
0000
0100
0001
1000
0000
0010
0000
0100
0000
0001
0010
0100
0000
1000
0000
,
0010
0000
0100
0001
0200
0000
0000
0000
0320
0000
0000
0000
2030
0000
0000
0000
,
3002
0000
0023
0000
0031
1000
0200
0000
,
0320
2030
3200
2300
,
3020
0000
0230
0000
0301
0010
0002
0000
,
2003
3020
2030
3002
,
2003
0000
3200
0000
0310
0001
2000
0000
,
3200
2300
3020
0230
,
0302
0023
0032
2003
,
3020
0000
0130
0001
0010
0001
1000
0010
,
1000
0001
0100
0100
0001
0001
1000
0100
,
0010
0100
1000
0001
0100
0010
0100
0001
,
0010
0100
1000
0010
0100
0001
1000
0010
,
2020
3030
1000
1000
0001
0100
0010
0100
,
0002
0003
0100
0100
0001
0010
0100
1000
,
0002
0003
1000
0010
0100
0001
0010
0001
,
1000
0010
1000
1000
0001
0001
0100
0010
,
0100
0001
0010
0100
1000
0001
0100
0010
,
2000
3000
0100
0100
1000
0010
0100
0001
,
0020
0030
0001
0100
0010
0100
0001
0010
,
0100
0000
1000
0100
1000
0000
0001
0000
0100
0000
0010
0100
0010
0000
0100
0000
,
0001
0000
1000
0001
0200
0000
0310
0000
2000
0000
3001
0000
0020
0000
0031
0000
,
0200
0301
2000
3010
0200
0301
0020
0031
,
0200
0310
2000
3100
0002
0103
2000
3010
,
0002
0013
2000
3001
0020
0031
0200
0310
,
2000
3001
0002
0103
0200
0310
0020
1030
,
2000
3001
0002
0013
0200
0310
0002
0103
,
2000
3010
0002
0103
0020
0130
0002
0013
,
0002
1003
0200
1300
0020
0130
0002
1003
,
0020
0000
0000
0130
0000
0000
0002
0000
0000
0000
0000
0000
2003
0000
0000
0000
0000
0000
3001
0000
0100
0000
0001
0000
,
0200
0000
0000
0000
0000
0000
0000
0000
0000
0300
0000
0000
0020
0000
0000
0000
0000
0000
0000
0000
0000
0000
0000
0000
0230
0000
0000
0000
0000
0000
0000
0000
0000
0000
0000
0000
0301
0000
0000
0000
0010
0000
0000
0000
0001
0000
0000
0000
,
0020
0000
0000
0032
0000
0000
0203
0000
0000
0310
0100
0010
,
0200
0000
0000
0300
0020
0000
0030
2000
0000
3000
0002
0003
0200
0000
0000
0300
,
0020
0000
0000
0000
0000
0000
0000
0000
0000
0030
0000
0000
2000
0000
0000
0000
0000
0000
0000
0000
0000
0000
0000
0000
3002
0000
0000
0000
0000
0000
0000
0000
0000
0000
0000
0000
1003
0000
0000
0000
0100
0000
0000
0000
1000
0000
0000
0000
,
0200
0000
0000
0000
0000
0000
0000
0000
0000
0300
0000
0000
0020
0000
0000
0000
0000
0000
0000
0000
0000
0000
0000
0000
0032
0000
0000
0000
0000
0000
0000
0000
0000
0000
0000
0000
0103
0000
0000
0000
0010
0000
0000
0000
0100
0000
0000
0000
,
0020
0000
0000
0230
0000
0000
0302
0000
0000
1003
0100
1000
,
0200
0000
0000
0300
2000
0000
3000
0002
0000
0003
0020
0030
0002
0000
0000
0003
,
1001
0000
0001
1000
0010
1000
0001
0010
,
0002
0003
0100
0100
0001
0010
0100
1000
,
0020
0030
1000
1000
0001
0100
0010
0100
,
0001
1000
0100
0010
0001
0100
0010
0100
,
0001
0000
1000
0000
0001
0000
1000
0100
1000
0000
0001
0000
0100
0000
0010
0000
,
0000
0000
0000
0000
,
0000
0000
0000
0000
1000
0001
0000
0001
1000
0000
0001
0000
0100
0000
0010
0000
,
0000
0000
0000
0000
,
0000
0000
0001
0010
0100
1000
0001
0100
,
0010
0000
0100
0001
1000
0000
0001
0000
0100
0000
0010
1000
0001
0000
1000
0000
,
0001
0000
1000
0000
1010
0000
0010
0100
0001
0000
1000
0000
0001
0000
0100
0001
,
1000
0000
0001
0000
0010
0000
0001
0100
0010
0000
0100
0000
0001
0000
1000
0010
,
1000
0000
0001
0000
1000
0000
0100
0010
0001
0000
0100
0000
0010
0000
0100
0001
,
0100
0000
0001
0000
1000
0000
0001
0010
0001
0000
0100
0000
0010
0000
1000
0100
,
1000
0000
0001
0000
1001
0000
0001
0100
0010
0000
0100
0000
0001
0000
1000
0100
,
1000
0000
0010
0000
1000
0000
0001
0010
0001
0000
0100
0000
0001
0000
0010
0100
,
1000
0000
0001
0000
0100
0000
0010
0100
0010
0000
0100
0000
0001
0000
0010
0001
,
0010
0000
0001
0000
1001
0000
0001
0100
0010
0000
0100
0000
1001
0000
0001
1000
,
0010
0100
0000
0000
0000
0000
0000
0000
,
0000
2002
0000
0000
,
0000
0000
0000
0000
,
0000
3003
M00M
0000
0000
0000
0000
0000
,
0000
2002
0000
0000
,
3003
0000
0000
0000
;

//--------------- dance-single - Alex ----------------
#NOTES:
     dance-single:
     Alex:
     Challenge:
     11:
     0,0,0,0,0:
0000
0000
0000
0000
,
0000
0000
0000
0000
,
0000
0000
0000
0000
,
0000
0000
0000
0000
,
0000
0000
0101
0001
0010
0100
1000
0001
,
0100
0010
0100
0100
0001
0001
1000
0100
,
0010
0100
1000
0001
0100
0010
0100
0001
,
1000
0010
2020
0000
0000
0000
0000
3030
,
1000
0000
0000
0000
0001
0000
0000
0000
1000
0000
0000
0000
0001
0000
0000
0100
0000
0000
0010
0000
0000
0100
0000
0000
0001
0000
0000
0010
0000
0000
0100
0000
0000
1000
0000
0000
0001
0000
0000
0100
0000
0000
0010
0000
0000
1000
0000
0000
,
0100
0010
0001
0200
0000
0310
1000
0001
1000
0010
1000
0001
0010
0100
1000
0001
,
0100
0001
1000
0020
0000
1030
0001
0010
0001
0100
0001
0010
0100
1000
0010
0100
,
0001
0010
0001
1000
0010
1000
0001
1000
0100
0010
0100
1000
0001
0100
0001
1000
,
0010
0100
0001
0010
0110
0010
0001
0100
0010
0100
0001
1000
0010
0100
0001
1000
,
0000
0000
0000
0000
,
MMMM
0000
0000
0000
0001
1000
0010
0100
0001
1000
0100
0010
0001
0100
0010
0100
,
0000
0000
0000
0000
,
MMMM
0000
0000
0000
0010
1000
0010
1000
0001
1000
0010
0100
0001
0010
0100
1000
,
0001
0100
0010
0100
0001
0010
0100
0010
0001
0100
0010
0100
0001
1000
0010
0100
,
0001
1000
0100
0010
0002
0000
0203
0000
0320
0000
2030
0000
3002
0000
0023
0000
,
0032
2003
3020
2030
3200
0302
0203
2300
,
3020
0230
0302
0023
0230
0320
0032
0203
,
0320
0230
0302
0023
0230
2300
3002
0203
,
0320
2030
3002
0023
0032
2003
3020
2030
,
3200
0320
0230
2300
3020
0032
0023
2030
,
3002
0203
2300
3200
0302
0023
2030
3020
,
0032
0203
0320
0230
0302
0023
0230
0320
,
0032
0000
0203
0000
0320
0030
1000
0001
0020
0030
0001
0100
0002
0003
1000
0100
,
2000
3000
0001
1000
0002
0003
0010
0001
0020
0030
0001
1000
0020
0030
0100
0010
,
0200
0300
0001
0100
0002
0003
1000
0100
2000
3000
0010
1000
0020
0030
0100
0001
,
0200
0300
0001
0010
0100
1000
0001
0100
0010
1000
0001
0010
0001
1000
0010
0100
,
0220
0000
0330
0000
0100
0001
0010
0001
1000
0010
1000
0001
1000
0100
0010
0001
,
0100
0010
0100
0002
0000
1003
0100
1000
0010
1000
0001
0010
0100
1000
0010
0100
,
0001
0010
0001
2000
0000
3100
1000
0100
1000
0010
1000
0010
0100
0010
0100
0001
,
0100
0001
0010
0100
0010
0001
0100
0010
0100
0001
0010
0100
1000
0001
0100
0010
,
1000
0001
0010
0001
1001
0001
0100
0001
1000
0010
0100
0001
0010
0100
1000
0010
,
0100
0001
1000
0200
0000
1300
0010
1000
0010
0100
0010
0100
0001
0100
0001
0010
,
0001
1000
0010
0100
0001
0010
0100
1000
0001
0010
0001
1000
0010
1000
0001
1000
,
0100
0010
0100
1000
0001
0100
0010
0100
0001
0010
0001
1000
0010
1000
0001
0100
,
0001
0010
0100
1000
0020
0000
2030
0000
3002
0000
0023
0000
0032
0000
2003
0000
,
3200
0320
2030
3020
0032
0203
2300
3200
,
0302
0023
0230
0320
0032
0203
0320
0230
,
0302
0023
0230
2300
3020
0032
0023
2030
,
3200
0302
0203
2300
3020
0230
0302
0023
,
0032
0203
0302
2003
3020
2030
3002
0023
,
0032
0203
0320
2030
3002
0023
2030
3020
,
0032
2003
3200
0302
0203
2300
3020
0230
,
0302
0000
0000
0000
0000
0000
2003
0000
0000
3000
0000
0000
2002
0000
0000
0000
0000
0000
0000
0000
3003
0000
0000
0000
0220
0000
0000
0000
0000
0000
0000
0000
0330
0000
0000
0000
0010
0000
0000
0000
1000
0000
0000
0000
0001
0000
0000
0000
,
0010
0001
0100
0202
0000
0303
2020
0000
3030
0001
1000
0100
,
1000
0010
1000
2002
0000
3003
0022
0000
0033
0001
1000
0010
,
0100
0000
0000
0000
0000
0000
0000
0000
0001
0000
0000
0000
0000
0000
0000
0000
0100
0000
0000
0000
0000
0000
0000
0000
0220
0000
0000
0000
0000
0000
0000
0000
0000
0000
0000
0000
0330
0000
0000
0000
0000
0000
0202
0000
0000
0000
0000
0000
0000
0000
0000
0000
0000
0000
0303
0000
0000
0000
0000
0000
2002
0000
0000
0000
0000
0000
3003
0000
0000
0000
0000
0000
1000
0000
0000
0010
0000
0000
1000
0000
0000
0010
0000
0000
1000
0000
0000
0010
0000
0000
1000
0000
0000
0010
0000
0000
,
1000
0000
0000
0010
0000
0000
1000
0000
0000
0010
0000
0000
1000
0000
0000
0010
0000
0000
1000
0000
0000
0000
0000
0000
2020
0000
0000
0000
0000
0000
0000
0000
0000
0000
0000
0000
0000
0000
0000
0000
3030
0000
0000
0000
0000
0000
0000
0000
0202
0000
0000
0000
0000
0000
0000
0000
0000
0000
0000
0000
0000
0000
0000
0000
0303
0000
0000
0000
0000
0000
0000
0000
0001
0000
0000
0000
0000
0000
0000
0000
1000
0000
0000
0000
0000
0000
0000
0000
0010
0000
0000
0000
0000
0000
0000
0000
,
0100
0001
0010
0022
0000
0033
2002
0000
3003
1000
0100
0010
,
0001
0100
0010
0220
0000
0330
2002
0000
3003
0001
1000
0010
,
0100
0000
0000
0000
0001
0000
0000
0000
0010
0000
0000
0000
0022
0000
0000
0000
0000
0000
0033
0000
0000
2002
0000
0000
0000
0000
0000
3003
0000
0000
0220
0000
0000
0330
0000
0000
2002
0000
0000
0000
0000
0000
0000
0000
0000
3003
0000
0000
,
0001
1000
0001
1000
0001
1000
0001
0000
1000
0000
0001
0000
0010
0000
0100
0000
1000
0000
0010
0000
0100
0000
0001
0000
0010
0000
0001
0000
1000
0000
0010
0000
,
0100
0001
1000
0200
0000
1300
0010
1000
0010
0100
0010
0100
0001
0010
0001
1000
,
0010
0100
0001
0020
0000
0031
0100
0010
0100
0001
0010
0100
1000
0001
1000
0010
,
1000
0001
0100
0010
1000
0100
0010
0001
0100
0010
0100
0001
0010
0100
1000
0010
,
0100
0001
1000
0001
1001
0000
0001
0100
0010
0000
1000
0000
0010
0000
0100
0000
,
0000
0000
0000
0000
,
MMMM
0000
0000
0000
0001
0100
0000
0100
0001
0000
1000
0000
0010
0000
0110
0000
,
0000
0000
0000
0000
,
MMMM
0000
0000
0000
0001
0010
0100
1000
0001
0100
0001
1000
0010
1000
0001
1000
,
0100
0010
0100
1000
0001
0100
0010
0100
0001
0010
0001
1000
0010
0100
0001
1000
,
0100
0010
0001
0100
0110
0010
1000
0010
1000
0010
0100
0010
0100
0001
0010
0001
,
0100
0001
0100
0001
0100
0010
0100
0010
1000
0010
1000
0001
1000
0001
1000
0100
,
1000
0100
1000
0010
0100
0001
0010
0100
1000
0001
0100
0010
1000
0001
0010
0001
,
1000
0010
1000
0001
1000
0100
0010
0100
1000
0001
0100
0010
0100
0001
0010
0001
,
1000
0001
0100
0001
0100
0010
0100
0010
1000
0010
1000
0001
1000
0001
1000
0001
,
0010
0100
1000
0001
0100
0010
0100
0001
0010
0001
0100
0001
0100
0010
1000
0001
,
0010
0001
1000
0010
0100
0001
0100
0001
0010
0100
1000
0001
1000
0010
0100
0001
,
0010
0100
1000
0010
0100
0001
1000
0100
0010
0100
1000
0001
0100
0010
0100
0001
,
0010
0001
1000
0010
MMMM
0000
0000
0000
0000
0000
0000
0000
0000
0000
0000
0000
,
0000
2112
0000
0000
,
0000
0000
0000
0000
,
0000
3003
0MM0
0000
0000
0000
0000
0000
,
0000
0220
0000
0000
,
0330
0000
0000
0000
;
