#TITLE:Starian;
#SUBTITLE:;
#ARTIST:Duke;
#TITLETRANSLIT:;
#SUBTITLETRANSLIT:;
#ARTISTTRANSLIT:;
#GENRE:;
#CREDIT:;
#MUSIC:Starian.ogg;
#BANNER:Starian.png;
#BACKGROUND:Starian-BG.png;
#CDTITLE:;
#SAMPLESTART:26.250;
#SAMPLELENGTH:16.781;
#SELECTABLE:YES;
#OFFSET:-0.120;
#BPMS:0.000=134.900;
#STOPS:;
#BGCHANGES:;
#FGCHANGES:;

//--------------- dance-single - Alex ----------------
#NOTES:
     dance-single:
     Alex:
     Beginner:
     1:
     0,0,0,0,0:
0000
0000
0000
0000
,
0000
0000
0000
0000
,
0000
0000
0000
0000
,
0000
0000
0000
0000
,
1000
0000
0000
0000
,
0001
0000
0000
0000
,
1000
0000
0000
0000
,
1000
0000
0000
0000
,
0010
0000
0000
0000
,
0100
0000
0000
0000
,
0010
0000
0000
0000
,
0010
0000
0000
0000
,
1000
0000
0000
0000
,
0001
0000
0000
0000
,
0010
0000
0000
0000
,
1001
0000
0000
0000
,
0100
0000
0000
0000
,
0010
0000
0000
0000
,
0010
0000
0000
0000
,
0100
0000
0000
0000
,
0001
0000
0000
0000
,
1000
0000
0000
0000
,
0001
0000
0000
0000
,
0100
0000
0100
0000
,
0100
0000
0000
0000
,
0010
0000
0010
0000
,
0010
0000
0000
0000
,
1001
0000
0000
0000
,
0001
0000
0000
0000
,
1000
0000
0000
0000
,
0001
0000
0000
0000
,
1001
0000
0000
0000
,
0100
0000
0000
0000
,
0100
0000
0000
0000
,
0010
0000
0000
0000
,
0010
0000
0000
0000
,
1000
0000
0000
0000
,
0001
0000
0000
0000
,
0001
0000
0000
0000
,
1001
0000
0000
0000
,
0100
0000
0000
0000
,
0100
0000
0000
0000
,
0010
0000
0000
0000
,
1000
0000
0000
0000
,
0001
0000
0000
0000
,
0100
0000
0000
0000
,
0010
0000
0000
0000
,
1000
0000
1000
0000
,
1000
0000
0000
0000
,
0001
0000
0001
0000
,
0001
0000
0000
0000
,
0110
0000
0000
0000
;

//--------------- dance-single - Alex ----------------
#NOTES:
     dance-single:
     Alex:
     Easy:
     3:
     0,0,0,0,0:
0000
0000
0000
0000
,
0000
0000
0000
0000
,
0000
0000
0000
0000
,
0000
0000
0000
0000
,
0010
0010
0010
0000
,
0100
0100
0100
0000
,
1001
0000
0001
0000
,
1000
0000
0001
0000
,
0100
0000
0010
0000
,
1000
1000
0001
0001
,
1000
0000
0001
0000
,
1000
0000
0010
0000
,
0010
0000
1000
0000
,
0001
0001
0100
0100
,
0020
0000
0030
0000
,
1001
0000
1000
0000
,
0010
0000
1000
1000
,
1000
0000
0001
0000
,
0100
0000
0010
0000
,
1001
0000
1000
0000
,
0001
0000
0100
0100
,
0100
0000
0001
0000
,
1000
0000
0010
0000
,
1000
1000
0001
0001
,
1000
1000
0001
0001
,
0100
0100
0100
0100
,
0010
0010
0020
0030
,
1001
0000
0001
0000
,
1000
0000
0001
0000
,
0100
0100
0100
0100
,
0010
0010
0010
0010
,
1000
0000
0001
0000
,
1000
0000
1000
0000
,
0001
0000
0001
0000
,
0100
0100
0100
0000
,
1001
0000
0010
0000
,
1000
0000
1000
0000
,
0001
0001
0001
0000
,
1000
1000
1000
0000
,
1001
0000
0010
0000
,
0100
0000
0001
0001
,
0001
0000
1000
0000
,
0100
0000
1000
0000
,
1001
0000
0001
0000
,
0010
0000
0001
0001
,
0001
0000
0100
0000
,
0010
0000
0100
0000
,
0001
0001
0001
0001
,
1000
1000
1000
1000
,
0010
0010
0100
0100
,
0010
0010
0010
0000
,
1001
0000
0000
0000
;

//--------------- dance-single - Alex ----------------
#NOTES:
     dance-single:
     Alex:
     Medium:
     5:
     0,0,0,0,0:
0000
0000
0000
0000
,
0000
0000
0000
0000
,
0000
0000
0000
0000
,
0000
0000
0000
0000
,
0001
1000
0001
1000
,
0010
0100
0010
0100
,
1001
0001
1000
0010
,
0100
0100
0001
0001
,
0010
0100
0010
0001
,
0100
0000
0010
0000
1000
0100
1000
0100
,
1000
0001
0100
0100
,
0001
1000
0010
1000
,
0001
0010
0001
0001
,
0100
0000
0010
0000
0100
0001
1000
0000
,
2002
0000
0000
0000
3003
0000
0001
1000
,
0010
0100
0001
1000
,
0100
0000
0100
0000
1000
0000
0001
0100
,
0001
1000
0010
1000
,
0001
0010
0001
0100
,
0100
0010
1000
0100
,
0010
0000
0001
0000
1000
0000
0010
0100
,
0010
0100
0001
1000
,
0100
0000
0010
0001
0000
0001
0100
0000
,
0010
1000
0010
0000
1000
0001
1000
0000
,
0001
0100
0001
0000
1001
0000
0000
0000
,
0010
0100
0010
0000
1000
0001
1000
0000
,
0001
0100
0001
0100
0002
0000
0003
0000
,
0100
0010
0100
0100
,
0001
0010
0100
1000
,
0001
1000
0001
0000
1000
0001
1000
0000
,
0010
0100
0010
0000
0100
0010
0100
0000
,
0001
0000
1000
0000
0010
0000
1000
0010
,
1000
0000
0001
0000
0100
0000
0001
0100
,
0001
0000
0010
0000
0100
0000
1000
0100
,
1000
0000
0010
0000
0100
0000
0001
0010
,
0001
0000
1000
0000
0010
0000
0100
0001
,
0100
0000
0001
0000
1000
0000
0100
1000
,
0100
0000
1000
0000
0010
0000
1000
0001
,
1000
0001
0100
0110
,
0010
1000
0100
0010
,
0001
0000
0100
0000
0010
0000
0100
0001
,
0100
0001
0010
0100
,
1000
0001
1000
1000
,
0010
0100
0010
1000
,
0001
0000
0001
0000
0010
0000
0001
0100
,
0001
0100
0010
0100
,
0001
0000
1000
0010
0000
0010
1000
0000
,
0001
0100
0001
0000
1000
0100
1000
0000
,
0010
0100
0010
0000
1001
0000
0000
0000
,
0001
0010
0001
0000
1000
0100
1000
0000
,
0010
0100
0010
0100
0010
0000
0000
0000
,
1001
0000
0000
0000
;

//--------------- dance-single - Alex ----------------
#NOTES:
     dance-single:
     Alex:
     Hard:
     8:
     0,0,0,0,0:
0000
0000
0000
0000
,
0000
0000
0000
0000
,
0000
0000
0000
0000
,
0000
0000
0000
0000
,
0001
1000
0010
0100
0001
0010
0100
1000
,
0001
0100
0010
1000
0100
0010
0001
1000
,
1001
0000
0110
0000
0010
0100
0001
0000
,
0100
0010
1000
0100
0010
0100
1000
0001
,
0100
0000
0010
0000
1000
0001
0010
0001
,
1000
0000
0001
1000
0000
1000
0001
0100
,
0010
0000
1000
0000
0001
0010
0001
0100
,
0001
0000
1000
0000
0010
1000
0100
0010
,
0100
0000
1000
0000
0001
0000
0100
0010
,
0100
0000
0001
1000
0010
0100
0000
0100
,
2002
0000
0000
0000
0000
0000
3003
0000
0000
0000
0000
0000
0001
0000
1000
0010
,
1000
0000
0001
0000
0100
0001
0100
0000
,
0001
0000
0010
0000
0100
0000
1000
0000
0001
0000
0000
0000
1000
0000
0001
0100
,
0001
0000
0100
0000
0010
1000
0001
0100
,
0010
1000
0001
0010
0100
1000
0001
0100
,
0010
1000
0100
0000
0010
0001
0100
0000
,
0010
0000
0000
1000
0000
0000
0001
0000
1000
0000
0000
0000
0001
0000
0100
0010
,
0100
0000
0001
0000
0010
0100
1000
0001
,
0100
0000
0010
0100
0000
0001
0010
0100
,
1000
0001
0100
0001
1000
0010
0100
0001
,
0010
0100
1000
0001
0100
0000
0101
0000
,
0001
0100
0001
0000
1000
0010
1000
0000
,
0001
0010
0100
1000
2002
0000
3003
0000
,
0001
0000
1000
0000
0010
0100
0010
0000
,
1000
0000
0001
0000
1000
0100
1000
0000
,
0001
0100
0001
0100
0010
0100
0010
0100
,
0010
1000
0010
1000
0010
1000
0100
0010
,
0001
0100
0001
1000
0010
0000
0100
0001
,
0010
0100
1000
0001
1000
0000
0001
0100
,
0001
1000
0010
0100
0001
0000
1000
0100
,
0010
0100
1000
0001
0100
0000
0110
0110
,
0010
0100
0001
0010
0001
0000
1000
0010
,
1000
0001
1000
0100
0010
0000
0001
0100
,
0010
0100
0001
0010
0100
0000
1000
0001
,
0100
0000
0001
0000
1000
0000
0010
0000
0100
0000
0000
0000
0001
0000
0010
0001
,
0010
0000
0001
0000
0100
0010
0100
0000
,
0001
0000
0010
0000
0100
0000
1000
0000
0001
0000
0000
0000
1000
0000
0010
1000
,
0010
0000
1000
0000
0001
1000
0100
1000
,
0001
0100
0001
1000
0010
0100
0001
0010
,
0100
1000
0001
0000
1000
0010
0100
0000
,
0001
0000
0000
0010
0000
0000
0001
0000
0100
0000
0000
0000
0010
0000
1000
0100
,
1000
0000
0001
0000
0100
0010
0100
0001
,
0010
0000
0001
0010
0000
0010
0001
0100
,
0001
1000
0010
0100
0001
0010
0100
1000
,
0001
0100
0010
1000
0001
0000
1001
0000
,
0001
1000
0010
0100
0001
0010
0001
1000
,
0010
0100
0001
1000
0100
0000
0000
0000
,
1001
0000
0000
0000
;

//--------------- dance-single - Alex ----------------
#NOTES:
     dance-single:
     Alex:
     Challenge:
     9:
     0,0,0,0,0:
0000
0000
0000
0000
,
0000
0000
0000
0000
,
0000
0000
0000
0000
,
0000
0000
0000
0000
,
0001
1000
0001
1000
0001
1000
0010
0100
0010
0100
0010
0100
0001
0010
0001
0010
,
0001
0100
0001
0100
0010
1000
0010
1000
0001
1000
0100
1000
0100
0010
0001
0010
,
0001
0000
0100
0000
0010
0000
0100
0000
0001
0000
1000
0000
0010
0000
0100
0001
,
0100
0000
0001
0000
0010
0000
0100
0000
1000
0000
0001
0000
1000
0000
0010
0100
,
0001
0000
1000
0000
0100
0000
0010
0000
0100
0000
1000
0000
0001
0000
0100
0010
,
0100
0000
0001
0000
1000
0000
0001
0010
0001
0000
0100
0000
0001
0000
1000
0010
,
1000
0000
0001
0000
0010
0000
0100
0000
1000
0000
0001
0000
0100
0000
0010
0100
,
0001
0000
0100
0000
0001
0000
0010
0000
0001
0000
1000
0000
0010
0000
1000
0001
,
1000
0000
0001
0000
0100
0000
0001
0000
0010
0000
0100
0000
1000
0000
0001
1000
,
0100
0000
0010
0000
0001
0000
0100
0010
0100
0000
0001
0000
1000
0000
0010
0200
,
0002
0000
0000
0000
0000
0000
0303
0000
0000
0000
0000
0000
0001
0000
1000
0001
,
1000
0000
0001
0000
0100
0000
0010
0000
1000
0000
0100
0000
0010
0000
0001
0100
,
0001
0000
1000
0000
0010
0000
0100
0001
0010
0000
0001
0000
0100
0000
0010
1000
,
0100
0000
1000
0000
0010
0000
0100
0000
0001
0000
1000
0000
0100
0000
0010
0100
,
1000
0000
0001
0000
0100
0000
0010
0100
0010
0000
1000
0000
0001
0000
0010
0001
,
0010
0000
0001
0000
0100
0000
0010
0000
0100
0000
0001
0000
0010
0000
0100
1000
,
0100
0000
1000
0000
0001
0000
0100
0001
0100
0000
0010
0000
1000
0000
0001
0010
,
0100
1000
0001
0100
0010
1000
0001
1000
,
0010
0000
1001
0110
0000
0011
1100
0011
,
0001
0010
0001
0000
0001
0100
0001
0000
1000
0010
1000
0000
1000
0100
1000
0000
,
0001
0100
0010
0100
0001
0000
1000
0000
0010
0000
0000
0000
1001
0000
0000
0000
,
0001
0100
0001
0000
1000
0010
1000
0000
0001
0010
0001
0000
1000
0100
1000
0000
,
0001
0000
0100
0000
1000
0000
0100
0000
0001
1000
0001
1000
0010
0100
0010
0100
,
0001
0000
1000
0000
0100
0000
0010
0000
0001
0000
0100
0000
0010
0000
0100
0001
,
0100
0000
0001
0000
1000
0000
0010
0000
1000
0000
0001
0000
0100
0000
0010
1000
,
0100
0010
0001
0100
0010
0100
0001
0010
0100
1000
0001
0100
0010
1000
0010
0100
,
0001
0010
0001
0100
0001
0010
0100
0010
0001
0100
0010
1000
0100
0010
0100
1000
,
0001
0000
1000
0001
1000
0000
0001
0000
0100
0000
0000
0000
0010
0000
0100
0000
,
0001
0010
0100
1000
0001
0000
1000
0000
0001
0000
0000
0000
0100
0000
0001
0000
,
0100
0010
0100
0010
0100
0000
0001
0000
1000
0000
0000
0000
0001
0000
0010
0000
,
0001
0100
0010
0100
0001
0000
1001
0000
0110
0000
0000
0000
0110
0000
1001
0000
,
0001
0000
0100
0010
0100
0001
0000
0001
1000
0000
0000
0000
0001
0000
1000
0000
,
0010
0000
1000
0010
1000
0010
0000
0010
0100
0000
0000
0000
0011
0000
1100
0000
,
0001
0010
0100
1000
0010
0000
0100
0001
0100
0000
0000
0000
0001
0000
1000
0000
,
0010
0000
1000
0010
1000
0000
0001
0000
1001
0000
0000
0000
0001
0000
0100
0001
,
0100
0000
0001
0000
0010
0000
0100
0000
1000
0000
0001
0000
0100
0000
0010
1000
,
0001
0000
0010
0000
0001
0000
1000
0010
0100
0000
0001
0000
1000
0000
0100
0010
,
0001
0000
0100
0000
0001
0000
0010
0000
0100
0000
1000
0000
0001
0000
0100
0010
,
0100
0000
0001
0000
1000
0000
0010
1000
0010
0000
1000
0000
0001
0000
0010
0001
,
0010
0001
0100
0010
0100
0001
0010
0100
,
1000
0000
0100
0000
0010
0000
0001
0000
0100
0000
0010
0000
1000
0000
0001
0010
,
0100
0000
1000
0000
0001
0000
0100
0000
0010
0000
1000
0000
0001
0000
1000
0001
,
1000
0001
0101
1010
0000
1100
0011
1100
,
0001
0100
0001
0000
1000
0010
1000
0000
0001
0010
0001
0000
1000
0100
1000
0000
,
0001
1000
0010
0100
1001
0000
0110
0000
,
0010
0100
0001
0000
1000
0100
0010
0000
0001
0100
0010
0000
0100
0001
0010
0000
,
0001
0000
1000
0000
0010
0000
0100
0000
0001
0010
0100
1000
0001
0100
0010
1000
,
2002
0000
0000
0000
0000
3003
0000
0000
;
