#TITLE:Space Fantasy;
#SUBTITLE:;
#ARTIST:E-Paksa;
#TITLETRANSLIT:;
#SUBTITLETRANSLIT:;
#ARTISTTRANSLIT:;
#GENRE:;
#CREDIT:;
#MUSIC:Space Fantasy.ogg;
#BANNER:Space Fantasy.png;
#BACKGROUND:Space Fantasy-BG.png;
#CDTITLE:;
#SAMPLESTART:14.420;
#SAMPLELENGTH:12.614;
#SELECTABLE:YES;
#OFFSET:-0.267;
#BPMS:0.000=186.000;
#STOPS:;
#BGCHANGES:;
#FGCHANGES:;

//--------------- dance-single - Alex ----------------
#NOTES:
     dance-single:
     Alex:
     Beginner:
     1:
     0,0,0,0,0:
0000
0000
0000
0000
,
0000
0000
0000
0000
,
0000
0000
0000
0000
,
0000
0000
0000
0000
,
0000
0000
0000
0000
,
0000
0000
0000
0000
,
0000
0000
0000
0000
,
0000
0000
0000
0000
,
0000
0000
0000
0000
,
0000
0000
0000
0000
,
0000
0000
0000
0000
,
0001
0000
0000
0000
,
1000
0000
0000
0000
,
0010
0000
0000
0000
,
0100
0000
0100
0000
,
0100
0000
0000
0000
,
0001
0000
0000
0000
,
1000
0000
0000
0000
,
0001
0000
0001
0000
,
0001
0000
0000
0000
,
0010
0000
0000
0000
,
1000
0000
0000
0000
,
1000
0000
1000
0000
,
1000
0000
0000
0000
,
0001
0000
0000
0000
,
1000
0000
0000
0000
,
0010
0000
0000
0000
,
1001
0000
0000
0000
,
0000
0000
0000
0000
,
1001
0000
0000
0000
,
0000
0000
0000
0000
,
0110
0000
0000
0000
,
0000
0000
0000
0000
,
0110
0000
0000
0000
,
0000
0000
0000
0000
,
1100
0000
0000
0000
,
0000
0000
0000
0000
,
1100
0000
0000
0000
,
0000
0000
0000
0000
,
0011
0000
0000
0000
,
0000
0000
0000
0000
,
0011
0000
0000
0000
,
0000
0000
0000
0000
,
0001
0000
0000
0000
,
0001
0000
0000
0000
,
1000
0000
0000
0000
,
1000
0000
0000
0000
,
0001
0000
0000
0000
,
0001
0000
0000
0000
,
1000
0000
0000
0000
,
1000
0000
0000
0000
,
1001
0000
0000
0000
,
0000
0000
0000
0000
,
0100
0000
0000
0000
,
0100
0000
0000
0000
,
0010
0000
0000
0000
,
0010
0000
0000
0000
,
1000
0000
0000
0000
,
0001
0000
0000
0000
,
1000
0000
0000
0000
,
0001
0000
0000
0000
,
1001
0000
0000
0000
,
1000
0000
1000
0000
,
1000
0000
0000
0000
,
0001
0000
0001
0000
,
0001
0000
0000
0000
,
1000
0000
1000
0000
,
1000
0000
0000
0000
,
0010
0000
0010
0000
,
0010
0000
0000
0000
,
0100
0000
0000
0000
,
0001
0000
0000
0000
,
1000
0000
0000
0000
,
0010
0000
0000
0000
,
0100
0000
0000
1001
;

//--------------- dance-single - Alex ----------------
#NOTES:
     dance-single:
     Alex:
     Easy:
     4:
     0,0,0,0,0:
0000
0000
0000
0000
,
0000
0000
0000
0000
,
0000
0000
0000
0000
,
0000
0000
0000
0000
,
0000
0000
0000
0000
,
0000
0000
0000
0000
,
0000
0000
0000
0000
,
0000
0000
0000
0000
,
0000
0000
0000
0000
,
0000
0000
0000
0000
,
0000
0000
0000
0000
,
0001
0000
1000
0000
,
0001
0000
1000
0000
,
0010
0000
0100
0000
,
0010
0010
0100
0100
,
0010
0000
0100
0000
,
0001
0000
1000
0000
,
0001
0000
0010
0000
,
0001
0001
1000
1000
,
0100
0000
1000
0000
,
0001
0000
0100
0000
,
0001
0000
0010
0000
,
0001
0001
0100
0100
,
0010
0000
1000
0000
,
0001
0000
1000
0000
,
0100
0000
0100
0000
,
1000
0001
1000
1000
,
1001
0000
1001
0000
,
0110
0000
0110
0000
,
1001
0000
0110
0000
,
1001
0000
0000
0000
,
0101
0000
0101
0000
,
1010
0000
1010
0000
,
1100
0000
1100
0000
,
0011
0000
0000
0000
,
1001
0000
1001
0000
,
0110
0000
0110
0000
,
0101
0000
1001
0000
,
1100
0000
0000
0000
,
0011
0000
0011
0000
,
0101
0000
0101
0000
,
1001
0000
1010
0000
,
1100
0000
0000
0000
,
1000
0000
1000
0000
,
0001
0000
0001
0000
,
1000
0000
0001
0000
,
0100
0100
0100
0000
,
0010
0000
0010
0000
,
1000
0000
0001
0000
,
1000
1000
1000
0000
,
0001
0001
0001
0000
,
0100
0010
0100
0010
,
0100
0000
0000
0000
,
1001
0000
0000
0000
,
0010
0000
0010
0000
,
1001
0000
0000
0000
,
0100
0000
0100
0000
,
1001
0000
0000
0000
,
0010
0000
0010
0000
,
1001
0000
0000
0000
,
0110
0000
0000
0000
,
1000
0001
1000
0000
,
0001
0000
0100
0000
,
0010
1000
0010
0000
,
1000
0000
0100
0000
,
1000
0100
1000
0000
,
0001
0000
0100
0000
,
0001
0100
0001
0000
,
1000
0000
0001
0000
,
0010
0001
0010
0000
,
0001
0100
0001
0000
,
1000
1000
1000
0000
,
0001
0001
0001
0000
,
1000
0010
1000
0010
,
1000
0001
1000
1001
;

//--------------- dance-single - Alex ----------------
#NOTES:
     dance-single:
     Alex:
     Medium:
     6:
     0,0,0,0,0:
0000
0000
0000
0000
,
0000
0000
0000
0000
,
0000
0000
0000
0000
,
0000
0000
0000
0000
,
0000
0000
0000
0000
,
0000
0000
0000
0000
,
0000
0000
0000
0000
,
0000
0000
0000
0000
,
0000
0000
0000
0000
,
0000
0000
0000
0000
,
0000
0000
0000
0000
,
0001
1000
0001
0001
,
1000
0010
1000
1000
,
0001
0100
0010
0100
,
0110
0110
0110
0110
,
0100
0001
0010
0001
,
1000
0000
0001
0001
,
1000
0100
1000
0001
,
1001
0000
0000
0001
0000
1000
0000
0000
,
0001
1000
0010
1000
,
0001
0100
0100
0001
,
0010
0100
1000
0001
,
1001
0000
0000
0010
0000
0100
0010
0000
,
0100
0001
0010
0001
,
1000
1000
0001
0001
,
0100
0010
1000
0100
,
1000
0000
1001
0000
,
0001
0001
1000
1001
,
0001
1000
0001
1001
,
0010
0010
0100
0010
,
0110
0000
0000
0100
0000
0000
0001
0000
,
1000
1000
0010
1010
,
1000
0001
0010
0011
,
0001
0001
0100
0100
,
0100
0000
0110
0000
,
0010
1000
0001
1000
,
0010
0010
1000
1000
,
0001
0100
0010
0100
,
0001
0000
0000
1000
0000
0001
0000
0000
,
1000
0001
1000
0001
,
0100
0010
0100
0100
,
0001
0010
0100
1000
,
0001
1000
1001
0000
,
0001
0100
0010
0100
,
0001
0001
1000
0000
,
0001
1000
0100
1000
,
1000
0010
1000
0000
,
0001
0100
0010
0100
,
0001
0010
0100
0000
,
1000
0001
0100
0001
,
1000
0010
1000
0001
,
0010
0010
0010
0010
,
0010
0000
0000
0000
,
0001
1000
0001
1000
,
1001
0000
1001
0000
,
0010
0100
0010
0100
,
0110
0000
0110
0000
,
0100
0001
0100
0001
,
0101
0000
0101
0000
,
0001
0010
0001
0010
,
0011
0000
0000
0000
,
0001
1000
0010
1000
,
0001
0001
1000
1000
,
0001
0100
0010
0100
,
0001
0010
0100
1000
,
0001
0001
1000
1000
,
0010
1000
0001
0010
,
0001
0100
0010
0100
,
0001
0001
1000
1000
,
0100
0010
0001
0100
,
0010
0100
0001
0010
,
0100
1000
0001
0100
,
0010
0100
0001
1000
,
1000
1001
0001
1001
,
1000
0001
1000
1001
;

//--------------- dance-single - Alex ----------------
#NOTES:
     dance-single:
     Alex:
     Hard:
     9:
     0,0,0,0,0:
0000
0000
0000
0000
,
0000
0000
0000
0000
,
0000
0000
0000
0000
,
0000
0000
0000
0000
,
0000
0000
0000
0000
,
0000
0000
0000
0000
,
0000
0000
0000
0000
,
0000
0000
0000
0000
,
0000
0000
0000
0000
,
0000
0000
0000
0000
,
0000
0000
0000
0000
,
0001
0000
0100
0010
0100
0001
0010
0000
,
0001
1000
0010
0100
0001
0000
1001
0000
,
0001
1000
0100
1000
0001
0000
0100
0000
,
0010
0010
0100
0100
0001
0001
1000
1000
,
0001
0010
0100
1000
0001
0000
0100
0010
,
1000
0000
0000
0001
1000
0000
1001
0000
,
0001
0100
0010
0100
0001
0100
0010
0100
,
0001
0000
0000
1000
0000
0001
0000
1000
,
0010
0000
0100
0001
0010
0001
0100
0000
,
0010
1000
0100
0010
0001
0000
1000
0000
,
0001
1000
0010
0100
0001
0000
0001
1000
,
0100
0000
0000
0010
0000
0001
0000
0100
,
0010
0000
0100
0000
0100
0000
0001
1000
,
0001
1000
0010
0100
0010
1000
0001
0000
,
0010
0100
1000
0001
0100
0010
1000
0001
,
0010
0001
0000
1000
0000
0001
0000
1000
,
0001
1000
0001
0100
0001
0100
0100
0010
,
1000
0100
0010
0001
1000
0000
0001
0000
,
0100
0001
0100
0001
0010
0100
0010
0001
,
0100
0000
0000
0001
0000
0000
0010
0000
,
0001
0010
0001
0001
1000
0010
1000
0000
,
0001
1000
0100
1000
0001
0100
0010
0100
,
0001
0001
0010
0100
1000
0001
0100
0010
,
1000
0000
1001
0000
,
0001
1000
0010
1000
0001
1000
0100
0010
,
0001
0100
0010
0100
0001
0000
0010
0000
,
0001
0100
0010
0100
0001
0100
0001
1000
,
0010
0000
0000
1000
0000
0010
0000
1000
,
0001
0000
0001
0000
0100
0000
0001
0100
,
0010
0100
0001
0010
0100
0000
1000
0000
,
0001
1000
0001
0100
0001
1000
0010
0100
,
0001
1000
0000
0000
1001
0000
0000
0000
,
0001
1000
0010
1000
0001
0010
0000
0001
,
0000
0100
0010
0100
0001
1000
0000
0000
,
0100
0010
0001
0100
0010
0100
0000
0001
,
0000
0010
0001
0100
0010
0000
0110
0000
,
0010
1000
0100
1000
0010
1000
0100
0000
,
1000
0001
0100
0001
1000
0001
0100
0000
,
0001
0010
0100
0000
1000
0010
0100
0000
,
0001
0100
0010
0100
0001
0100
0010
0000
,
1001
1001
0110
0110
,
1001
0000
0000
0000
,
0001
1000
0001
0100
0001
1000
0010
0000
,
1010
0101
0011
0000
,
0001
0100
0010
0100
0001
1000
0100
0000
,
1100
1010
0101
0000
,
0001
1000
0001
0100
0001
1000
0010
0000
,
1010
1100
0110
0000
,
0010
0001
0100
0010
0100
0001
1000
0000
,
1001
1001
0110
0110
,
0010
0100
0001
0000
1000
0010
0100
0000
,
0001
0010
0100
1000
0001
0000
0101
0000
,
0001
0100
0001
0000
1000
0100
1000
0000
,
0010
1000
0010
0100
0010
1000
0001
1000
,
0001
0100
0001
0000
0010
0100
1000
0000
,
0001
0100
0010
0100
0001
0000
1001
0000
,
0001
0010
0001
0000
1000
0010
1000
0000
,
0001
1000
0100
1000
0001
0000
0001
0100
,
0010
0100
0001
0010
0100
1000
0000
0010
,
1000
0000
1000
0010
1000
0000
0001
0000
,
1000
0100
0010
0001
0100
0000
0010
0000
,
0100
0001
0010
0100
1000
0000
0001
1000
,
0010
0100
0001
0000
1000
0001
1000
0000
,
0001
0100
0010
0100
0001
0100
0110
0000
;
