#TITLE:Sorceress Elise;
#SUBTITLE:;
#ARTIST:Yahpp;
#TITLETRANSLIT:;
#SUBTITLETRANSLIT:;
#ARTISTTRANSLIT:;
#GENRE:;
#CREDIT:;
#MUSIC:Sorceress Elise.ogg;
#BANNER:Sorceress Elise.png;
#BACKGROUND:Sorceress Elise-BG.png;
#CDTITLE:;
#SAMPLESTART:15.270;
#SAMPLELENGTH:11.566;
#SELECTABLE:YES;
#OFFSET:-0.128;
#BPMS:0.000=158.000
,108.000=79.000
,111.000=158.000
;
#STOPS:;
#BGCHANGES:;
#FGCHANGES:;

//--------------- dance-single - Alex ----------------
#NOTES:
     dance-single:
     Alex:
     Beginner:
     2:
     0,0,0,0,0:
0000
0000
0000
0000
,
0000
0000
0000
0000
,
0000
0000
0000
0000
,
0000
0000
0000
0000
,
0100
0000
0000
0000
,
0010
0000
0000
0000
,
0010
0000
0000
0000
,
0100
0000
0000
0000
,
1001
0000
0000
0000
,
1001
0000
0000
0000
,
0100
0000
0100
0000
,
0200
0000
0300
0000
,
0020
0000
0030
0000
,
2000
0000
3000
0000
,
0001
0000
0001
0000
,
0002
0000
0003
0000
,
2000
0000
3000
0000
,
0200
0000
0300
0000
,
1001
0000
0000
0000
,
0110
0000
0000
0000
,
1001
0000
0000
0000
,
0110
0000
0000
0000
,
0100
0000
0000
0000
,
0100
0000
0000
0000
,
0010
0000
0010
0000
,
0020
0000
0030
0000
,
2000
0000
3000
0000
,
0002
0000
0003
1001
,
0000
0000
0000
0001
,
0000
0000
0000
0100
,
0000
0000
0000
0010
,
0000
0000
0000
1000
,
0000
0000
0000
1000
,
0000
0000
0000
0001
,
0000
0000
0000
0001
,
0000
0000
0000
1001
,
0000
0000
0000
0001
,
0000
0001
0000
0001
,
0000
0000
0000
1000
,
0000
1000
0000
1000
,
0000
0000
0000
0001
,
0000
0001
0000
0001
,
0000
0000
0000
1001
,
0000
0000
0000
1001
,
0000
0000
0000
0010
,
0000
0000
0000
0100
,
0000
0000
0000
0020
,
0000
0030
0000
1000
,
0000
1000
0000
2000
,
0000
3000
0000
0002
,
0000
0003
0000
0020
,
0000
0030
0000
0010
,
0000
0010
0000
0020
,
0000
0030
0000
0002
,
0000
0003
0000
2000
,
0000
3000
0000
1001
,
0000
0000
0000
0001
,
0000
0000
0000
1000
,
0000
0000
0000
0010
,
0000
0000
0000
1000
,
0000
0000
0000
0100
,
0000
0000
0000
1000
,
0000
1000
0000
2000
,
0000
3000
0000
0020
,
0000
0030
0000
0200
,
0000
0300
0000
1001
,
0000
0000
0000
0010
,
0000
0000
0000
1000
,
0000
0000
0000
0001
,
0000
0000
0000
0100
,
0000
0000
0000
0100
,
0000
0000
0000
0010
,
0000
0000
0000
0100
,
0000
0100
0000
0100
;

//--------------- dance-single - Alex ----------------
#NOTES:
     dance-single:
     Alex:
     Easy:
     4:
     0,0,0,0,0:
0000
0000
0000
0000
,
0000
0000
0000
0000
,
0000
0000
0000
0000
,
0000
0000
0000
0000
,
0001
1000
0001
0000
,
1000
0100
1000
0000
,
0010
0100
0010
0000
,
0100
0001
0100
0000
,
1001
0000
1001
0000
,
0110
0110
0110
0110
,
0010
1000
0001
0010
,
0002
0000
0003
1000
,
0200
0000
0300
1000
,
0020
0000
0030
0000
,
1000
0001
0010
0100
,
2000
0000
3000
0001
,
0200
0000
0300
0010
,
0200
0000
0300
0001
,
1001
0000
0000
0010
0000
0000
1000
0000
,
1001
0000
0000
0100
0000
0000
0001
0000
,
0011
0000
0000
0001
0000
0000
1000
0000
,
1001
0000
1001
0000
,
0110
0110
0110
0110
,
0220
0000
0330
0000
,
1000
0001
0010
0001
,
0200
0000
0300
0001
,
2000
0000
3000
0001
,
0200
0000
0300
2000
,
3000
0002
0000
0003
0100
0000
0020
0000
,
0030
2000
0000
3000
0001
0000
0020
0000
,
0030
0002
0000
0003
0100
0000
0020
0000
,
0030
2000
0000
3000
1001
0000
0002
0000
,
0003
0200
0000
0300
0010
0000
2000
0000
,
3000
0200
0000
0300
1000
0000
0002
0000
,
0003
0020
0000
0030
0001
0000
0200
0000
,
0300
0020
0000
0030
1000
0000
1001
0000
,
0001
0100
0000
0001
,
1000
0010
0000
1000
,
0100
1000
0000
0001
,
0100
0001
0000
0100
,
0010
0100
0000
0010
,
1000
0010
0000
1000
,
0100
1000
0000
1001
,
0000
1001
0000
0110
,
0000
0110
0000
1000
,
1000
0001
0001
1000
,
0001
1000
0001
0020
,
0000
0000
0030
1001
,
0001
1000
0010
0200
,
0000
0300
0001
0020
,
0000
0030
0001
2000
,
0000
3000
0000
0001
,
1000
0100
1000
0020
,
0000
0030
0100
0002
,
0000
0003
1000
0002
,
0000
0003
1000
1001
,
0000
0100
0000
0000
0001
0000
1001
0000
,
0000
1000
0000
0000
0010
0000
1010
0000
,
0000
0100
0000
0000
0001
0000
0011
0000
,
0000
0101
0000
0110
,
0110
0110
0110
2002
,
0000
3003
0000
1000
,
0001
0010
0001
0200
,
0000
0300
0010
2000
,
0000
3000
0001
0020
,
0000
0030
0000
1001
,
0000
1001
0000
0001
,
1000
0001
0000
0110
,
0000
0110
0000
1000
,
0010
1000
0000
0101
,
0000
0101
0000
1010
,
0000
1010
0000
1000
,
0001
0100
0010
0100
,
0100
0010
0000
0200
,
0000
0000
0000
0000
,
0000
0000
0000
0300
;

//--------------- dance-single - Alex ----------------
#NOTES:
     dance-single:
     Alex:
     Medium:
     6:
     0,0,0,0,0:
0000
0000
0000
0000
,
0000
0000
0000
0000
,
0000
0000
0000
0000
,
0000
0000
0000
0000
,
0001
1000
0010
0100
,
0001
0010
0001
0000
1000
0100
1000
0000
,
0001
0100
0010
1000
,
0001
0010
0001
0000
1000
0100
1000
0000
,
2002
3003
2002
3003
,
0110
0110
0110
0110
,
0010
1000
0100
0010
,
0001
0100
0001
0000
0100
0000
0010
0000
,
1000
0010
1000
0000
0001
0000
0100
0000
,
0010
0100
0010
0100
0020
0000
0030
0000
,
1000
0100
0010
0100
,
1000
0001
1000
0000
0001
0000
0100
0000
,
0001
0100
0001
0000
1000
0000
0010
0000
,
0100
0010
0100
0000
0001
0000
1000
0000
,
2002
0000
3003
0110
0000
0000
0101
0000
,
2020
0000
3030
1100
0000
0000
0011
0000
,
0202
0000
0303
0110
0000
0000
0110
0000
,
2002
3003
0022
0033
,
1100
0011
0110
1010
,
0220
0000
0000
0330
,
1001
0001
0100
0010
,
1000
0100
1000
0000
0001
0000
0100
0000
,
0010
0100
0010
0000
0100
0000
0001
0000
,
2002
0000
3003
0001
,
1000
0010
0000
0010
1000
0000
0001
0000
,
0100
0010
0000
0010
0100
0000
0001
0000
,
0001
0100
0000
0100
0001
0000
1000
0000
,
0010
1000
0000
1000
0010
0000
0100
0000
,
0001
1000
0000
1000
0001
0000
0100
0000
,
0010
0100
0000
0100
0010
0000
1000
0000
,
0100
1000
0000
1000
0100
0000
1000
0000
,
0001
0100
0000
0100
0001
0000
1001
0000
,
0010
0100
0001
1001
,
1000
0100
1000
1010
,
0010
0100
0001
0101
,
0100
0010
1000
1001
,
0001
0001
1000
1100
,
1000
0010
0100
0110
,
0100
0001
1000
2002
,
3003
0022
0033
0110
,
1100
0110
0101
1010
,
0011
0101
0110
1100
,
1100
0011
0011
2002
,
0000
0000
3003
1001
,
0001
0000
0100
0000
0010
0000
1000
0001
,
1000
0000
0001
0000
0100
0000
0010
0100
,
0010
0000
0100
0000
0001
0000
1000
0001
,
1000
1000
0001
1001
,
0001
0000
0100
0000
0010
0000
1000
0100
,
1000
0000
0001
0000
0100
0000
0001
0100
,
0001
0000
0100
0000
0100
0000
0010
0100
,
0010
0100
0001
2002
,
3003
0110
0000
0000
0101
0000
2020
0000
,
3030
1100
0000
0000
0011
0000
0202
0000
,
0303
0110
0000
0000
1010
0000
0202
0000
,
0303
2002
3003
0011
,
1100
0011
0110
2002
,
0000
0000
3003
1001
,
0001
0000
0000
0000
0100
0000
0010
0100
,
0010
0000
1000
0000
0001
0000
1000
0100
,
1000
0000
0001
0000
0100
0000
0010
0100
,
0010
0000
0100
0000
0001
0000
1000
0001
,
0000
0100
0000
0010
0000
0100
0001
0000
,
1000
0000
0100
0000
1000
0000
0001
0100
,
0000
0001
0000
1000
0000
0010
0100
0000
,
0001
0000
0010
0000
0001
0000
1000
0001
,
0000
0100
0000
0101
0000
0001
1000
0010
,
0000
1000
0000
1010
0000
0010
1000
0100
,
0000
1000
0000
1001
0000
0001
1000
0001
,
0100
0000
0010
0100
0010
0100
0020
0000
,
0000
0000
0000
0000
,
0000
0000
0000
0030
;

//--------------- dance-single - Alex ----------------
#NOTES:
     dance-single:
     Alex:
     Hard:
     9:
     0,0,0,0,0:
0000
0000
0000
0000
,
0000
0000
0000
0000
,
0000
0000
0000
0000
,
0000
0000
0000
0000
,
0001
1000
0010
0100
0001
0010
0100
1000
,
0001
0100
0001
0100
0010
0100
0001
0000
,
1000
0100
0010
0100
1000
0001
0100
0010
,
0100
0100
0001
0001
1000
0010
1000
0001
,
1001
0000
0000
0001
0100
0010
0000
0100
,
0001
1000
0100
0010
0001
0100
0010
0100
,
0101
0001
1000
0010
0100
0001
1000
0010
,
0200
0000
0000
0000
0300
0001
1000
0010
,
2000
0000
0000
0000
3000
0001
0100
0010
,
0200
0000
0010
0310
,
1000
0010
0100
0001
0010
0001
0100
0010
,
0200
0000
0000
0000
0300
0001
1000
0001
,
0020
0000
0000
0000
0030
0001
1000
0100
,
2000
0000
0000
0000
3000
0001
1000
0010
,
0220
0330
0000
0101
0000
0001
1000
0010
,
2020
3030
0000
0101
0000
0001
1000
0100
,
2200
3300
0000
0011
0000
0001
0100
0010
,
0220
0000
0330
0001
2002
0000
3003
1000
,
0100
0010
0001
0100
0010
0100
0001
1000
,
2002
0000
0000
3003
,
0001
1000
0010
1000
0001
0010
0001
0100
,
0020
0000
0000
0000
0030
0100
0001
0010
,
0200
0000
0000
0000
0300
1000
0001
0100
,
0220
0000
0000
0000
0330
0000
0002
0003
,
0100
0020
0030
1000
0100
0010
0002
0003
,
1000
0020
0030
1000
0001
0010
0200
0300
,
1000
0002
0003
0100
0001
0100
0020
0030
,
1000
0200
0300
1000
0001
0100
0220
0330
,
0010
2000
3000
0001
0010
0001
0200
0300
,
0001
2000
3000
0100
0010
0001
0200
0300
,
0010
2000
3000
0010
0010
1000
0002
0003
,
1000
0200
0300
1000
0001
0100
0010
0100
,
0001
0100
0010
0100
0001
0000
1000
0100
,
0010
0001
1000
0010
1000
0000
0001
1000
,
0001
0100
0001
0100
0010
0000
1000
0100
,
0010
0001
0100
0010
0100
0000
1000
0001
,
1000
1000
0001
0100
0001
0000
1000
0010
,
0010
1000
0001
0100
0010
0000
0100
0001
,
0010
0100
1000
0001
0100
0000
0020
0000
,
0030
0100
0001
1000
0000
0001
0100
0010
,
0100
0001
0010
0100
1000
0010
0100
0100
,
0001
0001
1000
1000
0001
0001
0010
0001
,
0100
0010
0100
0001
1000
0100
0022
0000
,
0000
0000
0000
0000
0033
0000
0011
0001
,
0100
0010
0100
0001
1000
0100
2000
0000
,
0000
0000
3000
0001
1000
0010
0200
0000
,
0000
0000
0300
0001
0010
0100
2000
0000
,
0000
0000
0001
0000
3001
0000
0001
0100
,
0010
1000
0001
0010
0100
1000
0002
0000
,
0000
0000
0003
0100
0100
0001
2000
0000
,
0000
0000
3000
0010
1000
0001
0020
0000
,
0000
0000
0030
0001
0100
0010
0220
0330
,
0000
0101
0000
0001
1000
0010
2020
3030
,
0000
1100
0000
1000
0001
0100
0202
0303
,
0000
0110
0000
0010
1000
0001
0020
0030
,
0001
1000
0020
0030
1000
0001
0100
0100
,
0001
0001
1000
0010
0100
0001
0202
0000
,
0000
0000
0000
0000
0303
0000
0001
1000
,
0010
1000
0001
0010
0001
0100
0020
0000
,
0000
0000
0030
0100
0001
1000
0200
0000
,
0000
0000
0300
1000
0001
0010
0002
0000
,
0000
0000
1000
0000
1003
0000
0001
0100
,
0000
0110
0000
1010
0000
0010
1000
0100
,
0010
0001
0100
0010
0100
0001
1000
0001
,
0000
1001
0000
0110
0000
0010
1000
1000
,
0001
0010
0001
0001
0100
0010
0100
0001
,
0000
0101
0000
0110
0000
0010
1000
0100
,
0000
1100
0000
0011
0000
0001
1000
0010
,
0000
1010
0000
0101
0000
0001
0100
0010
,
0100
0100
0001
0010
0100
1000
2002
0000
,
0000
0000
0000
0000
,
0000
0000
0000
3003
;

//--------------- dance-single - Alex ----------------
#NOTES:
     dance-single:
     Alex:
     Challenge:
     12:
     0,0,0,0,0:
0000
0000
0000
0000
,
0000
0000
0000
0000
,
0000
0000
0000
0000
,
0000
0000
0000
0000
,
0001
1000
0010
0100
0001
1000
0100
1000
,
0001
0100
0001
0100
0001
0000
0100
0000
0010
0100
0010
0100
0010
0000
0100
0000
,
0101
0001
1000
0010
1000
0001
1000
0100
,
1000
0100
1000
0100
1000
0000
0010
0000
0100
0001
0100
0001
0100
0000
0001
0000
,
1001
0000
0000
0000
0000
0000
0001
0100
0001
0000
0101
0000
0000
0000
0001
1000
,
0001
0000
1000
0010
1000
0000
0010
0100
0010
0000
0100
0001
0100
0000
0001
0010
,
0001
0100
0010
0100
0001
1000
0100
0010
,
0001
0100
0001
0100
0001
0100
0001
0100
0001
0000
1000
0000
0010
0000
1000
0000
,
0010
1000
0010
1000
0010
1000
0010
1000
0010
0000
1000
0000
0001
0000
0100
0000
,
0010
0100
0010
0100
0010
0100
0010
0100
0010
0000
0100
0000
0101
0000
1010
0000
,
1100
1000
0010
0100
0001
1000
0001
0100
,
0010
0100
0010
0100
0010
0100
0010
0100
0010
0000
0100
0000
0001
0000
0010
0000
,
0001
1000
0001
1000
0001
1000
0001
1000
0001
0000
1000
0000
0010
0000
0100
0000
,
0001
0010
0001
0010
0001
0010
0001
0010
0001
0000
0100
0000
0010
0000
0100
0000
,
0101
0000
1010
1100
0000
0010
0001
0100
,
0101
0000
0110
1010
0000
0010
0010
1000
,
1001
0000
0101
0110
0000
0010
1000
0001
,
1001
0000
0001
0100
0110
0000
0010
1000
,
1100
1000
1010
0010
1010
1000
1001
0001
,
0202
0000
0000
0303
,
0001
1000
0010
1000
0001
0010
0100
1000
,
0001
1000
0001
1000
0001
1000
0001
1000
0001
0000
0100
0000
0010
0000
0100
0000
,
0001
0010
0001
0010
0001
0010
0001
0010
0001
0000
0100
0000
0010
0000
0100
0000
,
0202
0000
0000
0000
0000
0000
0000
0000
0000
0000
0303
0000
0001
1000
0010
0100
,
0001
0010
0100
1000
0001
0100
0010
0100
0001
0000
1000
0000
0010
1000
0001
0100
,
0001
0010
0100
1000
0001
0100
0010
1000
0100
0000
1000
0000
0001
0100
0001
0100
,
0010
0100
0001
0010
0100
1000
0001
1000
0001
0000
1000
0000
0010
1000
0100
1000
,
0010
1000
0010
0100
0001
0100
0001
0010
0001
0000
0100
0000
0001
0010
0100
1000
,
0001
0100
0010
1000
0100
0010
0001
1000
0010
0000
1010
0000
0010
1000
0001
0100
,
0010
0100
0001
0010
0100
1000
0001
1000
0001
0000
1001
0000
0001
0100
0001
1000
,
0010
1000
0001
1000
0100
0010
0100
0010
0001
0000
1001
0000
0001
1000
0010
0100
,
0001
0010
0100
1000
0010
0100
0010
0100
0001
0000
0101
0000
0001
1000
0010
0000
,
1000
0001
0100
0001
1000
0001
0100
0000
0001
1000
0001
0000
1000
0010
1000
0000
,
0001
0100
0001
0000
0100
0000
0110
0000
0010
1000
0010
0000
1000
0001
1000
0001
,
0100
0000
0001
1000
0010
0100
0001
0000
1000
0100
0010
0000
0001
0100
0001
1000
,
0001
1000
0010
1000
0001
1000
0010
0100
0001
1000
0010
0100
0001
0010
0001
0000
,
0100
0001
0100
0000
0010
0000
0010
0000
0010
1000
0010
0000
1000
0001
1000
0000
,
0001
0100
0001
0000
0100
0010
0100
0000
0001
1000
0001
0000
1000
0010
1000
0010
,
1000
0000
0001
0100
0001
0100
0001
0000
0100
0010
0100
0000
2002
0000
0000
0000
,
3003
0000
0001
0100
0010
0000
0110
0000
0000
0000
0010
1000
1100
0000
1000
0001
,
1001
0000
0001
0100
0101
0000
0100
0010
0110
0000
0010
1000
0020
0030
1000
0001
,
2000
3000
0001
0100
0002
0003
0010
0001
0200
0300
0010
1000
0100
1000
0001
1000
,
0010
0100
0001
0100
0010
0100
0001
1000
0010
1000
0001
2000
0200
0000
0000
0000
,
0000
0000
0000
0000
3300
0000
1001
0001
,
0100
0000
0010
0000
0100
0000
0001
0000
1000
0000
0100
0000
0010
0001
0100
0010
,
0100
0001
0010
0100
1000
0000
0010
0000
0100
0000
0010
0000
1000
0001
0010
0001
,
1000
0010
1000
0001
1000
0000
0001
0000
0100
0000
0001
0000
0010
0100
1000
0001
,
0100
0010
0100
0001
1000
0000
1001
0000
0110
0000
1001
0000
0001
0000
0100
0000
,
0010
0000
0100
0000
0001
0000
0010
0000
0100
0000
1000
0000
0001
0010
0100
1000
,
0001
1000
0010
1000
0001
0000
0100
0000
0010
0000
0100
0000
0001
0010
0001
0100
,
0010
0100
0001
0010
0100
0000
1000
0000
0010
0000
1000
0000
0001
1000
0010
0100
,
0001
0010
0100
1000
0001
0000
0100
0000
0010
0000
0100
0000
0101
0000
0000
0000
,
1001
1010
0000
0010
0100
0001
0011
0000
,
1001
0110
0000
0010
1000
0100
1100
0000
,
1010
0101
0000
0001
1000
0001
0011
0000
,
0001
0100
0110
0000
0010
1000
1100
1000
,
1001
0001
0101
0100
0110
0010
2002
0000
,
0000
0000
0000
0000
3003
0000
1001
0001
,
0100
0000
1000
0000
0100
0000
0001
0000
0010
0000
0001
0000
0100
0010
0100
0001
,
0010
0100
1000
0001
1000
0000
0001
0000
0100
0000
0001
0000
1000
0010
1000
0010
,
0100
0010
0100
0001
0100
0000
0010
0000
1000
0000
0001
0000
0010
0001
0100
0010
,
0100
0001
0010
0100
1000
0000
0001
1000
0001
0100
0001
1000
0010
0000
0110
0000
,
M00M
0000
1001
0000
0MM0
0000
0110
0000
M00M
0000
1001
0000
0001
1000
0001
0100
,
0001
0010
0100
1000
0001
0100
0010
1000
0100
0010
0001
0000
1001
0000
0110
0000
,
00MM
0000
0011
0000
MM00
0000
1100
0000
00MM
0000
0011
0000
0001
0010
0001
0100
,
0010
0100
0001
1000
0001
1000
0100
1000
0001
0100
0010
0000
1010
0000
0101
0000
,
00MM
0011
M00M
1001
M0M0
1010
1100
0110
,
00MM
0011
0M0M
0101
0MM0
0110
0101
0011
,
M00M
1001
0MM0
0110
M0M0
1010
0101
1010
,
0101
0000
0011
0000
0001
0100
0010
0100
0001
0010
0100
1000
2002
0000
0000
0000
,
0000
0000
0000
0000
,
0000
0000
0000
3003
;
