#TITLE:Solitary;
#SUBTITLE:;
#ARTIST:Banya;
#TITLETRANSLIT:;
#SUBTITLETRANSLIT:;
#ARTISTTRANSLIT:;
#GENRE:;
#CREDIT:;
#MUSIC:Solitary.ogg;
#BANNER:Solitary.png;
#BACKGROUND:Solitary-BG.png;
#CDTITLE:;
#SAMPLESTART:28.203;
#SAMPLELENGTH:16.994;
#SELECTABLE:YES;
#OFFSET:-0.023;
#BPMS:0.000=136.000;
#STOPS:;
#BGCHANGES:;
#FGCHANGES:;

//--------------- dance-single - Alex ----------------
#NOTES:
     dance-single:
     Alex:
     Beginner:
     1:
     0,0,0,0,0:
0000
0000
0000
0000
,
0000
0000
0000
0000
,
0000
0000
0000
0000
,
0000
0000
0000
0000
,
0010
0000
0000
0000
,
0010
0000
0000
0000
,
1000
0000
0000
0000
,
0001
0000
0000
0000
,
0001
0000
0000
0000
,
1000
0000
0000
0000
,
0100
0000
0000
0000
,
0100
0000
0000
0000
,
1001
0000
0000
0000
,
0000
0000
0000
0000
,
1001
0000
0000
0000
,
0000
0000
0000
0000
,
0010
0000
0000
0000
,
0100
0000
0000
0000
,
0010
0000
0000
0000
,
1000
0000
0000
0000
,
1000
0000
0000
0000
,
0001
0000
0000
0000
,
0001
0000
0000
0000
,
0001
0000
0000
0000
,
1000
0000
0000
0000
,
0010
0000
0000
0000
,
1000
0000
0000
0000
,
0001
0000
0000
0000
,
0001
0000
0000
0000
,
0100
0000
0000
0000
,
0010
0000
0000
0000
,
0100
0000
0000
0000
,
0100
0000
0000
0000
,
0001
0000
0000
0000
,
0001
0000
0000
0000
,
1000
0000
0000
0000
,
1000
0000
0000
0000
,
0010
0000
0000
0000
,
0010
0000
0000
0000
,
1000
0000
0000
0000
,
0001
0000
0000
0000
,
1001
0000
0000
0000
,
0010
0000
0000
0000
,
0100
0000
0000
0000
,
0001
0000
0000
0000
,
0010
0000
0000
0000
,
0001
0000
0000
0000
,
0001
0000
0000
0000
,
0100
0000
0000
0000
,
1001
0000
0000
0000
,
0000
0000
0000
0000
,
0110
0000
0000
0000
,
0000
0000
0000
0000
,
1001
0000
0000
0000
,
0000
0000
0000
0000
,
0110
0000
0000
0000
,
0000
0000
0000
1001
0000
0000
0000
0000
;

//--------------- dance-single - Alex ----------------
#NOTES:
     dance-single:
     Alex:
     Easy:
     3:
     0,0,0,0,0:
0000
0000
0000
0000
,
0000
0000
0000
0000
,
0000
0000
0000
0000
,
0000
0000
0000
0000
,
0001
0000
0001
0000
,
1000
0000
1000
0000
,
0010
0000
0010
0000
,
0100
0000
0100
0000
,
0001
0000
0001
0000
,
0100
0000
0100
0000
,
0001
0000
1000
0000
,
1000
0000
0100
0000
,
1001
0000
0000
0000
,
1001
0000
0000
0000
,
0110
0000
0000
0000
,
0110
0000
0000
0000
,
1000
0000
0001
0000
,
1000
1000
1000
0000
,
0001
0000
0100
0000
,
0001
0001
0001
0000
,
1000
0000
0010
0000
,
0100
0100
0100
0000
,
0001
0000
0010
0000
,
0001
0001
0001
0000
,
1001
0000
0110
0000
,
1001
0000
0001
0000
,
1000
0000
0001
0000
,
0100
0000
0010
0000
,
1000
0000
1000
0000
,
0001
0000
0010
0000
,
0001
0000
0100
0000
,
0010
0000
0100
0000
,
0001
0000
1000
0000
,
0001
0010
0001
0000
,
0100
0000
0010
0000
,
1000
0100
1000
0000
,
0001
0000
1000
0000
,
0010
0100
0010
0000
,
0100
0000
0001
0000
,
0010
0001
0010
0000
,
0001
0000
1000
0000
,
0001
0100
0001
0000
,
1000
0000
0100
0000
,
1000
0010
1000
0000
,
0001
0000
0010
0000
,
0001
1000
0001
0000
,
1000
0000
0001
0000
,
1000
0010
1000
0000
,
0001
0000
0010
0000
,
1001
0000
0000
0000
,
0110
0000
0000
0000
,
1100
0000
0000
0000
,
0011
0000
0000
0000
,
0110
0000
0000
0000
,
1010
0000
0000
0000
,
0101
0000
0000
0000
,
1001
0000
0000
1001
0000
0000
0000
0000
;

//--------------- dance-single - Alex ----------------
#NOTES:
     dance-single:
     Alex:
     Medium:
     4:
     0,0,0,0,0:
0000
0000
0000
0000
,
0000
0000
0000
0000
,
0000
0000
0000
0000
,
0000
0000
0000
0000
,
0001
0100
0001
0000
,
1000
0010
1000
0001
,
0100
0100
0001
0000
,
1000
0100
1000
0001
,
0001
0100
0010
0000
,
0100
0001
0010
0000
,
0001
1000
0010
0000
,
1000
0001
0100
0000
,
1001
0000
0000
0000
0000
0000
0000
0001
,
1000
0000
0000
0000
0000
0000
0000
0010
,
0100
0000
0000
0000
0000
0000
0000
0010
,
0100
0000
0000
0000
,
1001
0000
0001
0100
,
0001
0001
0000
0001
,
1000
1000
0000
0001
,
0100
0020
0000
0130
,
0000
0001
1000
0001
,
0010
0010
0000
0001
,
1000
0010
0000
0100
,
0001
2000
0000
3001
,
0001
1000
0001
1000
,
1001
0000
0010
0000
,
1000
0001
1000
0000
,
0001
0100
0001
0000
,
0100
0010
0100
0000
,
0001
1000
0100
0000
,
1000
0001
1000
0000
,
0010
0100
0010
0000
,
0100
0001
0100
0000
,
0001
0010
0001
0001
,
1000
0010
1000
1000
,
0001
0001
0100
0100
,
0010
0100
0010
0010
,
1000
1000
0100
0100
,
1000
0001
1000
0001
,
0010
0010
0001
0000
,
0100
0010
0100
0100
,
0001
1000
0010
1000
,
1000
0001
0010
0001
,
0100
0010
0100
0000
,
0001
0010
0001
0001
,
1000
1000
0001
0001
,
1000
0100
1000
0010
,
1000
0001
0001
0000
,
1000
0010
1000
0001
,
0101
0000
0000
0000
0000
0000
0000
0001
,
0010
0000
0000
0000
0000
0000
0000
0001
,
1000
0000
0000
0000
0000
0000
0000
0010
,
0100
0000
0000
0000
0000
0000
0000
0001
,
1000
0000
0000
0000
0000
0000
0000
1000
,
0100
0000
0000
0000
0000
0000
0000
1000
,
0001
0000
0000
0000
,
0010
0000
0000
0100
0000
0000
0020
0000
0000
0000
0000
0000
0000
0000
0030
0000
;

//--------------- dance-single - Alex ----------------
#NOTES:
     dance-single:
     Alex:
     Hard:
     8:
     0,0,0,0,0:
0000
0000
0000
0000
,
0000
0000
0000
0000
,
0000
0000
0000
0000
,
0000
0000
0000
0000
,
0001
1000
0000
1000
0001
0000
0001
0000
0100
0000
0010
0000
0100
0000
0000
0000
,
0001
0010
0000
0010
0001
0000
1000
0000
0001
0000
0100
0000
0010
0000
1000
0000
,
0100
1000
0000
1000
0100
0000
1000
0000
0010
0000
0100
0000
0001
0000
0000
0000
,
0010
0001
0010
0001
0010
0000
0001
0000
0100
0000
0010
0000
0100
0000
0001
0000
,
1000
0000
0000
0001
0100
0000
0001
0100
0000
0010
0100
0000
0001
0000
1000
0000
,
0100
0000
0000
1000
0100
0000
1000
0010
0000
1000
0001
0000
0100
0000
0010
0000
,
0100
0000
0000
0001
0010
0000
0001
1000
0000
0001
1000
0000
0001
0000
0100
0000
,
0001
0000
0000
1000
0010
0000
1000
0001
0000
1000
0001
0000
0001
0000
0100
0000
,
0001
0000
0000
0001
0000
0000
0001
0000
0000
0000
0001
0000
0000
0000
0001
0000
,
1000
0000
0000
1000
0000
0000
1000
0000
0000
0000
1000
0000
0000
0000
1000
0000
,
0010
0000
0000
0010
0000
0000
0010
0000
0000
0000
0010
0000
0000
0000
0010
0000
,
0100
0000
0000
0100
0000
0000
0100
0000
0000
0000
0100
0000
0000
0000
0100
0000
,
0001
1000
0010
0000
1000
0001
0010
0001
,
1000
0000
0010
0000
1000
0000
0000
0000
0001
0000
0100
0001
0100
0000
0001
0000
,
1000
0000
0010
0000
1000
0000
0000
0000
0001
0000
0010
0001
0010
0000
0001
0000
,
0100
0010
0200
0000
0000
0000
0310
0000
,
1000
0100
1000
0000
0001
0100
0001
1000
,
0010
0000
0100
0000
0001
0000
0000
0000
1000
0000
0100
1000
0100
0000
1000
0000
,
1000
0000
0010
0000
1000
0000
0000
0000
0001
0000
0100
0001
0100
0000
0001
0000
,
1000
1000
0002
0000
0000
0000
1003
0000
,
0001
1000
0001
1000
0001
0000
0000
0001
0000
0001
0100
0000
0010
0000
0100
0000
,
0001
0000
0000
0001
0000
0000
1000
0000
0000
0000
1000
0000
0000
0000
1000
0000
,
0010
0000
0000
0010
0000
0000
0100
0000
0000
0000
0100
0000
0000
0000
0001
0000
,
0010
0000
0000
0010
0000
0000
0001
0000
0000
0000
0001
0000
0000
0000
0001
0000
,
1000
0000
0000
1000
0000
0000
0010
0000
0000
0000
0010
0000
1000
0000
0010
0000
,
1000
0000
0000
1000
0000
0000
1000
0000
0000
0000
0001
0000
0000
0000
1000
0000
,
0001
0000
0000
0001
0000
0000
0100
0000
0000
0000
0001
0000
0000
0000
1000
0000
,
0010
0000
0000
0010
0000
0000
0100
0000
0000
0000
0001
0000
0000
0000
0010
0000
,
0001
0000
0000
0100
0000
0000
0100
0000
0000
0000
0010
0000
1000
0000
0010
0000
,
1000
0001
1000
0001
0100
0001
1000
0000
,
0010
0100
0001
0100
0010
0100
0001
0000
,
0010
0100
1000
0001
0100
0010
1000
0000
,
0001
0010
0001
0100
0001
1000
0001
0000
,
1000
1000
0001
0100
0001
0001
0100
0000
,
0010
1000
0010
0010
1000
0100
1000
0000
,
0001
0100
0010
0100
0001
0010
0001
0000
,
1000
0001
0010
0001
1000
0010
1000
0000
,
0001
0100
0010
0100
0001
0100
0010
0000
,
1000
0100
0010
0100
1000
0001
0100
0000
,
0010
1000
0001
0010
0100
1000
0001
0000
,
1000
0001
0100
0001
1000
0010
1000
0000
,
0001
0001
0100
0100
0001
0001
0010
0000
,
0001
0100
0010
0100
0001
0100
0010
0000
,
1000
0100
0010
0001
1000
0010
0100
0000
,
0001
0010
0001
0100
0001
1000
0010
0000
,
0100
0000
0000
0100
0000
0000
0100
0000
0000
0000
0100
0000
0000
0000
0010
0000
,
0010
0000
0000
1000
0000
0000
1000
0000
0000
0000
1000
0000
0000
0000
1000
0000
,
0001
0000
0000
0001
0000
0000
0001
0000
0000
0000
0001
0000
0000
0000
0100
0000
,
0010
0000
0000
0010
0000
0000
0010
0000
0000
0000
0010
0000
0000
0000
0010
0000
,
0100
0000
0000
0100
0000
0000
0001
0000
0000
0000
0001
0000
0000
0000
0001
0000
,
1000
0000
0000
1000
0000
0000
0001
0000
0000
0000
0001
0000
0000
0000
0001
0000
,
1000
0000
0000
0010
0000
0000
0010
0000
0000
0000
0010
0000
0000
0000
0100
0000
,
1001
0000
0000
0010
0000
0000
2002
0000
0000
0000
0000
0000
3003
0000
0000
0000
;
