#TITLE:Solitary 2;
#SUBTITLE:;
#ARTIST:Banya;
#TITLETRANSLIT:;
#SUBTITLETRANSLIT:;
#ARTISTTRANSLIT:;
#GENRE:;
#CREDIT:;
#MUSIC:Solitary 2.ogg;
#BANNER:Solitary 2.png;
#BACKGROUND:Solitary 2-BG.png;
#CDTITLE:;
#SAMPLESTART:20.960;
#SAMPLELENGTH:11.829;
#SELECTABLE:YES;
#OFFSET:0.161;
#BPMS:0.000=136.000
,77.500=135.600
,140.000=139.000
,144.000=135.900
,207.500=86.000
,209.000=135.900
,223.000=90.600
;
#STOPS:;
#BGCHANGES:;
#FGCHANGES:;

//--------------- dance-single - Alex ----------------
#NOTES:
     dance-single:
     Alex:
     Beginner:
     1:
     0,0,0,0,0:
0000
0000
0000
0000
,
0000
0000
0000
0000
,
0000
0000
0000
0000
,
0000
0000
0000
0000
,
0001
0000
0000
0000
,
0001
0000
0000
0000
,
1000
0000
0000
0000
,
0010
0000
0000
0000
,
1000
0000
0000
0000
,
0100
0000
0000
0000
,
1000
0000
0000
0000
,
0001
0000
0000
0000
,
1001
0000
0000
0000
,
1000
0000
0000
0000
,
0010
0000
0000
0000
,
1000
0000
1000
0000
,
1000
0000
0000
0000
,
0001
0000
0000
0000
,
1000
0000
0000
0000
,
0010
0000
0000
0000
,
1001
0000
0000
0000
,
0001
0000
0000
0000
,
1000
0000
0000
0000
,
0001
0000
0000
0000
,
1000
0000
0000
0000
,
0100
0000
0000
0000
,
1000
0000
0000
0000
,
0010
0000
0010
0000
,
0010
0000
0000
0000
,
1000
0000
0000
0000
,
0001
0000
0000
0000
,
1000
0000
0000
0000
,
0100
0000
0000
0000
,
0100
0000
0000
0000
,
1000
0000
0000
0000
,
0001
0000
0000
0000
,
0110
0000
0000
0000
,
0010
0000
0000
0000
,
0001
0000
0000
0000
,
0001
0000
0000
0000
,
1000
0000
0000
0000
,
1000
0000
0000
0000
,
0100
0000
0000
0000
,
0100
0000
0000
0000
,
0001
0000
0000
0000
,
0010
0000
0000
0000
,
0001
0000
0000
0000
,
1000
0000
0000
0000
,
0001
0000
0000
0000
,
0001
0000
0000
0000
,
1000
0000
0000
0000
,
0010
0000
0000
0000
,
0000
1001
0000
0000
,
0000
0110
0000
0000
,
0000
1001
0000
0000
,
0000
0110
0000
0110
;

//--------------- dance-single - Alex ----------------
#NOTES:
     dance-single:
     Alex:
     Easy:
     3:
     0,0,0,0,0:
0000
0000
0000
0000
,
0000
0000
0000
0000
,
0000
0000
0000
0000
,
0000
0000
0000
0000
,
1000
0000
0010
0000
,
1000
0000
0001
0000
,
0100
0000
0010
0000
,
0100
0100
0001
0001
,
1000
0000
0001
0000
,
0010
0000
0001
0000
,
0100
0000
0010
0000
,
1000
1000
0001
0001
,
2002
0000
0000
3003
0000
0000
0100
0000
,
0220
0000
0000
0330
0000
0000
0010
0000
,
0220
0000
0000
0330
0000
0000
0001
0000
,
0022
0000
0000
0033
0000
0000
1000
0000
,
2020
0000
0000
3030
0000
0000
0100
0000
,
2002
0000
0000
3003
0000
0000
0001
0000
,
0202
0000
0000
0303
0000
0000
0100
0000
,
0220
0000
0000
0330
0000
0000
0000
0000
,
0010
0010
0010
0000
,
1000
0000
0001
0000
,
1000
1000
1000
0000
,
0001
0000
0100
0000
,
0001
0001
0001
0000
,
1000
0000
0010
0000
,
1000
1000
1000
0000
,
0001
0000
0100
0000
,
0110
0000
0110
0000
,
2002
0000
3003
0000
,
0011
0000
0011
0000
,
2200
0000
3300
0000
,
1010
0000
1010
0000
,
0022
0000
0033
0000
,
0101
0000
0101
0000
,
0220
0000
0330
0000
,
0001
0001
0001
0000
,
1000
0000
1001
0000
,
0010
0010
0010
0000
,
0100
0000
0110
0000
,
0001
0001
0001
0000
,
1000
0000
1100
0000
,
1000
1000
1000
0000
,
0010
0000
1010
0000
,
0010
0100
0010
0000
,
0100
0001
0100
0000
,
0001
1000
0001
0000
,
1000
0010
1000
0000
,
0001
0001
0001
0000
,
1000
1000
1000
0000
,
0100
0100
0100
0000
,
0010
0000
0010
0000
,
0000
1001
0000
1001
,
0000
0110
0000
0110
,
0000
0011
0000
0011
,
0000
1100
0000
1001
,
0000
0000
0000
0000
0000
0000
0000
0000
0000
0000
0000
2002
0000
0000
0000
0000
,
0000
3003
0000
0000
0000
0000
0000
0000
0000
0000
0000
0000
0000
0000
0000
0000
;

//--------------- dance-single - Alex ----------------
#NOTES:
     dance-single:
     Alex:
     Medium:
     6:
     0,0,0,0,0:
0000
0000
0000
0000
,
0000
0000
0000
0000
,
0000
0000
0000
0000
,
0000
0000
0000
0000
,
0001
0100
0010
0100
,
0001
0001
1000
1000
,
0001
0010
0100
1000
,
0010
0000
0100
0000
0001
0100
0001
0100
,
0001
1000
0010
1000
,
1000
0001
0100
0010
,
0100
0001
0010
0100
,
1000
0000
0001
0000
1000
0100
1000
0100
,
1000
0000
0000
1000
0000
0000
2000
0000
0000
0000
0000
0000
3000
0000
0001
0000
,
0001
0000
0000
0001
0000
0000
0002
0000
0000
0000
0000
0000
0003
0000
0100
0000
,
0100
0000
0000
0100
0000
0000
0200
0000
0000
0000
0000
0000
0300
0000
0010
0000
,
0010
0000
0000
0010
0000
0000
0020
0000
0000
0000
0000
0000
0030
0000
0000
0000
,
0100
0000
0000
0100
0000
0000
0200
0000
0000
0000
0000
0000
0300
0000
0010
0000
,
0010
0000
0000
0010
0000
0000
0020
0000
0000
0000
0000
0000
0030
0000
1000
0000
,
1000
0000
0000
1000
0000
0000
2000
0000
0000
0000
0000
0000
3000
0000
0001
0000
,
0001
0000
0000
0001
0000
0000
0002
0000
0000
0000
0000
0000
0003
0000
0000
0000
,
1001
0001
0100
0010
,
1000
0000
0100
0000
1000
0100
1000
0000
,
0001
0100
0010
0100
,
0001
0000
1000
0000
0001
0010
0001
0000
,
0100
0100
0001
1000
,
0010
0000
1000
0000
0001
1000
0001
0000
,
0001
1000
0100
1000
,
0010
0000
0010
0000
1000
0010
1000
0000
,
0001
0100
0100
0001
,
1000
0000
0100
1000
0100
1000
0100
0000
,
1000
1000
0001
0100
,
0010
0000
0100
0010
0100
0010
0100
0000
,
0001
0001
0010
0100
,
1000
0000
0001
1000
0001
1000
0001
0000
,
1000
0010
1000
0001
,
2002
0000
3003
0000
,
0110
0010
0100
0001
,
1000
0000
0001
0000
0100
0001
0100
0000
,
0101
0001
1000
0010
,
1000
0000
0001
0000
0010
0001
0010
0000
,
0011
0001
0001
0100
,
0010
0000
1000
0000
0001
1000
0001
0000
,
1001
1000
1000
0100
,
1000
0000
0010
0000
1000
0010
1000
0000
,
0010
0010
0100
0100
,
0001
1000
0001
0000
1000
0100
1000
0000
,
0001
0001
1000
0010
,
1000
0001
0100
0000
0001
0010
0100
0000
,
1000
0010
1000
0001
,
1000
0100
1000
0000
0001
0100
0001
0000
,
0100
0010
0100
0001
,
1000
0010
1000
0010
1000
0000
0001
0200
,
0000
0300
0010
0100
0010
0000
0010
0100
,
0010
0000
1000
0010
1000
0000
0001
0100
,
0001
0000
1000
0100
1000
0000
0001
0010
,
0001
0000
0100
0010
0100
0000
1001
0000
,
0000
0000
0101
0000
0000
0000
0000
0000
0000
0000
0000
1010
0000
0000
0000
0000
,
0000
0220
0000
0000
0000
0000
0000
0000
0000
0000
0000
0000
0330
0000
0000
0000
;

//--------------- dance-single - Alex ----------------
#NOTES:
     dance-single:
     Alex:
     Hard:
     8:
     0,0,0,0,0:
0000
0000
0000
0000
,
0000
0000
0000
0000
,
0000
0000
0000
0000
,
0000
0000
0000
0000
,
0001
0000
0100
0000
0010
0000
0100
0001
0000
0000
0001
0000
1000
0000
0000
0000
,
0100
0000
1000
0000
0010
0000
1000
0010
0000
0000
1000
0000
0001
0000
0000
0000
,
0100
0000
0010
0000
0100
0000
0001
0010
0000
0000
0001
0000
0100
0000
0010
0000
,
0100
0001
1000
0010
1000
0010
1010
0000
,
1000
0000
0001
0000
0100
0000
0001
0100
0000
0000
0001
0000
1000
0000
0000
0000
,
0010
0000
1000
0000
0001
0000
0010
0001
0000
0000
0001
0000
0100
0000
0000
0000
,
0010
0000
0100
0000
0001
0000
1000
0010
0000
0000
1000
0000
0001
0000
0000
0000
,
0100
0001
0100
0010
1000
0001
0010
0001
,
0101
0000
0000
0101
0000
0000
0110
0000
0000
0000
1010
0000
0000
0000
0100
0000
,
1100
0000
0000
1100
0000
0000
1010
0000
0000
0000
1001
0000
0000
0000
0001
0000
,
0101
0000
0000
0101
0000
0000
0110
0000
0000
0000
1010
0000
0000
0000
0010
0000
,
1000
0000
0001
1000
0000
1000
0001
0000
0100
0000
0010
0000
0100
0000
0001
0000
,
0011
0000
0000
0011
0000
0000
0011
0000
0000
0000
0101
0000
0000
0000
0100
0000
,
0110
0000
0000
0110
0000
0000
0110
0000
0000
0000
1010
0000
0000
0000
1000
0000
,
1001
0000
0000
1001
0000
0000
1001
0000
0000
0000
0110
0000
0000
0000
0100
0000
,
0101
0000
0000
0110
0000
0000
2020
0000
0000
0000
0000
0000
3030
0000
0000
0000
,
1000
0010
1000
0001
1000
0010
1000
0001
,
0100
0010
0100
0001
1000
0100
1100
0000
,
1000
0001
0100
0001
0010
0100
1000
0010
,
1000
0001
0100
0010
0100
0001
1001
0000
,
0001
0010
0001
0100
0010
0100
0001
1000
,
0100
1000
0001
0100
0010
1000
1001
0000
,
0001
0001
0100
0010
0100
0001
0010
0100
,
1000
0000
0010
0000
1000
0000
0001
0000
0100
0001
0100
0001
0100
0000
0100
0000
,
0010
0000
1000
0000
0010
0000
1000
0010
0000
0010
1000
0000
0001
0000
0000
0000
,
0100
0000
0001
0000
0010
0000
0100
1000
0000
1000
0100
0000
1000
0000
0000
0000
,
0001
0000
0100
0000
0001
0000
1000
0010
0000
0010
1000
0000
0001
0000
0000
0000
,
0001
0000
0100
0000
0010
0000
0100
0001
0000
0001
0100
0000
0001
0000
1000
0000
,
1000
0000
0001
0000
0010
0000
0001
0100
0000
0100
0010
0000
0100
0000
0000
0000
,
0001
0000
0001
0000
1000
0000
0100
1000
0000
1000
0100
0000
1000
0000
0000
0000
,
0010
0000
1000
0000
0001
0000
1000
0001
0000
0001
0100
0000
0001
0000
0000
0000
,
2002
0000
3003
0000
,
0001
0000
1000
0000
0010
0000
1000
0000
0001
0000
0100
0010
0100
0000
0001
0000
,
0010
0000
0100
0000
1000
0000
0001
0000
0100
0000
0010
1000
0010
0000
1000
0000
,
0001
0000
0001
0000
0100
0000
0001
0000
0010
0000
0100
1000
0100
0000
1000
0000
,
0001
0000
0100
0000
0010
0000
0100
0000
0001
0000
0100
0010
0100
0000
0001
0000
,
1001
0000
1000
0000
0010
0000
1000
0000
0001
0000
0100
0001
0100
0000
0001
0000
,
0010
0000
0100
0000
1000
0000
0010
0000
1000
0000
0001
0100
0010
0000
0100
0000
,
0001
0000
0001
0000
1000
0000
0100
0000
1000
0000
0001
0100
0001
0000
1000
0000
,
0010
1000
0001
0100
0010
0100
0001
1000
,
1010
0000
0010
0000
1000
0000
0001
0000
0100
0000
0001
0100
0001
0000
0100
0010
,
0100
0000
0010
0000
1000
0000
0001
0000
1000
0000
0010
1000
0010
0000
1000
0001
,
1000
0000
0001
0000
0100
0000
0001
0000
1000
0000
0100
1000
0100
0000
1000
0010
,
1000
0000
0010
0000
0100
0000
0001
0000
0100
0000
0010
1000
0010
1000
0010
0000
,
1000
0000
0001
0000
0100
0000
0001
0000
1000
0000
0100
1000
0100
0000
1000
0100
,
1000
0000
0010
0000
1000
0000
0001
0000
0100
0000
0010
1000
0010
0000
1000
0010
,
1000
0000
0001
0000
0100
0000
0010
0000
0100
0001
0100
0000
0010
0000
0100
0000
,
0001
0010
0001
0000
1000
0000
0010
1000
0010
0000
1000
0000
0001
0000
2002
0000
,
0000
3003
0000
0000
0001
0000
0100
0000
0010
0000
0100
0000
0001
0000
1000
0000
,
0100
0010
0001
0100
0010
0100
0001
1000
,
0010
1000
0001
0100
0010
0100
0001
0010
,
0100
0000
0000
0000
1000
0000
0000
0000
0001
0000
0000
0000
0100
0000
0000
0000
0010
0000
0000
0000
1000
0000
0000
0000
1001
0000
0000
0000
0000
0000
0000
0110
,
0000
0000
0000
0000
1001
0000
0000
0000
0000
0000
0000
0101
0000
0000
0000
0000
0000
0000
0000
0000
0000
0000
1010
0000
0000
0000
0000
0000
0000
0000
0000
0000
,
0000
0000
2002
0000
0000
0000
0000
0000
0000
0000
0000
0000
0000
0000
0000
0000
0000
0000
0000
0000
0000
0000
0000
0000
0000
0000
0000
3003
0000
0000
0000
0000
;

//--------------- dance-single - Alex ----------------
#NOTES:
     dance-single:
     Alex:
     Challenge:
     12:
     0,0,0,0,0:
0000
0000
0000
0000
,
0000
0000
0000
0000
,
0000
0000
0000
0000
,
0000
0000
0000
0000
,
0001
0000
1000
0000
0010
0000
0100
0010
0000
0010
0100
0000
0001
0010
0100
1000
,
0001
0000
1000
0000
0001
0000
0100
0001
0000
0001
0100
0000
0001
1000
0010
0100
,
0001
0000
1000
0000
0100
0000
1000
0010
0000
0010
1000
0000
0001
0100
0010
0100
,
0001
0000
1000
0000
0001
0000
0010
0001
0000
0001
0100
0000
0010
0000
0100
0001
,
1000
0000
0001
0000
1000
0000
0010
1000
0000
1000
0100
0000
1000
0010
1000
0010
,
1000
0000
0001
0000
0100
0000
0010
0100
0000
0100
0001
0000
0010
0001
0100
0010
,
0100
0000
0001
0000
1000
0000
0010
1000
0000
1000
0001
0000
0100
0001
1000
0100
,
0010
0000
0011
0000
0100
0001
0100
0010
0000
0010
1000
0000
1000
0010
1000
0001
,
0101
0000
0001
1000
0000
1000
0010
0000
0100
0010
0000
0010
0100
0000
0101
0000
,
0110
0000
0010
1000
0000
1000
0001
0000
0001
0100
0001
0000
0100
0000
0110
0000
,
1010
0000
1000
0010
0000
0010
1000
0000
1000
0001
0000
0001
0100
0000
0101
0000
,
0110
0000
0010
1000
0000
1000
0001
0000
0100
0001
1000
0000
0001
0000
0101
0000
,
1001
0000
0001
0100
0000
0100
0001
0000
0001
1000
0000
1000
0010
0000
1010
0000
,
1001
0000
0001
0100
0000
0100
0010
0000
1000
0010
1000
0000
0001
0000
1001
0000
,
0110
0000
0100
0010
0000
0010
1000
0000
1000
0100
0000
0100
1000
0000
1100
0000
,
0011
0000
0000
0101
0000
0000
2002
0000
0010
0000
0010
0000
3013
0000
0000
0000
,
0100
0001
0100
0001
1000
0010
1000
0001
0010
0100
1000
0001
0100
0010
1000
0100
,
0010
0001
0100
0010
0100
0001
1000
0010
1000
0001
0100
0010
1000
0000
0001
0000
,
1000
0100
1000
0010
1000
0001
0010
0100
1000
0001
0100
0010
0100
0001
0010
0001
,
1000
0010
1000
0001
0100
0001
1000
0001
0010
0100
1000
0001
0100
0000
0001
0000
,
0100
0010
1000
0010
0100
0010
1000
0001
1000
0001
0100
0001
1000
0010
1000
0001
,
0010
0100
1000
0001
0100
0010
1000
0001
0010
0100
1000
0001
0100
0000
0001
0000
,
1000
0010
1000
0010
1000
0001
1000
0010
1000
0001
0010
0100
1000
0001
0100
0010
,
0100
0001
0010
0001
1000
0010
1000
0001
0100
0001
1000
0010
0100
0000
0110
0000
,
0100
0001
0100
0001
1000
0010
1000
0001
0010
0100
1000
0001
0100
0000
0010
0000
,
0100
0001
0100
0001
0010
0001
1000
0010
1000
0001
0100
0001
1000
0000
0001
0000
,
0100
0010
0100
0001
0010
0001
1000
0010
1000
0100
0010
0001
0100
0000
0001
0000
,
0010
0001
0100
0001
1000
0001
0100
0010
0100
0001
0010
0100
1000
0000
0010
0000
,
1000
0010
1000
0010
1000
0001
1000
0010
1000
0001
1000
0001
0100
0010
0100
0001
,
0010
0100
1000
0001
0100
0001
0100
0001
0010
0100
0010
0001
0100
0000
0110
0000
,
0010
0100
0010
1000
0010
0100
0010
1000
0001
0010
0100
1000
0001
0100
0001
1000
,
2002
0000
3003
0000
,
0001
0010
0001
0100
0010
0100
0001
0010
0100
1000
0001
1000
0001
0100
0001
1000
,
0010
1000
0001
0010
0100
1000
0010
0100
0001
0000
1000
0000
1010
0000
1001
0000
,
0001
0100
0001
0100
0001
0010
0001
0100
0010
0100
0001
0010
0100
1000
0001
1000
,
0010
1000
0001
0010
0001
0100
0010
0100
0001
0000
1000
0000
1001
0000
0110
0000
,
0010
1000
0100
0010
0100
1000
0001
1000
0010
1000
0001
0100
0001
1000
0010
0100
,
0001
1000
0100
0010
0001
0100
0010
0100
0001
0000
0100
0000
0101
0000
0110
0000
,
0010
1000
0010
1000
0001
1000
0010
1000
0001
0010
0001
0100
0001
1000
0010
0100
,
0001
1000
0100
0010
0001
0100
0010
0100
0001
0000
1000
0000
1001
0000
0110
0000
,
0010
0100
0001
0100
0001
0010
0100
1000
0001
1000
0010
1000
0001
1000
0001
0100
,
0001
0100
0001
0010
0001
1000
0010
1000
0100
0010
0001
1000
0010
0100
0001
0010
,
0100
1000
0001
0100
0010
0100
0001
1000
0010
1000
0001
0010
0001
0100
0001
0010
,
0100
0000
1000
0000
0001
0000
0100
0010
0000
0010
0100
0001
0100
0001
1000
0010
,
1000
0001
1000
0001
0100
0001
1000
0010
1000
0001
0010
0100
1000
0001
0100
0010
,
0100
0001
0010
0001
1000
0010
1000
0001
1000
0100
0010
0100
1000
0001
0100
0001
,
1000
0001
0010
0001
1000
0010
1000
0001
1000
0100
0010
0100
1000
0001
0100
0010
,
0100
0001
0010
0100
1000
0001
0100
0010
1000
0001
0010
0001
0100
0000
0220
0000
,
0000
0330
0000
0000
0001
0010
0100
1000
0001
0100
0010
1000
0000
1000
0001
0100
,
0001
0000
1001
0000
0001
1000
0010
0100
0001
0010
0001
0100
0000
0100
0010
1000
,
0100
0000
1100
0000
0100
1000
0010
1000
0100
0010
0100
1000
0000
1000
0001
0100
,
0010
0000
0100
0000
0001
0000
0010
0000
0100
0000
0010
0000
0001
0000
0100
0000
0001
0000
1000
0000
0010
0000
1000
0000
2002
0000
0000
0000
3003
0000
0000
2020
,
0000
0000
3030
0000
0202
0000
0000
0000
0303
0000
0000
0220
0000
0000
0000
0000
0330
0000
0000
0000
0000
0000
2020
0000
0000
0000
0000
0000
0000
3030
0000
0000
,
0000
0000
2002
0000
0000
0000
0000
0000
0000
0000
0000
0000
0000
0000
0000
0000
0000
0000
0000
0000
0000
0000
0000
0000
0000
0000
0000
0000
0000
3003
0000
0000
;
