#TITLE:Slam;
#SUBTITLE:;
#ARTIST:Novasonic;
#TITLETRANSLIT:;
#SUBTITLETRANSLIT:;
#ARTISTTRANSLIT:;
#GENRE:;
#CREDIT:;
#MUSIC:Slam.ogg;
#BANNER:Slam.png;
#BACKGROUND:Slam-BG.png;
#CDTITLE:;
#SAMPLESTART:41.586;
#SAMPLELENGTH:17.519;
#SELECTABLE:YES;
#OFFSET:0.175;
#BPMS:0.000=132.000;
#STOPS:;
#BGCHANGES:;
#FGCHANGES:;

//--------------- dance-single - Alex ----------------
#NOTES:
     dance-single:
     Alex:
     Beginner:
     1:
     0,0,0,0,0:
0000
0000
0000
0000
,
0000
0000
0000
0000
,
0000
0000
0000
0000
,
0000
0000
0000
0000
,
0000
0000
0000
0000
,
0010
0000
0000
0000
,
0010
0000
0000
0000
,
1000
0000
0000
0000
,
0001
0000
0001
0000
,
0001
0000
0000
0000
,
1000
0000
0000
0000
,
1000
0000
0000
0000
,
0100
0000
0100
0000
,
0100
0000
0000
0000
,
0100
0000
0000
0000
,
1000
0000
0000
0000
,
0001
0000
0000
0000
,
1000
0000
0000
0000
,
0010
0000
0000
0000
,
0100
0000
0000
0000
,
0100
0000
0000
0000
,
0001
0000
0000
0000
,
0010
0000
0000
0000
,
0001
0000
0000
0000
,
1000
0000
0000
0000
,
0001
0000
0001
0000
,
0001
0000
0000
0000
,
1000
0000
0000
0000
,
0100
0000
0000
0000
,
1000
0000
1000
0000
,
1000
0000
0000
0000
,
0001
0000
0000
0000
,
0100
0000
0000
0000
,
0001
0000
0000
0000
,
0010
0000
0000
0000
,
1000
0000
0000
0000
,
0100
0000
0000
0000
,
1000
0000
0000
0000
,
0001
0000
0000
0000
,
1000
0000
0000
0000
,
0010
0000
0000
0000
,
0100
0000
0100
0000
,
0100
0000
0000
0000
,
0010
0000
0010
0000
,
0010
0000
0000
0000
,
1000
0000
1000
0000
,
1000
0000
0000
0000
,
0001
0000
0001
0000
,
0001
0000
0000
0000
,
1000
0000
0000
0000
,
0010
0000
0000
0000
,
1000
0000
0000
0000
,
0001
0000
0000
0000
;

//--------------- dance-single - Alex ----------------
#NOTES:
     dance-single:
     Alex:
     Easy:
     2:
     0,0,0,0,0:
0000
0000
0000
0000
,
0000
0000
0000
0000
,
0000
0000
0000
0000
,
0000
0000
0000
0000
,
0000
0000
0000
0000
,
0001
0000
0001
0000
,
0001
0000
0001
0000
,
1000
0000
1000
0000
,
1000
0000
1000
1000
,
0010
0000
0010
0000
,
0010
0000
0010
0000
,
0100
0000
0100
0000
,
0100
0000
0100
0100
,
0100
0000
0001
0000
,
1000
0000
0001
0000
,
1000
0000
0010
0000
,
0010
0000
0100
0000
,
0001
0000
1000
0000
,
0001
0001
0001
0000
,
1000
0000
0010
0000
,
1000
0000
0001
0000
,
0100
0000
0100
0000
,
0010
0010
0010
0000
,
1001
0000
1000
0000
,
1000
0000
0001
0000
,
1000
1000
1000
0000
,
0001
0001
0001
0000
,
1000
0000
0010
0000
,
0100
0000
0100
0000
,
0001
0001
0001
0000
,
0010
0010
0010
0000
,
1001
0000
0001
0000
,
1000
0000
0001
0000
,
1000
1000
1000
0000
,
0001
0000
0100
0000
,
0010
0010
0010
0000
,
1000
0000
0001
0000
,
1000
1000
1000
0000
,
0001
0000
0001
0000
,
0100
0100
0100
0000
,
0010
0000
0010
0000
,
1000
1000
1000
0000
,
1001
0000
1001
0000
,
0001
0001
0001
0000
,
1001
0000
1001
0000
,
0100
0100
0100
0000
,
0110
0000
0110
0000
,
0010
0010
0010
0000
,
0110
0000
0110
0000
,
0010
0000
1000
0000
,
0010
0000
1000
0000
,
0001
0000
1000
0000
,
0001
0000
1001
0000
;

//--------------- dance-single - Alex ----------------
#NOTES:
     dance-single:
     Alex:
     Medium:
     5:
     0,0,0,0,0:
0000
0000
0000
0000
,
0000
0000
0000
0000
,
0000
0000
0000
0000
,
0000
0000
0000
0000
,
0000
0000
0000
0000
,
1000
0001
1000
1000
,
0001
0100
0010
0010
,
0100
0001
0010
0100
,
0010
0001
1001
1001
,
0001
1000
0010
0010
,
1000
0100
1000
1000
,
0001
0100
0010
0010
,
0100
0001
0011
0011
,
0001
1000
0001
1000
,
0010
0100
0010
0100
,
0001
1000
0100
1000
,
0001
0100
0010
0100
,
0001
0001
1000
1000
,
0010
0010
0100
0100
,
0001
0010
0100
0010
,
0001
1000
0010
0010
,
1000
0001
1000
1000
,
0001
0100
0110
0000
,
0010
0100
0001
0001
,
0010
0000
0100
0000
0010
0001
0010
0000
,
0001
0000
1000
0000
0010
0000
1000
0100
,
0000
0100
1000
0000
1001
0000
0000
0000
,
0001
1000
0010
1000
,
0001
0000
1000
0000
0100
0000
0010
0001
,
0010
0000
0001
0000
0100
0000
0010
0100
,
0000
0100
0010
0000
0110
0000
0000
0000
,
0010
1000
0001
0100
,
0100
0001
1001
0000
,
0001
0000
1000
0000
0010
0000
1000
0100
,
0000
0100
1000
0000
0002
0000
0003
0000
,
0100
0000
0010
0000
0100
0000
0001
0010
,
0000
0010
0001
0000
2000
0000
3000
0000
,
0010
0000
0010
0000
1000
0000
1000
0001
,
0000
0001
0100
0000
0200
0000
0300
0000
,
0001
0000
1000
0000
0010
0000
1000
0100
,
0000
0100
1000
0000
0002
0000
0003
0000
,
0100
0000
0010
0000
0100
0000
0001
0010
,
0000
0010
0001
0000
1000
0000
0010
0000
,
0100
0000
0001
0000
1000
0000
0100
1000
,
0000
1000
0100
0000
1000
0000
0001
0000
,
0100
0000
0010
0000
0100
0000
0001
0010
,
0000
0010
0001
0000
1000
0000
1000
0000
,
0001
0000
1000
0000
0010
0000
0100
0001
,
0000
0001
1000
0000
0010
0000
0100
0000
,
1001
0001
0100
0010
,
0100
0001
1000
1000
,
1100
1000
0010
0100
,
0001
1000
2020
0000
,
3030
0000
0000
0000
;

//--------------- dance-single - Alex ----------------
#NOTES:
     dance-single:
     Alex:
     Hard:
     7:
     0,0,0,0,0:
0000
0000
0000
0000
,
0000
0000
0000
0000
,
0000
0000
0000
0000
,
0000
0000
0000
0000
,
0000
0000
1001
0110
,
0010
0000
0100
0000
0001
1000
0010
0100
,
0001
0000
1000
0000
0100
0010
0001
0100
,
0010
0000
0100
0000
0001
0010
0100
1000
,
0001
0100
0010
1000
0001
0000
1000
0000
,
1001
0000
0001
0000
0100
0001
0100
0001
,
0100
0000
0010
0000
1000
0100
0010
0100
,
1000
0000
0010
0000
1000
0001
1000
0001
,
1000
0010
0100
0001
1000
0000
0001
0000
,
0101
0110
1010
1100
,
0110
0011
0101
0110
,
0100
0010
0100
0010
0100
0010
0100
0000
,
0001
1000
0001
1000
0001
1000
0001
0000
,
1000
0000
0001
0000
1000
0100
1000
0000
,
0001
0100
0001
0000
1000
0010
1000
0000
,
0001
0010
0001
0010
0001
0010
0001
0000
,
1000
0010
1000
0010
1000
0010
1000
0000
,
0001
0000
0100
0000
0001
0100
0001
0000
,
1000
0100
1000
0001
1000
0010
0100
0000
,
1001
0000
0110
0000
0010
0100
0001
0100
,
0010
0000
1000
0000
0001
1000
0100
1000
,
0001
1000
0001
0000
1000
0000
0010
0100
,
0000
0100
0010
0000
0110
0000
0000
0000
,
0101
0000
1010
0000
0010
1000
0001
0100
,
0010
0000
1000
0000
0001
1000
0100
1000
,
0001
0100
0001
0000
1000
0000
0010
1000
,
0000
1000
0100
0000
1100
0000
0000
0000
,
1000
0100
1000
0000
0100
1000
0100
0000
,
1000
0010
1000
0000
0001
0010
0001
0000
,
0100
0001
0100
0000
0010
0000
0100
0001
,
0000
0001
1000
0000
2002
0000
3003
0000
,
0001
0010
0100
0000
1000
0000
0010
1000
,
0000
1000
0100
0000
2200
0000
3300
0000
,
1000
0010
1000
0000
0001
0000
0001
0010
,
0000
0010
0001
0000
0022
0000
0033
0000
,
0001
0100
0001
0000
0100
0000
0010
1000
,
0000
1000
0010
0000
2020
0000
3030
0000
,
0010
1000
0001
0100
0010
0000
1000
0001
,
0000
0001
1000
0000
0001
0000
0100
0000
,
0010
0100
0001
0100
0010
0000
1000
0100
,
0000
0100
1000
0000
0001
0000
1000
0000
,
0010
1000
0001
1000
0010
0000
1000
0001
,
0000
0001
0100
0000
0001
0000
0010
0000
,
0100
1000
0100
1000
0100
0000
1000
0001
,
0000
0001
0100
0000
0010
0000
0100
0000
,
0001
0010
0001
0000
0001
0010
0001
0000
,
1000
0100
1000
0000
1000
0100
1000
0000
,
0001
0100
0010
0100
0001
1000
1000
0001
,
0100
0010
1000
0001
2002
0000
0000
0000
,
3003
0000
0000
0000
;

//--------------- dance-single - Alex ----------------
#NOTES:
     dance-single:
     Alex:
     Challenge:
     10:
     0,0,0,0,0:
0000
0000
0000
0000
,
0000
1MM1
0000
M11M
,
0000
11MM
0000
MM11
,
0000
M11M
0000
M1M1
,
1000
0001
0010
0100
1000
0001
0100
0010
1000
0000
0000
0000
1111
0000
0000
0000
,
0011
0000
0100
0000
0011
0000
0100
0000
0001
0010
0100
1000
0001
0100
0010
1000
,
0100
0000
1010
0000
0100
0000
1010
0000
0010
1000
0100
0010
0100
1000
0001
0100
,
0010
0000
1001
0000
0010
0000
1001
0000
0001
0100
0010
0100
0001
0100
0010
0100
,
0001
0010
0100
1000
0001
0100
0010
1000
0100
0000
0000
0000
1100
0000
0000
0000
,
0011
0000
1000
0000
0011
0000
1000
0000
0001
0010
0100
1000
0001
0100
0010
1000
,
0001
0000
1100
0000
0001
0000
1100
0000
1000
0001
1000
0001
0100
0001
1000
0010
,
0100
0000
0011
0000
0100
0000
0011
0000
0100
0001
0010
0100
0010
0001
0100
0010
,
0100
0001
1000
0010
0100
0001
1000
0100
0010
0000
0011
0000
1000
0000
0011
0000
,
1000
0110
1000
0101
1000
0011
0100
1010
,
0100
0010
0100
0001
0010
0001
1000
0010
0100
0000
0000
0000
1001
0000
0000
0000
,
0011
1000
0011
1000
0110
1000
0110
1000
,
0011
0100
0011
0100
0110
1000
1100
0010
,
0001
0010
0001
0000
0100
0010
0100
0000
0001
1000
0100
0000
1000
0001
0100
0000
,
0001
1000
0010
0100
0001
1000
0100
0010
,
0001
0010
0001
0010
0001
0100
0001
0100
0001
0100
0010
0100
0010
1000
0010
1000
,
0100
1000
0100
1000
0010
1000
0010
1000
0001
0100
0001
0100
0010
0000
0000
0000
,
1010
0100
0011
0100
1010
0100
1001
0010
,
0001
1000
0010
0100
0001
1000
0100
0010
0001
0000
0100
0000
0020
0000
1030
0000
,
0001
0000
1000
0010
1000
0000
0001
0000
0100
0000
0001
0010
0001
0000
0100
0000
,
0010
0000
0100
0001
0100
0000
0001
0000
1000
0000
0100
0010
0001
0000
1000
0000
,
0010
0000
1000
0000
0001
0000
0100
0001
0100
0000
0001
0000
1000
0010
1000
0000
,
0001
0000
0100
0010
0100
0000
0001
0000
2002
0000
0000
0000
0010
0000
3003
0000
,
0001
0000
1000
0010
1000
0000
1000
0000
0010
0000
0100
0001
0100
0000
0001
0000
,
0001
0000
1000
0100
1000
0000
0001
0000
0100
0000
0010
0100
0010
0000
0100
0000
,
0001
0000
0010
0000
0100
0000
1000
0100
1000
0000
0001
0000
0100
0010
0100
0000
,
0001
0000
0010
0001
0010
0000
0001
0000
2002
0000
0000
0000
0100
0000
3003
0000
,
1001
0100
1001
0010
1100
0010
0011
0100
,
0011
0000
0100
0000
1010
0000
0100
0000
1000
0001
1000
0001
1000
0001
0100
0001
,
0100
0000
0010
0000
0100
0000
0001
0000
0001
0000
1000
0000
0010
1000
0010
0000
,
1000
0000
0001
1000
0001
0000
0100
0000
2002
0000
0000
0000
0010
0000
3003
0000
,
0001
0000
0100
0000
1000
0000
0100
0000
0001
0000
0010
0000
1000
0010
1000
0000
,
0001
0000
0010
0001
0010
0000
0001
0000
0202
0000
0000
0000
0010
0000
0303
0000
,
0001
0000
1000
0000
0100
0000
1000
0000
0010
0000
0010
0000
1000
0001
0010
0000
,
0001
0000
1000
0100
1000
0000
0001
0000
0022
0000
0000
0000
0100
0000
0033
0000
,
0100
0000
0010
0000
0100
0000
0001
0000
0010
0000
0100
0000
1000
0100
1000
0000
,
0001
0000
0100
0001
0100
0000
0001
0000
1000
0001
1000
0001
1000
0100
1000
0100
,
1000
0000
0010
0000
1010
0000
1000
0000
0001
0000
1001
0000
0001
1000
0001
0000
,
1000
0000
1000
0010
1000
0000
0001
0000
0100
0001
0100
0000
0010
0100
0010
0000
,
0100
0000
0001
0000
0011
0000
0001
0000
1000
0000
1010
0000
0010
1000
0010
0000
,
1000
0000
0001
0100
0010
0000
0100
0000
0001
1000
0100
0000
1000
0001
0100
0000
,
0001
0000
0010
0000
0011
0000
0001
0000
1000
0000
1010
0000
0010
1000
0001
0000
,
0100
0000
0001
1000
0100
0000
0010
0000
0001
0100
0010
0000
0100
0001
0010
0000
,
0001
0000
1000
0000
1010
0000
0010
0000
0100
0000
1001
0000
0001
1000
0100
0000
,
1000
0000
0010
0100
0010
0000
0100
0000
0001
0010
0001
0010
0001
0010
0001
1000
,
0010
1000
0020
0030
1000
0100
2000
3000
0001
0010
0002
0003
0100
0010
0200
0300
,
0001
0010
0200
0300
1000
0010
2000
3000
0001
0100
0020
0030
0100
0001
0010
0100
,
1000
0001
0100
0010
1000
0100
2000
3000
0010
0100
0020
0030
1000
0001
0020
0030
,
0001
0100
0010
1000
0100
1000
0001
0100
0020
0000
0200
0000
0000
0000
0000
0000
,
0330
0000
0000
0000
;
