#TITLE:Rolling Christmas;
#SUBTITLE:;
#ARTIST:Banya;
#TITLETRANSLIT:;
#SUBTITLETRANSLIT:;
#ARTISTTRANSLIT:;
#GENRE:;
#CREDIT:;
#MUSIC:Rolling Christmas.ogg;
#BANNER:Rolling Christmas.png;
#BACKGROUND:Rolling Christmas-BG.png;
#CDTITLE:;
#SAMPLESTART:42.372;
#SAMPLELENGTH:14.516;
#SELECTABLE:YES;
#OFFSET:-0.171;
#BPMS:0.000=142.000;
#STOPS:;
#BGCHANGES:;
#FGCHANGES:;

//--------------- dance-single - Alex ----------------
#NOTES:
     dance-single:
     Alex:
     Beginner:
     1:
     0,0,0,0,0:
0000
0000
0000
0000
,
0000
0000
0000
0000
,
0000
0000
0000
0000
,
0000
0000
0000
0000
,
0000
0200
0000
0000
,
0300
0000
0000
0000
,
0001
0000
0000
0000
,
0001
0000
0000
0000
,
1000
0000
0000
0000
,
0010
0000
0000
0000
,
1000
0000
0000
0000
,
0100
0000
0000
0000
,
1000
0000
0000
0000
,
0001
0000
0000
0000
,
1000
0000
0000
0000
,
0100
0000
0000
0000
,
0001
0000
0000
0000
,
0010
0000
0000
0000
,
0010
0000
0000
0000
,
0001
0000
0000
0000
,
1000
0000
0000
0000
,
0001
0000
0000
0000
,
0100
0000
0100
0000
,
0100
0000
0000
0000
,
1001
0000
0000
0000
,
0001
0000
0000
0000
,
1000
0000
0000
0000
,
0010
0000
0010
0000
,
0010
0000
0000
0000
,
1000
0000
0000
0000
,
0100
0000
0000
0000
,
1000
0000
1000
0000
,
1000
0000
0000
0000
,
0002
0000
0000
0000
,
0003
0000
0000
0000
,
2000
0000
0000
0000
,
3000
0000
0000
0000
,
0020
0000
0000
0000
,
0030
0000
0000
0000
,
0200
0000
0000
0000
,
0300
0000
0000
0000
,
1001
0000
0000
0000
,
0001
0000
0000
0000
,
1000
0000
0000
0000
,
1000
0000
0000
0000
,
0010
0000
0000
0000
,
0100
0000
0000
0000
,
0100
0000
0000
0000
,
0001
0000
0000
0000
,
0001
0000
0000
0000
,
1000
0000
0000
0000
,
0010
0000
0000
0000
,
0010
0000
0000
0000
,
1000
0000
0000
0000
,
0001
0000
0000
0000
,
0100
0000
0000
0000
,
0110
0000
0000
0000
;

//--------------- dance-single - Alex ----------------
#NOTES:
     dance-single:
     Alex:
     Easy:
     3:
     0,0,0,0,0:
0000
0000
0000
0000
,
0000
0000
0000
0000
,
0000
0000
0000
0000
,
0000
0000
0000
0000
,
0000
0010
0010
0010
,
0020
0000
0030
0000
,
0100
0000
0100
0000
,
0001
0000
1000
0010
,
2000
0000
3000
0000
,
0002
0000
0003
0000
,
0200
0000
0300
0000
,
0020
0000
0030
0000
,
0100
0100
0100
0000
,
0001
0000
1000
0000
,
0001
0001
0001
0000
,
1000
0000
0010
0000
,
1000
0000
1000
0000
,
0001
0000
1000
0000
,
0010
0000
0010
0000
,
0100
0000
0001
0001
,
0001
0000
1000
0000
,
0001
0000
1000
0000
,
0010
0000
0100
0000
,
0220
0000
0000
0000
,
0330
0000
0000
0000
,
0100
0000
0001
0000
,
1000
0000
1000
0000
,
0001
0001
0001
0000
,
1000
1000
1000
0000
,
0010
0000
1000
0000
,
0001
0000
0010
0000
,
0001
0001
0001
0000
,
0100
0100
0100
0000
,
1001
0000
1001
0000
,
2002
0000
3003
0000
,
0110
0000
0110
0000
,
0220
0000
0330
0000
,
0011
0000
0011
0000
,
0022
0000
0033
0000
,
1100
0000
1100
0000
,
2200
0000
3300
0000
,
2002
0000
0000
0000
,
3003
0000
0000
0000
,
0001
0000
1000
0000
,
0001
0001
0001
0000
,
1000
0000
0010
0000
,
1000
1000
1000
0000
,
0010
0000
0100
0000
,
0010
0000
1000
0000
,
0001
0000
0001
0000
,
1000
0000
1000
0000
,
0001
0000
0100
0000
,
0010
0010
0010
0000
,
0100
0000
0001
0000
,
1000
0000
0001
0000
,
1000
1000
1000
1000
,
1001
0000
0000
0000
;

//--------------- dance-single - Alex ----------------
#NOTES:
     dance-single:
     Alex:
     Medium:
     5:
     0,0,0,0,0:
0000
0000
0000
0000
,
0000
0000
0000
0000
,
0000
0000
0000
0000
,
1001
1001
0110
0110
,
0000
0100
0001
0100
,
0220
0000
0330
0100
,
0100
0001
0010
0100
,
0010
0001
1000
0010
,
2020
0000
3030
0000
,
2200
0000
3300
0000
,
0022
0000
0033
0000
,
2002
0000
3003
1001
,
0001
0100
0010
0100
,
0001
1000
0100
1000
,
1000
0001
0100
0010
,
0100
0001
0001
0010
,
0100
1000
0001
0100
,
0010
1000
0001
0001
,
1000
0100
1000
1000
,
0001
0100
0100
0001
,
1000
0010
1000
0001
,
0010
0100
0010
0001
,
0100
0100
0001
0001
,
1000
0010
0100
0100
,
2002
0000
3003
0000
,
0001
1000
0002
0003
,
0100
0010
0200
0300
,
0001
0010
0002
0003
,
1000
0010
1000
1000
,
0001
0100
0020
0030
,
0100
0001
2000
3000
,
0001
0010
0100
0010
,
0001
0100
0020
0030
,
1001
0001
0100
0100
,
0001
1000
0200
0300
,
1000
1000
0001
0001
,
0100
0010
0200
0300
,
0010
1000
0001
0010
,
0001
1000
2000
3000
,
0001
0001
1000
0100
,
0010
0001
0100
0010
,
0110
0000
1001
0000
,
0011
0000
1100
0000
,
1000
1000
0001
0001
,
0100
0010
0100
0100
,
0001
0010
0100
0010
,
0001
0100
0010
1000
,
1000
0001
1000
0100
,
1000
0001
0100
0100
,
0001
0010
0100
0010
,
0001
0100
0010
1000
,
0001
0001
1000
1000
,
0100
0010
0100
1000
,
0001
0001
0100
0100
,
0010
1000
0001
0010
,
0100
1000
0001
1000
,
2002
0000
0000
3003
;

//--------------- dance-single - Alex ----------------
#NOTES:
     dance-single:
     Alex:
     Hard:
     7:
     0,0,0,0,0:
0000
0000
0000
0000
,
0000
0000
0000
0000
,
0000
0000
0000
0000
,
1001
1001
0110
0110
,
0000
1100
1010
0101
,
0022
0000
0033
0001
,
1000
0000
0010
0100
0010
0000
1000
0100
,
1000
0000
0001
0000
0100
0000
0010
0100
,
0010
0000
0100
0000
0001
0000
0010
0001
,
0010
0000
0001
0000
1000
0000
0010
1000
,
0010
0000
1000
0000
0001
0000
1000
0100
,
0010
0001
0100
0000
1001
0000
0010
0100
,
0010
0000
1000
0001
1000
0000
0001
0100
,
0001
0000
0010
0001
0100
0000
0010
1000
,
0100
0000
0010
0001
0100
0000
0001
1000
,
0010
0000
0100
0001
1000
0000
0100
0010
,
0001
0100
0010
0100
0100
0001
0100
0010
,
1000
0000
0001
1000
0100
1000
0001
0100
,
0010
0000
0100
0001
0010
0001
0100
0010
,
0100
0000
0100
0001
1000
0001
1000
0010
,
0100
0001
0100
0010
,
1001
0000
1000
0001
1000
0000
0001
0100
,
0001
0000
1000
0000
0100
0000
0010
0001
,
0100
0010
0100
0001
,
2002
0000
3003
0000
,
0001
1000
0001
1000
0020
0000
0030
0000
,
0100
0001
0010
0100
2000
0000
3000
0000
,
0001
1000
0010
1000
0002
0000
0003
0000
,
0100
0001
0100
0001
0100
0000
0100
0000
,
0010
1000
0100
0010
0002
0000
0003
0000
,
1000
0001
0100
0001
2000
0000
3000
0000
,
0001
1000
0010
1000
0001
0100
0001
0000
,
1000
0100
0010
0001
0200
0000
0300
0000
,
1001
1001
0110
0110
,
0010
0100
0010
1000
0020
0000
0030
0000
,
1100
1100
0011
0011
,
0001
0100
0010
0100
0001
0000
1000
0000
,
0101
0101
1100
1100
,
0010
0001
0100
0010
0200
0000
0300
0000
,
1001
1001
0101
0101
,
0001
1000
0010
1000
0200
0000
0300
0000
,
1000
0001
0100
0000
0001
0000
1000
0000
,
0010
0100
0010
0100
0020
0000
0030
0000
,
1000
0001
1000
0001
,
0100
0010
0100
0001
0010
0000
0001
1000
,
0010
0100
0001
1000
,
0100
0010
0001
0100
0010
0000
0100
0001
,
0100
0000
0001
0000
1000
0000
0001
0010
,
0001
0000
0100
0010
0100
0001
0010
0000
,
0001
0000
1000
0000
0010
0000
1000
0100
,
1000
0000
0001
0000
1000
0010
1000
0001
,
1000
0000
0010
0000
0100
0000
0001
0010
,
0001
0000
0100
0100
0001
0000
0010
0100
,
1000
0001
0101
0100
,
0110
0000
0010
0000
1000
0001
0100
0010
,
0100
0001
1000
0000
0001
1000
0001
0000
,
1001
0000
0000
0000
;

//--------------- dance-single - Alex ----------------
#NOTES:
     dance-single:
     Alex:
     Challenge:
     9:
     0,0,0,0,0:
0000
0000
0000
0000
,
0000
0000
0000
0000
,
0000
0000
0000
0000
,
1001
0000
0110
0000
1001
1001
0110
0110
,
MMMM
0011
0101
0110
,
0202
0000
0000
0313
,
0010
1000
0100
0010
0100
1000
0001
0100
,
0010
0100
0001
0100
0010
0100
0001
0010
,
0011
0001
1000
0010
0100
0001
1001
1000
,
1001
0001
0100
0010
1000
0100
1100
1000
,
1010
0000
0010
0100
0001
0000
0100
0000
0001
0000
1000
0001
1000
0000
0001
0000
,
0100
0000
0010
0100
0001
0000
0100
0000
0010
0000
1000
0100
0010
0001
1000
0000
,
0001
0100
1000
0100
0001
0100
1000
0100
,
0001
0010
1000
0010
0002
0000
2003
0010
,
3010
0100
0001
0010
1000
0010
0001
1000
,
0100
0001
0100
1000
0020
0000
0230
0001
,
0301
1000
0100
0001
0100
1000
0010
0001
,
0010
1000
0001
0010
0200
0000
2300
0010
,
3010
0100
0001
0010
1000
0010
0001
1000
,
0100
0001
0100
1000
0001
0200
2300
3002
,
0013
0001
0100
0010
0100
0001
1000
0100
,
0010
0001
0100
0010
0200
0000
0302
0010
,
0013
0001
0100
0010
1000
0100
0010
0001
,
1000
0100
0001
0100
1000
0010
0001
0010
,
2020
0000
0000
3030
,
0010
1000
0001
0100
0110
0000
0101
0000
,
0001
0010
0100
1000
1100
0000
0011
0000
,
0001
0100
0010
0100
0101
0000
0011
0000
,
0001
1000
0010
1000
0002
0000
2003
0000
,
3001
0100
0010
0100
0101
0000
0011
0000
,
0001
1000
0010
1000
1001
0000
1100
0000
,
0010
0001
0100
0010
0110
0000
0101
0101
,
0001
1000
0010
0100
2002
0000
3003
0000
,
0001
0000
1000
0000
0010
0000
1000
0010
1000
0010
0000
0010
0100
0000
0001
0010
,
0100
0000
1000
0000
0001
0000
0100
0001
0100
0001
0000
0001
1000
0000
0010
1000
,
0001
0000
1000
0000
0001
0000
0100
0010
0100
0010
0000
0010
1000
0000
0001
0010
,
0100
0000
1000
0000
0001
0000
1000
0100
1000
0100
0000
0010
0001
0000
1001
0000
,
0001
0000
1000
0000
0010
0000
1000
0010
0100
0010
0000
0010
0100
0000
0100
0010
,
0100
0000
0001
0000
0010
0000
0100
1000
0001
0100
0000
0100
0001
0000
1000
0010
,
1000
0000
0001
0000
0010
0000
0001
0100
0001
0100
0000
0100
0010
0000
0010
1000
,
0100
0010
0001
0100
0110
0000
1001
0000
,
0001
0100
1000
0100
0001
0100
1000
0100
,
0001
0010
1000
0010
0002
0000
0203
0000
,
0310
1000
0100
0010
0001
0100
0010
0100
,
0001
0010
1000
0010
0002
0000
2003
0010
,
3010
0100
0001
0100
1000
0100
0001
0010
,
1000
0010
0001
1000
0020
0000
2030
0001
,
3001
0001
0100
0010
0100
0001
0010
0100
,
1000
0001
0100
0010
2000
0000
3020
0100
,
0130
0001
0010
1000
0010
0001
0100
1000
,
0100
0001
1000
0001
1000
0010
0100
0001
,
0011
0001
0100
0010
0100
0001
1000
0100
,
0010
0001
0100
0001
2000
0000
3002
0100
,
0103
0001
0010
1000
0010
0001
0100
1000
,
1001
0001
1001
1000
1010
0010
0110
0100
,
0001
0000
0010
0000
0100
0000
1000
0000
0001
1000
0010
0100
0001
1000
0010
0200
,
0002
0000
0000
0303
;
