#TITLE:Reality;
#SUBTITLE:;
#ARTIST:SHK;
#TITLETRANSLIT:;
#SUBTITLETRANSLIT:;
#ARTISTTRANSLIT:;
#GENRE:;
#CREDIT:;
#MUSIC:Reality.ogg;
#BANNER:Reality.png;
#BACKGROUND:Reality-BG.png;
#CDTITLE:;
#SAMPLESTART:48.177;
#SAMPLELENGTH:13.565;
#SELECTABLE:YES;
#OFFSET:-0.233;
#BPMS:0.000=135.000
,76.000=67.500
,84.000=135.000
;
#STOPS:;
#BGCHANGES:;
#FGCHANGES:;

//--------------- dance-single - Alex ----------------
#NOTES:
     dance-single:
     Alex:
     Beginner:
     1:
     0,0,0,0,0:
0000
0000
0000
0000
,
0000
0000
0000
0000
,
0000
0000
0000
0000
,
0010
0000
0000
0000
,
0000
0000
0000
0000
,
0100
0000
0000
0000
,
0000
0000
0000
0000
,
0001
0000
0000
0000
,
0001
0000
0000
0000
,
1000
0000
0000
0000
,
1000
0000
0000
0000
,
0010
0000
0000
0000
,
1000
0000
0000
0000
,
0001
0000
0000
0000
,
1000
0000
0000
0000
,
0100
0000
0000
0000
,
0100
0000
0000
0000
,
0001
0000
0000
0000
,
0010
0000
0000
0000
,
1000
0000
0000
0000
,
0001
0000
0000
0000
,
1000
0000
0000
0000
,
1000
0000
0000
0000
,
0001
0000
0000
0000
,
0001
0000
0000
0000
,
0100
0000
0000
0000
,
0100
0000
0000
0000
,
0010
0000
0000
0000
,
0010
0000
0000
0000
,
1000
0000
0000
0000
,
1000
0000
0000
0000
,
0001
0000
0000
0000
,
0001
0000
0000
0000
,
0100
0000
0000
0000
,
0010
0000
0000
0000
,
1000
0000
0000
0000
,
0001
0000
0000
0000
,
0001
0000
0000
0000
,
1000
0000
0000
0000
,
0100
0000
0000
0000
,
0100
0000
0000
0000
,
1000
0000
0000
0000
,
0010
0000
0000
0000
,
0010
0000
0000
0000
,
1000
0000
0000
0000
,
0001
0000
0000
0000
,
0001
0000
0000
0000
,
1000
0000
0000
0000
,
0100
0000
0000
0000
,
0010
0000
0000
0000
;

//--------------- dance-single - Alex ----------------
#NOTES:
     dance-single:
     Alex:
     Easy:
     3:
     0,0,0,0,0:
0000
0000
0000
0000
,
0000
0000
0000
0000
,
0000
0000
0000
0000
,
1001
0000
0000
0000
,
0110
0000
0000
0000
,
1001
0000
0000
0000
,
1001
0000
1001
0000
,
0001
0000
0001
0000
,
1000
0000
1000
0000
,
0010
0010
0100
0100
,
0010
0020
0030
0000
,
1001
0000
0001
0000
,
0010
0000
0001
0000
,
1000
0000
0001
0000
,
1000
0000
0100
0100
,
1000
0000
0001
0000
,
1000
0000
0010
0000
,
0010
0000
1000
0000
,
0001
0000
0010
0010
,
0020
0030
0002
0003
,
1000
0001
0200
0300
,
1001
0000
1000
0000
,
0001
0000
1000
0000
,
1000
0000
0010
0000
,
0100
0100
0100
0000
,
1001
0000
0001
0000
,
1000
0000
0001
0000
,
0100
0010
0100
0000
,
0001
1000
0001
0000
,
1001
0000
0001
0000
,
0010
0000
0001
0000
,
1000
1000
0001
0001
,
1000
2000
3000
0000
,
1001
0000
0001
0000
,
1000
0000
0010
0000
,
0100
0000
0100
0000
,
0001
0001
0001
0000
,
1000
0000
0001
0000
,
1000
0000
0010
0000
,
1000
0000
0001
0000
,
1000
0100
1000
0000
,
1001
0000
0001
0000
,
1000
0000
0001
0000
,
0001
0000
0100
0000
,
0010
0000
0100
0100
,
0001
0000
1000
0000
,
0001
0000
0010
0000
,
0001
0001
1000
1000
,
0001
0002
0003
0000
,
1001
0000
0000
0000
;

//--------------- dance-single - Alex ----------------
#NOTES:
     dance-single:
     Alex:
     Medium:
     5:
     0,0,0,0,0:
0000
0000
0000
0000
,
0000
0000
0000
0000
,
0000
0000
0000
0000
,
2002
0000
3003
0020
0000
0000
0030
0000
,
0202
0000
0303
2000
0000
0000
3000
0000
,
1001
0000
0000
0020
0000
0000
0030
0000
,
1000
0000
0001
0000
1000
0001
1000
0001
,
1000
0001
1000
0010
,
1000
1000
0001
0100
,
0010
0100
0001
0010
,
0100
1000
0100
0000
0000
0000
0000
0000
,
1001
0001
0100
0010
,
0100
0100
0001
0001
,
1000
0010
1000
0001
,
0010
0000
0100
0000
1000
0000
0001
0100
,
0001
0100
0100
0001
,
0001
1000
0010
1000
,
1000
0001
1000
0010
,
0100
0100
0001
1000
,
1001
0000
0001
1000
0020
0000
0030
0000
,
0100
0100
0001
0001
2000
0000
3000
0000
,
1001
0001
0100
1000
,
0100
0001
1000
1000
,
0001
0010
0001
0100
,
0010
0100
1001
0000
,
0001
0000
0010
0000
0001
0000
0100
0010
,
0100
0000
0001
0000
1000
0000
0100
1000
,
0100
1000
1000
0010
,
0100
0001
1000
0001
,
0010
0000
0010
0000
0001
0000
0100
0001
,
0100
0000
0001
0000
1000
0000
0001
1000
,
0001
1000
0010
1000
,
1001
1001
0000
0000
,
0110
0010
0100
0100
,
0001
1000
0010
1000
,
1000
0001
0100
0010
,
0100
0000
0001
0000
1000
0000
0001
0100
,
0001
1000
0001
1000
,
0010
1000
0100
0100
,
1000
0010
1000
0001
,
0010
0001
0101
0000
,
0100
0000
0100
0000
0001
0000
1000
0010
,
1000
0000
0001
0000
1000
0000
0100
0010
,
0100
1000
0001
0001
,
0100
0010
0100
0100
,
0001
0010
0100
1000
,
0001
0100
0010
0010
,
1000
0001
0100
0010
,
0100
0010
0100
0000
0000
1001
0000
0000
,
0220
0000
0000
0000
,
0000
0000
0000
0000
,
0330
0000
0000
0000
;

//--------------- dance-single - Alex ----------------
#NOTES:
     dance-single:
     Alex:
     Hard:
     8:
     0,0,0,0,0:
0000
0000
0000
0000
,
0000
0000
0000
0000
,
0000
0000
0000
0000
,
1001
0000
0010
0200
0000
0000
0300
0001
,
1000
0000
0000
0000
1000
0000
0002
0000
0000
0000
0000
0000
0003
0000
1000
0010
,
1000
0001
0000
0200
0000
0000
0300
0001
,
1000
0010
0100
0001
0010
0100
1000
0001
,
0100
0000
0001
0100
0020
0000
0030
1000
,
0001
0000
0010
0000
0100
0000
1000
0000
0002
0000
0000
0000
0003
0000
1000
0010
,
0100
0100
0000
0001
0000
1000
0001
0100
,
0010
0010
0220
0000
0330
0000
0000
0000
,
0010
0000
0000
0100
0000
0000
0100
0000
0010
0000
0000
1000
0000
0000
0001
0000
,
0010
0000
0000
0001
0000
0000
0100
0000
0010
0100
0000
0100
0010
0000
1000
0000
,
0001
0000
0000
0001
0000
0000
1000
0000
0010
0000
0000
0010
0000
0000
1000
0000
,
0001
0000
0000
1000
0000
0000
1000
0000
0010
0000
1000
0000
0001
0000
0010
0000
,
0001
0000
0000
0001
0000
0000
0100
0000
0010
0000
0000
0010
0000
0000
1000
0000
,
1000
0000
0000
0001
0000
0000
0100
0000
0010
0100
0000
0100
0010
0000
1000
0000
,
0001
0000
0000
0001
0000
0000
1000
0000
0100
0000
0000
0100
0000
0000
1000
0000
,
0010
0000
0000
1000
0000
0000
0001
0000
0100
0000
0010
0000
0100
0000
0001
0000
,
2000
0000
0000
0000
3010
0000
0100
0001
0200
0000
0000
0000
0310
0000
0000
0010
,
1000
0001
0100
0010
2020
3030
0202
0303
,
0001
0000
0000
1000
0000
0000
0001
0000
0100
0000
0000
0010
0000
0000
0100
0000
,
0001
0000
0000
1000
0000
0000
0001
0000
0100
0001
0000
0001
0100
0000
0001
0000
,
1000
0000
0000
1000
0000
0000
0010
0000
1000
0000
0000
0001
0000
0000
0100
0000
,
0010
0000
0000
0100
0000
0000
0001
1000
0001
0000
0100
0000
0010
0000
0100
0000
,
0001
0010
0100
2000
0000
3010
1000
0001
,
0100
0000
0010
0000
0100
0000
0002
0000
0000
0000
0013
0000
0001
0000
0100
0001
,
0100
0000
0010
0010
0000
1000
0001
0010
,
0001
1000
0000
1001
0000
0220
0000
0330
,
0010
1000
0100
0010
0002
0000
0103
0100
,
0010
1000
0001
0010
0002
0000
1003
0010
,
1000
0001
0000
0001
0000
0001
1000
0001
,
0100
0100
0220
0000
0330
0000
0000
0000
,
0010
0000
0000
0100
0000
0000
0001
0000
0010
0000
0000
0001
0000
0000
1000
0000
,
0010
0000
0000
1000
0000
0001
0000
0000
0100
0001
0000
0001
0100
0000
0010
0000
,
1000
0000
0000
0001
0000
0000
0010
0000
0001
0000
0000
0100
0000
0000
0010
0000
,
0100
0000
0000
0100
0000
0000
0001
0000
1000
0100
0000
0100
1000
0000
0001
0000
,
0100
0000
0000
0100
0000
0000
0001
0000
0010
0000
0000
0001
0000
0000
1000
0000
,
0010
0000
0000
1000
0000
0000
0001
0000
0100
0001
0000
0001
0100
0000
0010
0000
,
0100
0000
0000
0100
0000
0000
0001
0000
1000
0000
0000
0010
0000
0000
1000
0000
,
0001
0000
0000
0010
0000
0000
0001
1000
0010
0000
0100
0000
0001
0000
1000
0000
,
0100
1000
0010
2000
0000
3001
0100
0010
,
1000
0000
0001
0000
0010
0000
0002
0000
0000
0000
0103
0000
0010
0000
1000
0010
,
1000
0000
0001
0100
0000
0001
0000
1000
,
0010
0100
0000
0101
0000
2020
0000
3030
,
0010
1000
0100
1000
0020
0000
1030
1000
,
0001
0000
0010
0000
0001
0000
0100
0000
0020
0000
0000
0000
0130
0000
0001
1000
,
0001
0100
0000
0001
0000
0001
1000
1000
,
0010
0000
0010
0000
0110
0000
0000
0000
0101
0000
0000
0001
0000
0000
2000
0000
,
0000
0002
0000
0000
,
0000
0000
0000
0000
,
3003
0000
0000
0000
;

//--------------- dance-single - Alex ----------------
#NOTES:
     dance-single:
     Alex:
     Challenge:
     9:
     0,0,0,0,0:
0000
0000
0000
0000
,
0000
0000
0000
0000
,
0000
0000
0000
0000
,
1001
M00M
0110
0110
0000
0MM0
0000
0011
,
1100
0000
0MM0
0000
1001
0000
0110
0000
0000
0000
0MM0
0000
0000
0000
0010
0100
,
0001
1MM1
0000
M11M
0000
0000
0000
0010
,
1M1M
0000
1000
0000
1MM1
0000
0001
0000
0100
0000
0010
0000
0100
0010
0100
0010
,
0100
0000
0001
0000
0010
0000
0100
0000
1000
0000
0001
0000
0100
0000
0010
1000
,
0001
0000
0010
0000
0001
0000
1000
0000
0010
0000
1000
0000
0001
0000
0100
0001
,
0100
0000
0001
0000
0100
0000
0110
0000
0000
0000
0001
1000
0010
0000
1000
0000
,
1001
0110
1001
0000
MMMM
0000
0000
0000
,
0001
0000
1000
0100
0000
0100
1000
0000
0001
0000
0100
0010
0000
0010
0100
0000
,
0001
0000
1000
0010
0000
0010
1000
0000
0001
0000
0100
0000
0001
0000
1000
0000
,
0001
0000
0010
0001
0000
0001
0010
0000
0001
0000
0100
0010
0000
0010
0100
0000
,
0001
0000
1000
0100
0000
0100
1000
0000
0001
0000
0100
0000
0010
0000
0100
0000
,
0101
0000
0001
1000
0000
1000
0001
0000
1000
0000
0010
1000
0000
1000
0010
0000
,
0100
0000
0001
0010
0000
0010
0001
0000
0100
0000
0010
0000
0100
0000
0001
0000
,
1000
0000
0100
1000
0000
1000
0100
0000
1000
0000
0001
0100
0000
0100
0001
0000
,
1000
0000
0010
0100
0000
0100
0010
0000
1000
0000
0001
0000
0100
0010
1000
0001
,
0020
0000
0000
0000
0000
0000
0000
0000
0031
0000
0000
0000
0001
0000
0100
0000
0020
0000
0000
0000
0030
0000
0100
0001
0200
0000
0000
0000
0300
0000
0010
0000
,
2000
0000
0000
0000
3002
0000
0000
0000
0203
0000
0000
0000
0320
0000
0000
0000
0230
0000
0000
0000
0000
0000
0300
0000
0002
0000
0003
0000
1000
0001
1000
0001
,
1000
0000
0001
1000
0000
1000
0001
0000
0100
0000
0010
0100
0000
0100
0010
0000
,
1000
0000
0100
1000
0000
1000
0100
0000
1000
0000
0100
0000
0001
0000
0100
0000
,
1000
0000
0001
0010
0000
0010
0001
0000
0100
0000
0010
0100
0000
0100
0010
0000
,
0100
0000
0001
1000
0000
1000
0001
0000
1000
0000
0010
0000
0100
0001
0010
0100
,
1000
0000
0001
0000
0100
0000
0010
0000
0100
0000
0001
0000
1000
0000
0010
1000
,
0001
0000
0010
0000
0001
0000
1000
0000
0010
0000
1000
0000
0001
0000
1000
0100
,
1000
0001
0100
0010
0100
0001
0010
0100
,
1000
0000
0001
0000
0100
0000
0010
0000
1001
0000
0110
0000
0010
1000
0001
0100
,
0010
0000
0100
0000
0001
0000
0010
0000
0001
0000
0100
0000
0010
0000
1000
0001
,
0100
0000
0001
0000
1000
0000
0100
0000
1000
0000
0001
0000
0100
0000
0010
0100
,
0010
0000
0100
0000
0001
0000
1001
0000
0000
0000
0001
0100
0010
0000
0100
0000
,
0101
1010
0202
0000
0303
0000
0000
0000
,
0001
0000
0100
0001
0000
0001
0100
0000
0010
0000
1000
0010
0000
0010
1000
0000
,
0001
0000
1000
0100
0000
0100
1000
0000
0001
0000
0100
0000
1000
0000
0100
0000
,
0001
0000
0100
0001
0000
0001
0100
0000
0010
0000
1000
0010
0000
0010
1000
0000
,
0001
0000
0010
0001
0000
0001
0010
0000
0001
0000
0100
0000
0010
0000
0100
0000
,
0101
0000
0001
1000
0000
1000
0010
0000
1000
0000
0001
0010
0000
0010
0001
0000
,
1000
0000
0001
0100
0000
0100
0001
0000
1000
0000
0010
0000
0100
0000
0001
0010
,
0100
0000
1000
0001
0000
0001
0100
0000
0010
0000
1000
0010
0000
0010
1000
0000
,
0001
0000
0010
0001
0000
0001
0010
0000
0001
0000
0100
0000
0010
1000
0100
0010
,
0001
0000
0100
0000
0001
0000
0010
0000
0100
0000
0010
0000
0001
0000
0100
0010
,
0100
0000
0001
0000
0010
0000
0100
0000
1000
0000
0001
0000
1000
0000
0010
1000
,
0010
1000
0001
0100
1000
0100
0001
0100
,
1000
0000
0010
0000
0001
0000
0010
0000
1001
0000
0110
0000
0010
1000
0001
0100
,
0010
0000
1000
0000
0001
0000
1000
0000
1000
0000
0001
0000
0100
0000
0001
0100
,
0001
0000
0100
0000
0010
0000
0100
0000
0001
0000
0010
0000
0100
0000
1000
0100
,
1000
0000
0001
0000
0100
0000
0110
0000
0000
0000
0010
1000
0001
0000
0010
0000
,
0011
0000
1100
0000
0011
0000
0000
0000
0011
0000
0000
0101
0000
0000
2002
0000
,
0000
0110
0000
0000
,
0000
0000
0000
0000
,
3003
0000
0000
0000
;
