#TITLE:Ragnarok;
#SUBTITLE:;
#ARTIST:Synthwulf;
#TITLETRANSLIT:;
#SUBTITLETRANSLIT:;
#ARTISTTRANSLIT:;
#GENRE:;
#CREDIT:;
#MUSIC:Ragnarok.ogg;
#BANNER:Ragnarok.png;
#BACKGROUND:Ragnarok-BG.png;
#CDTITLE:;
#SAMPLESTART:74.705;
#SAMPLELENGTH:13.287;
#SELECTABLE:YES;
#OFFSET:0.030;
#BPMS:0.000=170.000
,76.000=85.000
,108.000=170.000
,172.000=85.000
,176.000=170.000
,240.000=85.000
;
#STOPS:;
#BGCHANGES:;
#FGCHANGES:;

//--------------- dance-single - Alex ----------------
#NOTES:
     dance-single:
     Alex:
     Beginner:
     1:
     0,0,0,0,0:
0000
0000
0000
0000
,
0000
0000
0000
0000
,
0000
0000
0000
0000
,
0001
0000
0000
0000
,
0001
0000
0000
0000
,
1000
0000
0000
0000
,
1000
0000
0000
0000
,
0010
0000
0010
0000
,
0010
0000
0000
0000
,
0100
0000
0100
0000
,
0200
0000
0300
0000
,
1001
0000
0000
0000
,
0010
0000
0000
0000
,
1000
0000
0000
0000
,
0001
0000
0000
0000
,
0100
0000
0000
0000
,
0100
0000
0000
0000
,
0001
0000
0001
0000
,
0001
0000
0000
0000
,
1001
0000
1000
0000
,
0010
0000
1000
0000
,
0001
0000
0100
0000
,
0001
0000
1000
0000
,
0010
0000
0010
0000
,
1000
0000
0100
0000
,
2002
0000
3003
0000
,
0220
0000
0330
0000
,
1001
0000
0000
0000
,
1000
0000
0000
0000
,
0001
0000
0000
0000
,
0001
0000
0000
0000
,
0100
0000
0000
0000
,
0010
0000
0000
0000
,
0010
0000
0000
0000
,
1000
0000
1000
0000
,
1000
0000
0000
0000
,
0010
0000
0000
0000
,
0010
0000
0000
0000
,
1000
0000
0000
0000
,
0001
0000
0000
0000
,
0010
0000
0000
0000
,
0100
0000
0100
0000
,
0100
0000
0000
0000
,
2002
0000
3003
0000
,
1001
0000
0000
0000
,
0010
0000
0000
0000
,
0100
0000
0000
0000
,
0010
0000
0000
0000
,
1000
0000
0000
0000
,
0001
0000
0000
0000
,
0010
0000
0000
0000
,
0001
0000
0001
0000
,
0001
0000
0000
0000
,
1000
0000
0000
0000
,
0010
0000
0000
0000
,
1000
0000
0000
0000
,
0100
0000
0000
0000
,
0100
0000
0000
0000
,
1000
0000
1000
0000
,
2000
0000
3000
0000
,
1001
0000
0001
0000
,
1000
0000
0010
0000
,
0200
0000
0000
0300
;

//--------------- dance-single - Alex ----------------
#NOTES:
     dance-single:
     Alex:
     Easy:
     4:
     0,0,0,0,0:
0000
0000
0000
0000
,
0000
0000
0000
0000
,
0000
0000
0000
0000
,
1001
0000
0001
0000
,
1000
0000
0010
0000
,
0100
0000
0010
0000
,
1000
0000
0001
0000
,
0010
0010
0010
0000
,
0001
0001
0001
0000
,
1000
1000
0001
0001
,
1001
0000
1001
0000
,
1000
0000
0010
0000
,
1000
0000
1000
0000
,
0001
0000
0100
0000
,
0001
0000
0001
0000
,
0100
0100
0100
0000
,
0001
0001
0001
0000
,
1000
0001
1000
0001
,
1000
0000
1001
0000
,
0020
0030
2000
3000
,
0002
0003
0200
0300
,
0020
0030
0200
0300
,
0002
0003
1000
0001
,
2000
3000
0020
0030
,
0200
0300
0001
0010
,
0002
0003
2000
3000
,
0002
0003
0200
0300
,
1001
0000
1001
0000
,
0110
0000
0010
0100
,
0110
0000
0110
0000
,
1001
0000
0001
1000
,
1001
0000
1001
0000
,
0110
0000
0100
0010
,
0110
0000
0110
0000
,
1001
0000
1000
0001
,
1001
0000
1001
0000
,
0110
0000
0010
0100
,
0110
0000
1001
0000
,
1001
0000
0001
1000
,
0001
0001
0001
0000
,
1000
1000
1000
0000
,
0010
0010
0100
0100
,
0001
0001
1000
1000
,
0200
0000
0300
0000
,
1000
0100
1000
0000
,
0001
0000
0100
0000
,
0001
0100
0001
0000
,
0100
0000
0010
0000
,
0100
0010
0100
0000
,
0001
0000
1000
0000
,
0001
0010
0001
0000
,
1000
1000
0010
0010
,
2020
3030
1000
0000
,
0001
0001
0001
0000
,
1000
0000
0100
0000
,
1000
1000
1000
0000
,
0110
0000
0110
0000
,
1001
0000
1001
0000
,
0001
0001
0001
0001
,
1000
1000
1000
1000
,
0020
0030
2000
3000
,
0002
0003
0200
0300
,
0020
0000
0000
0030
;

//--------------- dance-single - Alex ----------------
#NOTES:
     dance-single:
     Alex:
     Medium:
     6:
     0,0,0,0,0:
0000
0000
0000
0000
,
0000
0000
0000
0000
,
0000
0000
0000
0000
,
1000
0010
1000
0001
,
0100
0010
0010
0100
,
0001
1000
0100
1000
,
0100
1000
1001
0000
,
0001
0001
0100
0100
,
0010
0010
1000
1000
,
0001
0010
0100
1000
,
1000
0001
0000
1001
0000
0001
1000
0001
,
1000
0001
0001
0100
,
0010
0010
1000
1000
,
0001
0010
0100
0010
,
0001
0100
0110
0000
,
0010
0010
1000
1000
,
0100
0100
1000
1000
,
0001
0010
0001
1000
,
0010
0100
1001
0000
,
0220
0000
0330
0010
0200
0300
0002
0003
,
2000
3000
0002
0003
0020
0030
0002
0003
,
2000
0000
3000
0001
0200
0300
0020
0030
,
2000
3000
0002
0003
0010
0001
1000
0010
,
0200
0300
0001
1000
0100
1000
0002
0003
,
2000
3000
0010
0100
0001
0100
0010
0100
,
0002
0003
2000
3000
,
0020
0030
0200
0300
,
1001
0001
0100
0010
,
0100
0001
1000
0100
,
1100
1000
0010
1000
,
0001
0001
0100
0100
,
0110
0010
0100
0001
,
0010
0001
0100
0001
,
1001
1000
0001
0100
,
0100
0010
0100
0000
0001
1000
0001
0000
,
1001
1000
1000
0010
,
0100
0000
0001
0000
0010
0001
0010
0000
,
0011
0001
0100
0010
,
0100
0000
0001
0000
1000
0100
1000
0000
,
0001
0100
0001
0100
,
0010
0100
0010
1000
,
0001
1000
0001
0000
1000
0001
1000
0000
,
0010
0100
0010
0100
0010
0100
0010
0000
,
2002
0000
3003
0000
,
0001
0100
1000
0100
,
0001
0000
0100
0000
1000
0100
1000
0000
,
0010
0001
0010
1000
,
0010
0000
0001
0000
0010
1000
0010
0000
,
1000
0001
0001
1000
,
1000
0000
0001
0000
0001
0100
0001
0000
,
0010
0001
0100
1000
,
0100
0001
0100
0001
0100
0000
1001
0000
,
0220
0330
0010
0000
0100
0000
0001
0000
,
1000
0000
0001
0000
0100
0001
0100
0000
,
0001
0010
0100
0010
,
0001
0000
1000
0000
0010
1000
0010
0000
,
1010
1010
0101
0101
,
0011
0011
1001
1001
,
0010
0100
0010
0000
0100
0010
0100
0000
,
0001
1000
0001
1000
0001
1000
0001
0000
,
2002
0000
3003
0001
0200
0300
0020
0030
,
2000
3000
0002
0003
0020
0030
0002
0003
,
2000
0000
0000
3000
;

//--------------- dance-single - Alex ----------------
#NOTES:
     dance-single:
     Alex:
     Hard:
     9:
     0,0,0,0,0:
0000
0000
0000
0000
,
0000
0000
0000
0000
,
0000
0000
0000
0000
,
0010
0100
0001
0100
0010
0100
0001
0000
,
1000
0100
0010
0100
1000
0001
0100
0000
,
0010
0100
0001
0010
0100
1000
0001
1000
,
0010
0010
1000
1000
0001
0100
0001
0000
,
1000
1000
0010
0010
0100
0100
0001
0001
,
0010
0010
0100
0100
1000
1000
0001
0001
,
0400
0040
0000
0000
0000
0000
0000
0000
0000
0000
0000
0000
0000
0000
0330
0000
,
0001
1000
0000
1001
0000
0001
0100
0100
,
0010
1000
0010
0100
0001
0010
0001
0000
,
1000
0001
0100
0001
1000
0010
1000
0000
,
0001
0010
0100
0010
0001
0100
0010
0100
,
0001
1000
0100
1000
0001
0100
0001
0000
,
1000
0010
1000
0000
0001
0000
0100
0000
0001
0100
0001
0000
0100
0000
0010
0000
,
0100
0010
0100
0000
0001
0000
1000
0000
0001
1000
0001
0000
0100
0000
0010
0000
,
1000
0001
0010
0100
1000
0001
0100
0010
,
0100
0000
0001
0000
1000
0000
0010
0000
1000
0000
0000
0010
0000
0000
0100
0000
,
0102
0000
0000
0000
0003
0000
0100
0010
2000
0000
0000
3000
0020
0000
0000
0030
,
2000
0000
0000
3000
0002
0000
0000
0003
0020
0000
0000
0030
0200
0000
0000
0300
,
0020
0000
0000
0000
0030
0000
0001
0100
0002
0000
0000
0003
2000
0000
0000
3000
,
0020
0000
0000
0030
0200
0000
0000
0300
0001
0000
0010
0000
0100
0000
1000
0000
,
0002
0000
0000
0003
1000
0000
0010
0000
1000
0000
0001
0000
0020
0000
0000
0030
,
0001
0000
1000
0000
0001
0100
0001
0000
1000
0000
0010
0000
0100
0000
0001
0000
,
0020
0000
0000
0030
0002
0000
0000
0003
,
0200
0000
0000
0300
0020
0000
0000
0030
,
1000
0000
0000
1000
0000
0000
0010
0000
0010
0000
0000
0100
0000
0000
0100
0000
,
0100
0000
0000
0001
0000
0000
0001
0000
0001
0000
0000
1000
0000
0000
0001
0000
,
0001
0000
0000
0100
0000
0000
0010
0000
0010
0000
0000
1000
0000
0000
0100
0000
,
0100
0000
0000
1000
0000
0000
0010
0000
0100
0000
0000
0100
0000
0000
0001
0000
,
1000
0000
0000
1000
0000
0000
0001
0000
0001
0000
0000
0100
0000
0000
0010
0000
,
0010
0000
0000
0100
0000
0000
0001
0000
0001
0000
0000
0010
0000
0000
0001
0000
,
1000
0000
0000
1000
0000
0000
0001
0000
0100
0000
0000
0100
0000
0000
0001
0000
,
1000
0000
0000
1000
0000
0000
0010
0000
0100
0000
0000
0100
0000
0000
0001
0000
,
1001
0000
0000
0001
0000
0000
0100
0000
0001
0000
0000
1000
0000
0000
0010
0000
,
1000
0000
0000
0010
0000
0000
0010
0000
0010
0000
0000
0100
0000
0000
0001
0000
,
1001
0000
0000
1000
0000
0000
1000
0000
1000
0000
0000
0001
0000
0000
0010
0000
,
0001
0000
0000
0001
0000
0000
0100
0000
0010
0000
0000
0010
0000
0000
0100
0000
,
0001
1000
0001
1000
0010
0100
0010
0100
,
0001
0010
0100
1000
0001
0100
0010
1000
,
0001
1000
0001
0000
1000
0000
0010
0000
0100
0010
0100
0000
0001
0000
1000
0000
,
0001
0000
0000
1000
0000
0000
0001
0000
0100
0000
0000
0100
0000
0000
0010
0000
,
2002
0000
0000
3003
,
1000
0000
0001
0000
0010
0000
0001
0000
1000
0000
0010
0000
1000
0010
1000
0000
,
0001
0000
0100
0000
0001
0000
0010
0000
0001
0000
0100
0000
0010
0100
0010
0000
,
0100
0000
0001
0000
0010
0000
0100
0000
1000
0000
0001
0000
1000
0001
1000
0000
,
0001
0000
0100
0000
0001
0000
0100
0000
0010
0000
1000
0000
0001
1000
0001
0000
,
0010
0000
0001
0000
1000
0000
0010
0000
1000
0000
0010
0000
0100
0010
0100
0000
,
0001
0000
0010
0000
0100
0000
1000
0000
0001
0000
0100
0000
0001
0100
0001
0000
,
0100
0000
0010
0000
0100
0000
0001
0000
0010
0000
0001
0000
1000
0001
1000
0000
,
0001
0001
0100
0100
0010
1000
0001
1000
,
2002
0000
3003
0000
1001
0000
0001
0000
0100
0000
0010
0000
0100
0001
0100
0000
,
0001
0000
0001
0000
0100
0000
0010
0000
0100
0000
0001
0000
1000
0001
1000
0000
,
0001
0000
1000
0000
0010
0000
0100
0000
0001
0000
0010
0000
0001
0010
0001
0000
,
0100
0000
0010
0000
0100
0000
0001
0000
1000
0000
0100
0000
1000
0100
1000
0000
,
0010
0010
0100
0100
0001
0001
1000
1000
,
0001
0001
0010
0010
0001
0001
0100
0100
,
0010
0000
0000
0010
0000
0000
0100
0000
0101
0000
0000
0001
0000
0000
1000
0000
,
1001
0000
0000
0001
0000
0000
0100
0000
0101
0000
0000
0001
0000
0000
1000
0000
,
2002
0000
0000
0000
3003
0000
0001
1000
0020
0000
0000
0030
0200
0000
0000
0300
,
0002
0000
0000
0003
0020
0000
0000
0030
0200
0000
0000
0300
2000
0000
0000
3000
,
0020
0000
0000
0030
;

//--------------- dance-single - Alex ----------------
#NOTES:
     dance-single:
     Alex:
     Challenge:
     12:
     0,0,0,0,0:
0000
0000
0000
0000
,
0000
0000
0000
0000
,
0000
0000
0000
0000
,
1000
0000
0010
0000
0100
0000
0001
0000
0010
0000
0001
0000
1000
0001
1000
0000
,
0001
0000
0100
0000
0010
0000
0100
0000
0001
0000
0010
0000
0100
1000
0100
0000
,
1000
0000
0010
0000
0100
0000
0001
0000
0010
0000
0001
0000
1000
0001
1000
0000
,
0001
0000
0100
0000
0010
0000
0100
0000
0001
0000
0010
0000
0001
0010
0001
0000
,
0100
0100
0001
0001
1000
1000
0010
0010
,
0100
0100
0001
0001
1000
1000
0100
0100
,
1000
0100
1000
0010
1000
0001
0100
0010
0100
0001
0010
0100
1000
0010
0100
0000
,
1001
0110
0000
1001
0000
0110
1001
0110
,
0010
0000
0100
0000
0001
0000
1000
0000
0100
0000
0010
0000
0001
0100
0010
0000
,
0100
0000
0001
0000
0010
0000
0100
0000
1000
0000
0001
0000
1000
0010
1000
0000
,
0001
0000
0100
0000
0010
0000
0100
0000
0001
0000
0010
0000
0001
0100
0001
0000
,
0100
0000
0010
0000
0100
0000
0001
0000
0010
0000
0001
0000
1000
0010
0100
0000
,
0001
0100
0001
0100
0001
0000
0100
0000
0010
0100
0010
0000
1000
0000
0001
0000
,
1000
0001
1000
0000
0001
0000
0100
0000
0001
0010
0001
0000
0100
0000
0010
0000
,
0100
0001
0010
0100
1000
0001
0100
0010
1000
0100
0010
0100
1000
0001
0100
0010
,
0100
0001
0010
0001
1000
0010
0100
0000
0101
0000
0000
1010
0000
0000
1100
0000
,
0022
0000
0000
0000
0033
0000
0001
1000
0020
0030
0200
0300
0002
0003
0020
0030
,
0002
0003
0200
0300
2000
3000
0200
0300
0002
0003
0020
0030
0200
0300
2000
3000
,
0020
0000
0000
0000
0030
0000
0100
0001
2000
3000
0200
0300
2000
3000
0020
0030
,
0200
0300
0002
0003
0020
0030
0002
0003
0200
0300
2000
3000
0200
0300
0002
0003
,
0020
0000
0000
0030
0002
0003
0200
0300
0020
0030
0200
0300
0002
0003
0020
0030
,
0200
0000
0000
0300
2000
3000
0020
0030
0200
0300
0002
0003
0020
0030
0002
0003
,
2000
0000
0000
3000
0020
0000
0000
0030
0200
0000
0000
0300
0002
0000
0000
0003
,
2000
0000
0000
3000
0002
0000
0000
0003
0020
0000
0000
0030
0100
0000
1001
0000
,
0001
0000
0100
0001
0000
0100
0001
0000
1000
0000
0010
1000
0000
0010
1000
0000
,
0001
0000
0010
0001
0000
0010
0001
0000
0100
0000
0010
0100
0000
0010
0100
0000
,
1001
0000
1000
0001
0000
1000
0001
0000
1000
0000
0001
0010
0000
0001
0010
0000
,
0001
0000
0100
0010
0000
0100
0010
0000
0100
0000
0001
1000
0000
0001
1000
0000
,
1001
0000
0001
0010
0000
0001
0010
0000
0001
0000
0100
0010
0000
0100
0010
0000
,
1000
0000
0010
1000
0000
0010
1000
0000
0001
0000
1000
0001
0000
1000
0001
0000
,
1001
0000
0001
0100
0000
0001
0100
0000
0010
0000
1000
0010
0000
1000
0010
0000
,
0100
0000
0001
0100
0000
0001
0100
0000
0001
1000
0010
0100
0001
0010
0100
0000
,
1001
0000
0001
1000
0000
0001
1000
0000
0001
0000
0100
0001
0000
0100
0001
0000
,
0100
0000
0010
0100
0000
0010
0100
0000
0001
0000
1000
0010
0000
1000
0010
0000
,
1010
0000
0010
0100
0000
0010
0100
0000
0001
0000
0010
0001
0000
0010
0001
0000
,
0100
0000
0001
0100
0000
0001
0100
0000
0010
0000
1000
0010
0000
1000
0010
0000
,
1010
0010
1000
0100
0001
0100
1000
0001
,
0101
0001
0100
1000
0100
0001
1000
0010
,
0100
0001
0100
0001
0010
0001
0100
0001
0100
0010
0100
0010
1000
0010
1000
0010
,
1000
0100
0010
0001
0100
0010
1000
0001
0010
0100
1000
0010
0100
0001
1000
0000
,
2002
0000
0000
0000
0000
0000
0000
3003
,
0001
1000
0010
0100
0001
0010
0100
1000
0001
0100
0010
0100
0001
0010
0001
1000
,
0010
1000
0001
1000
0100
0010
0100
1000
0001
0100
0010
0100
0001
0010
0100
1000
,
0001
0100
0001
1000
0010
0100
0010
1000
0001
0010
0001
1000
0010
1000
0001
1000
,
0100
0010
0001
1000
0001
0100
0010
1000
0010
0100
0001
0010
0100
1000
0001
0100
,
0001
0100
0010
1000
0100
0010
0001
1000
0010
1000
0001
0010
0001
1000
0001
0100
,
0001
1000
0010
1000
0001
0010
0100
1000
0010
0100
0001
1000
0010
1000
0010
0100
,
0010
0100
0001
0010
0001
1000
0010
0100
0001
0010
0100
1000
0010
0100
0001
1000
,
0100
0010
0001
0100
0010
0100
0001
0010
0100
1000
0001
0100
0010
0000
0100
0000
,
0220
0000
0330
0000
1001
0000
0001
0000
0100
0001
0100
0001
0010
0001
0100
0010
,
0100
0001
0010
0100
1000
0001
1000
0010
1000
0001
1000
0100
0010
0001
1000
0010
,
1000
0001
0010
0001
0100
0001
0100
0010
0100
0001
0010
0100
1000
0001
1000
0010
,
1000
0100
0010
0100
1000
0001
0100
0010
0100
0001
0010
0100
1000
0001
0100
0001
,
1000
0010
1000
0010
1000
0010
0100
0001
0100
0001
0010
0100
1000
0001
0100
0001
,
1000
0010
1000
0010
1000
0001
0100
0001
0010
0100
1000
0010
0100
0001
0010
0001
,
1001
0000
0000
1001
0000
0000
0011
0000
1100
0000
0000
0101
0000
0000
0110
0000
,
0010
1000
0100
0010
0001
0100
0010
0100
0001
0010
0100
1000
0010
0100
0001
1000
,
2002
0000
0000
0000
3003
0000
0001
1000
0200
0300
2000
3000
0020
0030
0200
0300
,
2000
3000
0200
0300
0002
0003
0020
0030
0200
0300
0020
0030
0002
0003
0200
0000
,
0020
0000
0000
0330
;
